  0
SECTION
  2
HEADER
  9
$ACADVER
  1
AC1015
  9
$ACADMAINTVER
 70
     6
  9
$DWGCODEPAGE
  3
DOS932
  9
$INSBASE
 10
0.0
 20
0.0
 30
0.0
  9
$EXTMIN
 10
0.0
 20
0.0
 30
0.0
  9
$EXTMAX
 10
210.0
 20
297.0
 30
0.0
  9
$LIMMIN
 10
0.0
 20
0.0
  9
$LIMMAX
 10
210.0
 20
297.0
  9
$ORTHOMODE
 70
     0
  9
$REGENMODE
 70
     1
  9
$FILLMODE
 70
     1
  9
$QTEXTMODE
 70
     0
  9
$MIRRTEXT
 70
     1
  9
$LTSCALE
 40
1.0
  9
$ATTMODE
 70
     1
  9
$TEXTSIZE
 40
3.5
  9
$TRACEWID
 40
1.0
  9
$TEXTSTYLE
  7
Standard
  9
$CLAYER
  8
0
  9
$CELTYPE
  6
ByLayer
  9
$CECOLOR
 62
   256
  9
$CELTSCALE
 40
1.0
  9
$DISPSILH
 70
     0
  9
$DIMSCALE
 40
1.0
  9
$DIMASZ
 40
1.5
  9
$DIMEXO
 40
1.0
  9
$DIMDLI
 40
3.75
  9
$DIMRND
 40
0.0
  9
$DIMDLE
 40
0.0
  9
$DIMEXE
 40
1.0
  9
$DIMTP
 40
0.0
  9
$DIMTM
 40
0.0
  9
$DIMTXT
 40
3.5
  9
$DIMCEN
 40
2.5
  9
$DIMTSZ
 40
0.0
  9
$DIMTOL
 70
     0
  9
$DIMLIM
 70
     0
  9
$DIMTIH
 70
     1
  9
$DIMTOH
 70
     1
  9
$DIMSE1
 70
     0
  9
$DIMSE2
 70
     0
  9
$DIMTAD
 70
     1
  9
$DIMZIN
 70
     0
  9
$DIMBLK
  1

  9
$DIMASO
 70
     1
  9
$DIMSHO
 70
     1
  9
$DIMPOST
  1

  9
$DIMAPOST
  1

  9
$DIMALT
 70
     0
  9
$DIMALTD
 70
     3
  9
$DIMALTF
 40
0.0393700787
  9
$DIMLFAC
 40
1.0
  9
$DIMTOFL
 70
     1
  9
$DIMTVP
 40
0.0
  9
$DIMTIX
 70
     0
  9
$DIMSOXD
 70
     0
  9
$DIMSAH
 70
     0
  9
$DIMBLK1
  1

  9
$DIMBLK2
  1

  9
$DIMSTYLE
  2
ISO-25
  9
$DIMCLRD
 70
     0
  9
$DIMCLRE
 70
     0
  9
$DIMCLRT
 70
     0
  9
$DIMTFAC
 40
1.0
  9
$DIMGAP
 40
1.524
  9
$DIMJUST
 70
     0
  9
$DIMSD1
 70
     0
  9
$DIMSD2
 70
     0
  9
$DIMTOLJ
 70
     0
  9
$DIMTZIN
 70
     0
  9
$DIMALTZ
 70
     0
  9
$DIMALTTZ
 70
     0
  9
$DIMUPT
 70
     0
  9
$DIMDEC
 70
     2
  9
$DIMTDEC
 70
     2
  9
$DIMALTU
 70
     2
  9
$DIMALTTD
 70
     3
  9
$DIMTXSTY
  7
Standard
  9
$DIMAUNIT
 70
     0
  9
$DIMADEC
 70
     2
  9
$DIMALTRND
 40
0.0
  9
$DIMAZIN
 70
     0
  9
$DIMDSEP
 70
    44
  9
$DIMATFIT
 70
     3
  9
$DIMFRAC
 70
     0
  9
$DIMLDRBLK
  1

  9
$DIMLUNIT
 70
     2
  9
$DIMLWD
 70
    -2
  9
$DIMLWE
 70
    -2
  9
$DIMTMOVE
 70
     0
  9
$LUNITS
 70
     2
  9
$LUPREC
 70
     2
  9
$SKETCHINC
 40
1.0
  9
$FILLETRAD
 40
10.0
  9
$AUNITS
 70
     0
  9
$AUPREC
 70
     2
  9
$MENU
  1
.
  9
$ELEVATION
 40
0.0
  9
$PELEVATION
 40
0.0
  9
$THICKNESS
 40
0.0
  9
$LIMCHECK
 70
     0
  9
$CHAMFERA
 40
0.0
  9
$CHAMFERB
 40
0.0
  9
$CHAMFERC
 40
0.0
  9
$CHAMFERD
 40
0.0
  9
$SKPOLY
 70
     0
  9
$TDCREATE
 40
2458131.641464861
  9
$TDUCREATE
 40
2458131.599798195
  9
$TDUPDATE
 40
2458131.641467639
  9
$TDUUPDATE
 40
2458131.599800972
  9
$TDINDWG
 40
0.0000000116
  9
$TDUSRTIMER
 40
0.0000000116
  9
$USRTIMER
 70
     1
  9
$ANGBASE
 50
0.0
  9
$ANGDIR
 70
     0
  9
$PDMODE
 70
     0
  9
$PDSIZE
 40
-1.0
  9
$PLINEWID
 40
0.0
  9
$SPLFRAME
 70
     0
  9
$SPLINETYPE
 70
     6
  9
$SPLINESEGS
 70
     8
  9
$HANDSEED
  5
403
  9
$SURFTAB1
 70
     6
  9
$SURFTAB2
 70
     6
  9
$SURFTYPE
 70
     6
  9
$SURFU
 70
     6
  9
$SURFV
 70
     6
  9
$UCSBASE
  2

  9
$UCSNAME
  2

  9
$UCSORG
 10
0.0
 20
0.0
 30
0.0
  9
$UCSXDIR
 10
1.0
 20
0.0
 30
0.0
  9
$UCSYDIR
 10
0.0
 20
1.0
 30
0.0
  9
$UCSORTHOREF
  2

  9
$UCSORTHOVIEW
 70
     0
  9
$UCSORGTOP
 10
0.0
 20
0.0
 30
0.0
  9
$UCSORGBOTTOM
 10
0.0
 20
0.0
 30
0.0
  9
$UCSORGLEFT
 10
0.0
 20
0.0
 30
0.0
  9
$UCSORGRIGHT
 10
0.0
 20
0.0
 30
0.0
  9
$UCSORGFRONT
 10
0.0
 20
0.0
 30
0.0
  9
$UCSORGBACK
 10
0.0
 20
0.0
 30
0.0
  9
$PUCSBASE
  2

  9
$PUCSNAME
  2

  9
$PUCSORG
 10
0.0
 20
0.0
 30
0.0
  9
$PUCSXDIR
 10
1.0
 20
0.0
 30
0.0
  9
$PUCSYDIR
 10
0.0
 20
1.0
 30
0.0
  9
$PUCSORTHOREF
  2

  9
$PUCSORTHOVIEW
 70
     0
  9
$PUCSORGTOP
 10
0.0
 20
0.0
 30
0.0
  9
$PUCSORGBOTTOM
 10
0.0
 20
0.0
 30
0.0
  9
$PUCSORGLEFT
 10
0.0
 20
0.0
 30
0.0
  9
$PUCSORGRIGHT
 10
0.0
 20
0.0
 30
0.0
  9
$PUCSORGFRONT
 10
0.0
 20
0.0
 30
0.0
  9
$PUCSORGBACK
 10
0.0
 20
0.0
 30
0.0
  9
$USERI1
 70
     0
  9
$USERI2
 70
     0
  9
$USERI3
 70
     0
  9
$USERI4
 70
     0
  9
$USERI5
 70
     0
  9
$USERR1
 40
0.0
  9
$USERR2
 40
0.0
  9
$USERR3
 40
0.0
  9
$USERR4
 40
0.0
  9
$USERR5
 40
0.0
  9
$WORLDVIEW
 70
     1
  9
$SHADEDGE
 70
     3
  9
$SHADEDIF
 70
    70
  9
$TILEMODE
 70
     1
  9
$MAXACTVP
 70
    64
  9
$PINSBASE
 10
0.0
 20
0.0
 30
0.0
  9
$PLIMCHECK
 70
     0
  9
$PEXTMIN
 10
1.0000000000E+20
 20
1.0000000000E+20
 30
1.0000000000E+20
  9
$PEXTMAX
 10
-1.0000000000E+20
 20
-1.0000000000E+20
 30
-1.0000000000E+20
  9
$PLIMMIN
 10
0.0
 20
0.0
  9
$PLIMMAX
 10
420.0
 20
297.0
  9
$UNITMODE
 70
     0
  9
$VISRETAIN
 70
     1
  9
$PLINEGEN
 70
     0
  9
$PSLTSCALE
 70
     1
  9
$TREEDEPTH
 70
  3020
  9
$CMLSTYLE
  2
Standard
  9
$CMLJUST
 70
     0
  9
$CMLSCALE
 40
20.0
  9
$PROXYGRAPHICS
 70
     1
  9
$MEASUREMENT
 70
     1
  9
$CELWEIGHT
370
    -1
  9
$ENDCAPS
280
     0
  9
$JOINSTYLE
280
     0
  9
$LWDISPLAY
290
     1
  9
$INSUNITS
 70
     4
  9
$HYPERLINKBASE
  1

  9
$STYLESHEET
  1

  9
$XEDIT
290
     1
  9
$CEPSNTYPE
380
     0
  9
$PSTYLEMODE
290
     1
  9
$FINGERPRINTGUID
  2
{BF882200-742B-4026-AB4D-0490A4B05931}
  9
$VERSIONGUID
  2
{FAEB1C32-E019-11D5-929B-00C0DF256EC4}
  9
$EXTNAMES
290
     1
  9
$PSVPSCALE
 40
0.0
  9
$OLESTARTUP
290
     0
  0
ENDSEC
  0
SECTION
  2
CLASSES
  0
CLASS
  1
ACDBDICTIONARYWDFLT
  2
AcDbDictionaryWithDefault
  3
ObjectDBX Classes
 90
        0
280
     0
281
     0
  0
CLASS
  1
VISUALSTYLE
  2
AcDbVisualStyle
  3
ObjectDBX Classes
 90
     4095
280
     0
281
     0
  0
CLASS
  1
MATERIAL
  2
AcDbMaterial
  3
ObjectDBX Classes
 90
     1153
280
     0
281
     0
  0
CLASS
  1
SCALE
  2
AcDbScale
  3
ObjectDBX Classes
 90
     1153
280
     0
281
     0
  0
CLASS
  1
SUN
  2
AcDbSun
  3
SCENEOE
 90
     1153
280
     0
281
     0
  0
CLASS
  1
ACDBPLACEHOLDER
  2
AcDbPlaceHolder
  3
ObjectDBX Classes
 90
        0
280
     0
281
     0
  0
CLASS
  1
LAYOUT
  2
AcDbLayout
  3
ObjectDBX Classes
 90
        0
280
     0
281
     0
  0
ENDSEC
  0
SECTION
  2
TABLES
  0
TABLE
  2
VPORT
  5
8
330
0
100
AcDbSymbolTable
 70
     1
  0
VPORT
  5
29
330
8
100
AcDbSymbolTableRecord
100
AcDbViewportTableRecord
  2
*Active
 70
     0
 10
0.0
 20
0.0
 11
1.0
 21
1.0
 12
105.0
 22
148.5
 13
0.0
 23
0.0
 14
10.0
 24
10.0
 15
10.0
 25
10.0
 16
0.0
 26
0.0
 36
1.0
 17
0.0
 27
0.0
 37
0.0
 40
297.0
 41
0.7070707071
 42
50.0
 43
0.0
 44
0.0
 50
0.0
 51
0.0
 71
     0
 72
  2000
 73
     1
 74
     3
 75
     0
 76
     0
 77
     0
 78
     0
281
     0
 65
     1
110
0.0
120
0.0
130
0.0
111
1.0
121
0.0
131
0.0
112
0.0
122
1.0
132
0.0
 79
     0
146
0.0
  0
ENDTAB
  0
TABLE
  2
LTYPE
  5
5
330
0
100
AcDbSymbolTable
 70
     6
  0
LTYPE
  5
14
330
5
100
AcDbSymbolTableRecord
100
AcDbLinetypeTableRecord
  2
ByBlock
 70
     0
  3

 72
    65
 73
     0
 40
0.0
  0
LTYPE
  5
15
330
5
100
AcDbSymbolTableRecord
100
AcDbLinetypeTableRecord
  2
ByLayer
 70
     0
  3

 72
    65
 73
     0
 40
0.0
  0
LTYPE
  5
16
330
5
100
AcDbSymbolTableRecord
100
AcDbLinetypeTableRecord
  2
Continuous
 70
     0
  3
Solid line
 72
    65
 73
     0
 40
0.0
  0
LTYPE
  5
6A
330
5
100
AcDbSymbolTableRecord
100
AcDbLinetypeTableRecord
  2
HIDDEN
 70
     0
  3
Hidden __ __ __ __ __ __ __ __ __ __ __ __ __ __
 72
    65
 73
     2
 40
1.905
 49
1.27
 74
     0
 49
-0.635
 74
     0
  0
LTYPE
  5
6B
330
5
100
AcDbSymbolTableRecord
100
AcDbLinetypeTableRecord
  2
PHANTOM
 70
     0
  3
Phantom ______  __  __  ______  __  __  ______
 72
    65
 73
     6
 40
12.7
 49
6.35
 74
     0
 49
-1.27
 74
     0
 49
1.27
 74
     0
 49
-1.27
 74
     0
 49
1.27
 74
     0
 49
-1.27
 74
     0
  0
LTYPE
  5
6C
330
5
100
AcDbSymbolTableRecord
100
AcDbLinetypeTableRecord
  2
CENTER
 70
     0
  3
Center ____ _ ____ _ ____ _ ____ _ ____ _ ____
 72
    65
 73
     4
 40
10.16
 49
6.35
 74
     0
 49
-1.27
 74
     0
 49
1.27
 74
     0
 49
-1.27
 74
     0
  0
LTYPE
  5
6D
330
5
100
AcDbSymbolTableRecord
100
AcDbLinetypeTableRecord
  2
CENTERX2
 70
     0
  3
Center (2x) ________  __  ________  __  _____
 72
    65
 73
     4
 40
20.32
 49
12.7
 74
     0
 49
-2.54
 74
     0
 49
2.54
 74
     0
 49
-2.54
 74
     0
  0
LTYPE
  5
6E
330
5
100
AcDbSymbolTableRecord
100
AcDbLinetypeTableRecord
  2
DOT2
 70
     0
  3
Dot (.5x) ........................................
 72
    65
 73
     2
 40
0.635
 49
0.0
 74
     0
 49
-0.635
 74
     0
  0
ENDTAB
  0
TABLE
  2
LAYER
  5
2
330
0
100
AcDbSymbolTable
 70
     1
  0
LAYER
  5
10
330
2
100
AcDbSymbolTableRecord
100
AcDbLayerTableRecord
  2
0
 70
     0
 62
     7
  6
Continuous
370
    -3
390
F
  0
ENDTAB
  0
TABLE
  2
STYLE
  5
3
330
0
100
AcDbSymbolTable
 70
     3
  0
STYLE
  5
11
330
3
100
AcDbSymbolTableRecord
100
AcDbTextStyleTableRecord
  2
Standard
 70
     0
 40
0.0
 41
1.0
 50
0.0
 71
     0
 42
3.5
  3
txt
  4
bigfont
  0
STYLE
  5
87
330
3
100
AcDbSymbolTableRecord
100
AcDbTextStyleTableRecord
  2
SLDTEXTSTYLE0
 70
     0
 40
0.0
 41
0.7
 50
0.0
 71
     0
 42
3.5
  3
TXT
  4
bigfont
  0
STYLE
  5
EF
330
3
100
AcDbSymbolTableRecord
100
AcDbTextStyleTableRecord
  2
SLDTEXTSTYLE1
 70
     0
 40
0.0
 41
0.6090909091
 50
0.0
 71
     0
 42
3.5
  3
TXT
  4
bigfont
  0
ENDTAB
  0
TABLE
  2
VIEW
  5
6
330
0
100
AcDbSymbolTable
 70
     0
  0
ENDTAB
  0
TABLE
  2
UCS
  5
7
330
0
100
AcDbSymbolTable
 70
     0
  0
ENDTAB
  0
TABLE
  2
APPID
  5
9
330
0
100
AcDbSymbolTable
 70
     1
  0
APPID
  5
12
330
9
100
AcDbSymbolTableRecord
100
AcDbRegAppTableRecord
  2
ACAD
 70
     0
  0
ENDTAB
  0
TABLE
  2
DIMSTYLE
  5
A
330
0
100
AcDbSymbolTable
 70
    14
100
AcDbDimStyleTable
  0
DIMSTYLE
105
27
330
A
100
AcDbSymbolTableRecord
100
AcDbDimStyleTableRecord
  2
ISO-25
 70
     0
 41
2.5
 42
0.625
 43
3.75
 44
1.25
 73
     0
 74
     0
 77
     1
 78
     8
140
2.5
141
2.5
143
0.0393700787
147
0.625
171
     3
172
     1
178
     0
271
     2
272
     2
274
     3
278
    44
283
     0
284
     8
340
11
  0
DIMSTYLE
105
88
102
{ACAD_REACTORS
330
86
102
}
330
A
100
AcDbSymbolTableRecord
100
AcDbDimStyleTableRecord
  2
SLDDIMSTYLE0
 70
     0
 41
1.5
 44
0.0
 45
0.000000001
 78
    12
 79
     3
140
3.5
141
0.0
147
0.875
172
     1
173
     1
178
     0
271
     2
272
     2
276
     2
284
    12
340
87
341
89
343
89
344
8C
  0
DIMSTYLE
105
9D
102
{ACAD_REACTORS
330
9C
330
A7
102
}
330
A
100
AcDbSymbolTableRecord
100
AcDbDimStyleTableRecord
  2
SLDDIMSTYLE1
 70
     0
 41
1.5
 44
0.0
 73
     0
 74
     0
 77
     3
 78
    12
 79
     3
140
3.5
147
0.875
173
     1
178
     0
179
     2
272
     2
276
     2
284
    12
340
87
341
8C
343
8C
344
8C
  0
DIMSTYLE
105
B2
102
{ACAD_REACTORS
330
B1
102
}
330
A
100
AcDbSymbolTableRecord
100
AcDbDimStyleTableRecord
  2
SLDDIMSTYLE2
 70
     0
 41
1.5
 44
0.0
 45
0.000000001
 47
0.1
 71
     1
 78
     8
 79
     2
140
3.5
141
0.0
147
0.875
172
     1
173
     1
178
     0
271
     2
272
     1
276
     2
284
     8
340
87
341
89
343
89
344
8C
  0
DIMSTYLE
105
151
102
{ACAD_REACTORS
330
150
102
}
330
A
100
AcDbSymbolTableRecord
100
AcDbDimStyleTableRecord
  2
SLDDIMSTYLE3
 70
     0
 41
1.5
 44
0.0
 45
0.000000001
 73
     0
 74
     0
 77
     3
 78
    12
 79
     3
140
3.5
147
0.875
173
     1
178
     0
271
     6
272
     1
276
     2
284
    12
340
87
341
8C
343
8C
344
8C
  0
DIMSTYLE
105
15E
102
{ACAD_REACTORS
330
15D
330
169
330
391
102
}
330
A
100
AcDbSymbolTableRecord
100
AcDbDimStyleTableRecord
  2
SLDDIMSTYLE4
 70
     0
 41
1.5
 44
0.0
 45
0.000000001
 73
     0
 74
     0
 77
     3
 78
    12
 79
     3
140
3.5
147
0.875
173
     1
178
     0
271
     1
272
     1
276
     2
284
    12
340
87
341
8C
343
8C
344
8C
  0
DIMSTYLE
105
174
102
{ACAD_REACTORS
330
173
330
29D
330
31B
102
}
330
A
100
AcDbSymbolTableRecord
100
AcDbDimStyleTableRecord
  2
SLDDIMSTYLE5
 70
     0
 41
1.5
 44
0.0
 45
0.000000001
 73
     0
 74
     0
 77
     3
 78
    12
 79
     3
140
3.5
147
0.875
172
     1
173
     1
178
     0
271
     1
272
     1
276
     2
284
    12
289
     0
340
87
341
8C
343
8C
344
8C
  0
DIMSTYLE
105
181
102
{ACAD_REACTORS
330
180
330
2A9
102
}
330
A
100
AcDbSymbolTableRecord
100
AcDbDimStyleTableRecord
  2
SLDDIMSTYLE6
 70
     0
 41
1.5
 44
0.0
 45
0.000000001
 73
     0
 74
     0
 77
     3
 78
    12
 79
     3
140
3.5
147
0.875
173
     1
178
     0
271
     6
272
     2
276
     2
284
    12
340
87
341
8C
343
8C
344
8C
  0
DIMSTYLE
105
18C
102
{ACAD_REACTORS
330
18B
102
}
330
A
100
AcDbSymbolTableRecord
100
AcDbDimStyleTableRecord
  2
SLDDIMSTYLE7
 70
     0
 41
1.5
 44
0.0
 45
0.000000001
 73
     0
 74
     0
 77
     3
 78
    12
 79
     3
140
3.5
147
0.875
173
     1
178
     0
271
     1
272
     2
276
     2
284
    12
340
87
341
8C
343
8C
344
8C
  0
DIMSTYLE
105
198
102
{ACAD_REACTORS
330
197
102
}
330
A
100
AcDbSymbolTableRecord
100
AcDbDimStyleTableRecord
  2
SLDDIMSTYLE8
 70
     0
 41
1.5
 44
0.0
 45
0.000000001
 47
0.05
 48
0.05
 71
     1
 73
     0
 74
     0
 77
     3
 78
     8
 79
     2
140
3.5
147
0.875
172
     1
173
     1
178
     0
271
     2
272
     2
276
     2
284
     8
289
     0
340
87
341
8C
343
8C
344
8C
  0
DIMSTYLE
105
27C
102
{ACAD_REACTORS
330
27B
102
}
330
A
100
AcDbSymbolTableRecord
100
AcDbDimStyleTableRecord
  2
SLDDIMSTYLE9
 70
     0
 41
1.5
 44
0.0
 45
0.000000001
 47
0.2
 48
0.2
 71
     1
 78
    12
 79
     3
140
3.5
141
0.0
147
0.875
172
     1
173
     1
178
     0
271
     2
272
     1
276
     2
284
     8
340
87
341
89
343
89
344
8C
  0
DIMSTYLE
105
289
102
{ACAD_REACTORS
330
288
330
293
102
}
330
A
100
AcDbSymbolTableRecord
100
AcDbDimStyleTableRecord
  2
SLDDIMSTYLE10
 70
     0
 41
1.5
 44
0.0
 73
     0
 74
     0
 77
     3
 78
    12
 79
     3
140
3.5
147
0.875
173
     1
178
     0
179
     2
272
     2
276
     2
284
    12
340
87
341
8C
343
8C
344
8C
  0
DIMSTYLE
105
2B5
330
A
100
AcDbSymbolTableRecord
100
AcDbDimStyleTableRecord
  2
SLDDIMSTYLE11
 70
     0
 41
1.5
 44
0.0
 45
0.000000001
146
1.5
147
0.0
173
     1
178
     0
271
     0
272
     0
276
     2
340
11
341
8C
343
8C
344
8C
  0
DIMSTYLE
105
326
102
{ACAD_REACTORS
330
325
102
}
330
A
100
AcDbSymbolTableRecord
100
AcDbDimStyleTableRecord
  2
SLDDIMSTYLE12
 70
     0
 41
1.5
 44
0.0
 45
0.000000001
 47
0.2
 71
     1
 73
     0
 74
     0
 77
     3
 78
    12
 79
     3
140
3.5
147
0.875
173
     1
178
     0
271
     1
272
     1
276
     2
284
     8
340
87
341
8C
343
8C
344
8C
  0
ENDTAB
  0
TABLE
  2
BLOCK_RECORD
  5
1
330
0
100
AcDbSymbolTable
 70
    27
  0
BLOCK_RECORD
  5
1F
330
1
100
AcDbSymbolTableRecord
100
AcDbBlockTableRecord
  2
*Model_Space
340
22
  0
BLOCK_RECORD
  5
1B
330
1
100
AcDbSymbolTableRecord
100
AcDbBlockTableRecord
  2
*Paper_Space
340
1E
  0
BLOCK_RECORD
  5
23
330
1
100
AcDbSymbolTableRecord
100
AcDbBlockTableRecord
  2
*Paper_Space0
340
26
  0
BLOCK_RECORD
  5
89
330
1
100
AcDbSymbolTableRecord
100
AcDbBlockTableRecord
  2
_NONE
340
0
  0
BLOCK_RECORD
  5
8C
330
1
100
AcDbSymbolTableRecord
100
AcDbBlockTableRecord
  2
_OPEN30
340
0
102
{BLKREFS
331
95
331
A2
331
A3
331
AC
331
AD
331
B6
331
FB
331
155
331
156
331
162
331
163
331
16D
331
16E
331
178
331
179
331
185
331
186
331
190
331
191
331
19C
331
19D
331
1AD
331
1AF
331
280
331
28E
331
28F
331
298
331
299
331
2A1
331
2A2
331
2AD
331
2AE
331
31F
331
320
331
32A
331
32B
331
395
331
396
102
}
  0
BLOCK_RECORD
  5
92
330
1
100
AcDbSymbolTableRecord
100
AcDbBlockTableRecord
  2
_D
340
0
  0
BLOCK_RECORD
  5
9E
330
1
100
AcDbSymbolTableRecord
100
AcDbBlockTableRecord
  2
_D_1
340
0
  0
BLOCK_RECORD
  5
A8
330
1
100
AcDbSymbolTableRecord
100
AcDbBlockTableRecord
  2
_D_2
340
0
  0
BLOCK_RECORD
  5
B3
330
1
100
AcDbSymbolTableRecord
100
AcDbBlockTableRecord
  2
_D_3
340
0
  0
BLOCK_RECORD
  5
C2
330
1
100
AcDbSymbolTableRecord
100
AcDbBlockTableRecord
  2
SW_NOTE_0
340
0
102
{BLKREFS
331
C8
102
}
  0
BLOCK_RECORD
  5
C9
330
1
100
AcDbSymbolTableRecord
100
AcDbBlockTableRecord
  2
SW_NOTE_1
340
0
102
{BLKREFS
331
CE
102
}
  0
BLOCK_RECORD
  5
D5
330
1
100
AcDbSymbolTableRecord
100
AcDbBlockTableRecord
  2
SW_NOTE_2
340
0
102
{BLKREFS
331
DF
102
}
  0
BLOCK_RECORD
  5
EC
330
1
100
AcDbSymbolTableRecord
100
AcDbBlockTableRecord
  2
SW_NOTE_3
340
0
102
{BLKREFS
331
F2
102
}
  0
BLOCK_RECORD
  5
F3
330
1
100
AcDbSymbolTableRecord
100
AcDbBlockTableRecord
  2
SW_NOTE_4
340
0
102
{BLKREFS
331
FA
102
}
  0
BLOCK_RECORD
  5
152
330
1
100
AcDbSymbolTableRecord
100
AcDbBlockTableRecord
  2
_D_4
340
0
  0
BLOCK_RECORD
  5
15F
330
1
100
AcDbSymbolTableRecord
100
AcDbBlockTableRecord
  2
_D_5
340
0
  0
BLOCK_RECORD
  5
16A
330
1
100
AcDbSymbolTableRecord
100
AcDbBlockTableRecord
  2
_D_6
340
0
  0
BLOCK_RECORD
  5
175
330
1
100
AcDbSymbolTableRecord
100
AcDbBlockTableRecord
  2
_D_7
340
0
  0
BLOCK_RECORD
  5
182
330
1
100
AcDbSymbolTableRecord
100
AcDbBlockTableRecord
  2
_D_8
340
0
  0
BLOCK_RECORD
  5
18D
330
1
100
AcDbSymbolTableRecord
100
AcDbBlockTableRecord
  2
_D_9
340
0
  0
BLOCK_RECORD
  5
199
330
1
100
AcDbSymbolTableRecord
100
AcDbBlockTableRecord
  2
_D_10
340
0
  0
BLOCK_RECORD
  5
27D
330
1
100
AcDbSymbolTableRecord
100
AcDbBlockTableRecord
  2
_D_11
340
0
  0
BLOCK_RECORD
  5
28A
330
1
100
AcDbSymbolTableRecord
100
AcDbBlockTableRecord
  2
_D_12
340
0
  0
BLOCK_RECORD
  5
294
330
1
100
AcDbSymbolTableRecord
100
AcDbBlockTableRecord
  2
_D_13
340
0
  0
BLOCK_RECORD
  5
29E
330
1
100
AcDbSymbolTableRecord
100
AcDbBlockTableRecord
  2
_D_14
340
0
  0
BLOCK_RECORD
  5
2AA
330
1
100
AcDbSymbolTableRecord
100
AcDbBlockTableRecord
  2
_D_15
340
0
  0
BLOCK_RECORD
  5
31C
330
1
100
AcDbSymbolTableRecord
100
AcDbBlockTableRecord
  2
_D_16
340
0
  0
BLOCK_RECORD
  5
327
330
1
100
AcDbSymbolTableRecord
100
AcDbBlockTableRecord
  2
_D_17
340
0
  0
BLOCK_RECORD
  5
392
330
1
100
AcDbSymbolTableRecord
100
AcDbBlockTableRecord
  2
_D_18
340
0
  0
ENDTAB
  0
ENDSEC
  0
SECTION
  2
BLOCKS
  0
BLOCK
  5
20
330
1F
100
AcDbEntity
  8
0
100
AcDbBlockBegin
  2
*Model_Space
 70
     0
 10
0.0
 20
0.0
 30
0.0
  3
*Model_Space
  1
*Model_Space
  0
ENDBLK
  5
21
330
1F
100
AcDbEntity
  8
0
100
AcDbBlockEnd
  0
BLOCK
  5
1C
330
1B
100
AcDbEntity
 67
     1
  8
0
100
AcDbBlockBegin
  2
*Paper_Space
 70
     0
 10
0.0
 20
0.0
 30
0.0
  3
*Paper_Space
  1
*Paper_Space
  0
ENDBLK
  5
1D
330
1B
100
AcDbEntity
 67
     1
  8
0
100
AcDbBlockEnd
  0
BLOCK
  5
24
330
23
100
AcDbEntity
  8
0
100
AcDbBlockBegin
  2
*Paper_Space0
 70
     0
 10
0.0
 20
0.0
 30
0.0
  3
*Paper_Space0
  1
*Paper_Space0
  0
ENDBLK
  5
25
330
23
100
AcDbEntity
  8
0
100
AcDbBlockEnd
  0
BLOCK
  5
8A
330
89
100
AcDbEntity
  8
0
100
AcDbBlockBegin
  2
_NONE
 70
     0
 10
0.0
 20
0.0
 30
0.0
  3
_NONE
  1
_NONE
  0
ENDBLK
  5
8B
330
89
100
AcDbEntity
  8
0
100
AcDbBlockEnd
  0
BLOCK
  5
8D
330
8C
100
AcDbEntity
  8
0
100
AcDbBlockBegin
  2
_OPEN30
 70
     0
 10
0.0
 20
0.0
 30
0.0
  3
_OPEN30
  1
_OPEN30
  0
LINE
  5
8F
330
8C
100
AcDbEntity
  8
0
  6
ByBlock
 62
     0
370
    -2
100
AcDbLine
 10
-1.0
 20
0.267949
 30
0.0
 11
0.0
 21
0.0
 31
0.0
  0
LINE
  5
90
330
8C
100
AcDbEntity
  8
0
  6
ByBlock
 62
     0
370
    -2
100
AcDbLine
 10
0.0
 20
0.0
 30
0.0
 11
-1.0
 21
-0.267949
 31
0.0
  0
LINE
  5
91
330
8C
100
AcDbEntity
  8
0
  6
ByBlock
 62
     0
370
    -2
100
AcDbLine
 10
0.0
 20
0.0
 30
0.0
 11
-1.0
 21
0.0
 31
0.0
  0
ENDBLK
  5
8E
330
8C
100
AcDbEntity
  8
0
100
AcDbBlockEnd
  0
BLOCK
  5
93
330
92
100
AcDbEntity
  8
0
100
AcDbBlockBegin
  2
_D
 70
     0
 10
0.0
 20
0.0
 30
0.0
  3
_D
  1
_D
  0
INSERT
  5
95
330
92
100
AcDbEntity
  8
0
  6
Continuous
 62
     7
370
     0
100
AcDbBlockReference
  2
_OPEN30
 10
49.8217118314
 20
125.6768594977
 30
0.1
 41
1.5
 42
1.5
 50
41.1443632207
  0
LINE
  5
96
330
92
100
AcDbEntity
  8
0
  6
Continuous
 62
     7
370
     0
100
AcDbLine
 10
49.8217118314
 20
125.6768594977
 30
0.0
 11
44.1895096072
 21
120.755891542
 31
0.0
  0
LINE
  5
97
330
92
100
AcDbEntity
  8
0
  6
Continuous
 62
     7
370
     0
100
AcDbLine
 10
53.6472270208
 20
129.0192887842
 30
0.0
 11
49.8217118314
 21
125.6768594977
 31
0.0
  0
LINE
  5
98
330
92
100
AcDbEntity
  8
0
  6
Continuous
 62
     7
370
     0
100
AcDbLine
 10
44.1895096072
 20
120.755891542
 30
0.0
 11
22.8216624835
 21
120.755891542
 31
0.0
  0
MTEXT
  5
99
330
92
100
AcDbEntity
  8
0
  6
Continuous
 62
     7
370
     0
100
AcDbMText
 10
22.8216624835
 20
125.2676288641
 30
0.0
 40
3.5
 41
0.0
 71
     1
 72
     1
  1
%%c
  7
SLDTEXTSTYLE0
 73
     1
 44
1.0
  0
MTEXT
  5
9A
330
92
100
AcDbEntity
  8
0
  6
Continuous
 62
     7
370
     0
100
AcDbMText
 10
26.6915929986
 20
125.2676288641
 30
0.0
 40
3.5
 41
0.0
 71
     1
 72
     1
  1
5.08
  7
SLDTEXTSTYLE0
 73
     1
 44
1.0
  0
MTEXT
  5
9B
330
92
100
AcDbEntity
  8
0
  6
Continuous
 62
     7
370
     0
100
AcDbMText
 10
33.6283980885
 20
125.2676288641
 30
0.0
 40
3.5
 41
0.0
 71
     1
 72
     1
  1
±0.1
  7
SLDTEXTSTYLE0
 73
     1
 44
1.0
  0
ENDBLK
  5
94
330
92
100
AcDbEntity
  8
0
100
AcDbBlockEnd
  0
BLOCK
  5
9F
330
9E
100
AcDbEntity
  8
0
100
AcDbBlockBegin
  2
_D_1
 70
     0
 10
0.0
 20
0.0
 30
0.0
  3
_D_1
  1
_D_1
  0
ARC
  5
A1
330
9E
100
AcDbEntity
  8
0
  6
Continuous
 62
     7
370
     0
100
AcDbCircle
 10
51.7344694261
 20
127.3480741409
 30
0.0
 40
16.687409545128
100
AcDbArc
 50
0.0
 51
45.0
  0
INSERT
  5
A2
330
9E
100
AcDbEntity
  8
0
  6
Continuous
 62
     7
370
     0
100
AcDbBlockReference
  2
_OPEN30
 10
68.4218789712
 20
127.3480741409
 30
0.1
 41
1.5
 42
1.5
 50
272.5682030927
  0
INSERT
  5
A3
330
9E
100
AcDbEntity
  8
0
  6
Continuous
 62
     7
370
     0
100
AcDbBlockReference
  2
_OPEN30
 10
63.5342498759
 20
139.1478545907
 30
0.1
 41
1.5
 42
1.5
 50
132.4317969073
  0
LINE
  5
A4
330
9E
100
AcDbEntity
  8
0
  6
Continuous
 62
     7
370
     0
100
AcDbLine
 10
56.6741111514
 20
127.3480741409
 30
0.0
 11
69.4218789712
 21
127.3480741409
 31
0.0
  0
LINE
  5
A5
330
9E
100
AcDbEntity
  8
0
  6
Continuous
 62
     7
370
     0
100
AcDbLine
 10
54.2376274315
 20
129.8512321463
 30
0.0
 11
64.2413566571
 21
139.8549613719
 31
0.0
  0
MTEXT
  5
A6
330
9E
100
AcDbEntity
  8
0
  6
Continuous
 62
     7
370
     0
100
AcDbMText
 10
70.9943052883
 20
137.0977837393
 30
0.0
 40
3.5
 41
0.0
 71
     1
 72
     1
  1
45°
  7
SLDTEXTSTYLE0
 11
0.275169443770663
 21
-0.9613957443295367
 31
0.0
 73
     1
 44
1.0
  0
ENDBLK
  5
A0
330
9E
100
AcDbEntity
  8
0
100
AcDbBlockEnd
  0
BLOCK
  5
A9
330
A8
100
AcDbEntity
  8
0
100
AcDbBlockBegin
  2
_D_2
 70
     0
 10
0.0
 20
0.0
 30
0.0
  3
_D_2
  1
_D_2
  0
ARC
  5
AB
330
A8
100
AcDbEntity
  8
0
  6
Continuous
 62
     7
370
     0
100
AcDbCircle
 10
51.7344694261
 20
127.3480741409
 30
0.0
 40
16.55045093580963
100
AcDbArc
 50
315.0
 51
0.0
  0
INSERT
  5
AC
330
A8
100
AcDbEntity
  8
0
  6
Continuous
 62
     7
370
     0
100
AcDbBlockReference
  2
_OPEN30
 10
63.4374055145
 20
115.6451380525
 30
0.1
 41
1.5
 42
1.5
 50
227.5893404481
  0
INSERT
  5
AD
330
A8
100
AcDbEntity
  8
0
  6
Continuous
 62
     7
370
     0
100
AcDbBlockReference
  2
_OPEN30
 10
68.2849203619
 20
127.3480741409
 30
0.1
 41
1.5
 42
1.5
 50
87.4106595519
  0
LINE
  5
AE
330
A8
100
AcDbEntity
  8
0
  6
Continuous
 62
     7
370
     0
100
AcDbLine
 10
54.2376274315
 20
124.8449161355
 30
0.0
 11
64.1445122957
 21
114.9380312713
 31
0.0
  0
LINE
  5
AF
330
A8
100
AcDbEntity
  8
0
  6
Continuous
 62
     7
370
     0
100
AcDbLine
 10
56.6741111514
 20
127.3480741409
 30
0.0
 11
69.2849203619
 21
127.3480741409
 31
0.0
  0
MTEXT
  5
B0
330
A8
100
AcDbEntity
  8
0
  6
Continuous
 62
     7
370
     0
100
AcDbMText
 10
62.4034185962
 20
120.4416664764
 30
0.0
 40
3.5
 41
0.0
 71
     1
 72
     1
  1
45°
  7
SLDTEXTSTYLE0
 11
0.2456779600317631
 21
0.9693515048498308
 31
0.0
 73
     1
 44
1.0
  0
ENDBLK
  5
AA
330
A8
100
AcDbEntity
  8
0
100
AcDbBlockEnd
  0
BLOCK
  5
B4
330
B3
100
AcDbEntity
  8
0
100
AcDbBlockBegin
  2
_D_3
 70
     0
 10
0.0
 20
0.0
 30
0.0
  3
_D_3
  1
_D_3
  0
INSERT
  5
B6
330
B3
100
AcDbEntity
  8
0
  6
Continuous
 62
     7
370
     0
100
AcDbBlockReference
  2
_OPEN30
 10
49.7313529489
 20
129.3946228322
 30
0.1
 41
1.5
 42
1.5
 50
309.5776854325
  0
LINE
  5
B7
330
B3
100
AcDbEntity
  8
0
  6
Continuous
 62
     7
370
     0
100
AcDbLine
 10
49.7313529489
 20
129.3946228322
 30
0.0
 11
45.827703222
 21
134.1170683174
 31
0.0
  0
LINE
  5
B8
330
B3
100
AcDbEntity
  8
0
  6
Continuous
 62
     7
370
     0
100
AcDbLine
 10
50.1454834548
 20
128.8936278981
 30
0.0
 11
49.7313529489
 21
129.3946228322
 31
0.0
  0
LINE
  5
B9
330
B3
100
AcDbEntity
  8
0
  6
Continuous
 62
     7
370
     0
100
AcDbLine
 10
45.827703222
 20
134.1170683174
 30
0.0
 11
21.1834688687
 21
134.1170683174
 31
0.0
  0
MTEXT
  5
BA
330
B3
100
AcDbEntity
  8
0
  6
Continuous
 62
     7
370
     0
100
AcDbMText
 10
21.1834688687
 20
138.628806105
 30
0.0
 40
3.5
 41
0.0
 71
     1
 72
     1
  1
3-
  7
SLDTEXTSTYLE0
 73
     1
 44
1.0
  0
MTEXT
  5
BB
330
B3
100
AcDbEntity
  8
0
  6
Continuous
 62
     7
370
     0
100
AcDbMText
 10
25.2570798637
 20
138.628806105
 30
0.0
 40
3.5
 41
0.0
 71
     1
 72
     1
  1
%%c
  7
SLDTEXTSTYLE0
 73
     1
 44
1.0
  0
MTEXT
  5
BC
330
B3
100
AcDbEntity
  8
0
  6
Continuous
 62
     7
370
     0
100
AcDbMText
 10
29.1270106116
 20
138.628806105
 30
0.0
 40
3.5
 41
0.0
 71
     1
 72
     1
  1
0.65
  7
SLDTEXTSTYLE0
 73
     1
 44
1.0
  0
MTEXT
  5
BD
330
B3
100
AcDbEntity
  8
0
  6
Continuous
 62
     7
370
     0
100
AcDbMText
 10
37.2669409343
 20
138.628806105
 30
0.0
 40
3.5
 41
0.0
 71
     1
 72
     1
  1

  7
SLDTEXTSTYLE0
 73
     1
 44
1.0
  0
MTEXT
  5
BE
330
B3
100
AcDbEntity
  8
0
  6
Continuous
 62
     7
370
     0
100
AcDbMText
 10
37.3033997619
 20
142.7024171
 30
0.0
 40
3.5
 41
0.0
 71
     1
 72
     1
  1
+
  7
SLDTEXTSTYLE0
 73
     1
 44
1.0
  0
MTEXT
  5
BF
330
B3
100
AcDbEntity
  8
0
  6
Continuous
 62
     7
370
     0
100
AcDbMText
 10
38.9051358297
 20
138.628806105
 30
0.0
 40
3.5
 41
0.0
 71
     1
 72
     1
  1

  7
SLDTEXTSTYLE0
 73
     1
 44
1.0
  0
MTEXT
  5
C0
330
B3
100
AcDbEntity
  8
0
  6
Continuous
 62
     7
370
     0
100
AcDbMText
 10
39.3402040952
 20
142.7024171
 30
0.0
 40
3.5
 41
0.0
 71
     1
 72
     1
  1
0.1
  7
SLDTEXTSTYLE0
 73
     1
 44
1.0
  0
MTEXT
  5
C1
330
B3
100
AcDbEntity
  8
0
  6
Continuous
 62
     7
370
     0
100
AcDbMText
 10
39.3402040952
 20
138.628806105
 30
0.0
 40
3.5
 41
0.0
 71
     1
 72
     1
  1
0
  7
SLDTEXTSTYLE0
 73
     1
 44
1.0
  0
ENDBLK
  5
B5
330
B3
100
AcDbEntity
  8
0
100
AcDbBlockEnd
  0
BLOCK
  5
C3
330
C2
100
AcDbEntity
  8
0
100
AcDbBlockBegin
  2
SW_NOTE_0
 70
     0
 10
0.0
 20
0.0
 30
0.0
  3
SW_NOTE_0
  1
SW_NOTE_0
  0
MTEXT
  5
C5
330
C2
100
AcDbEntity
  8
0
  6
Continuous
 62
     0
370
     0
100
AcDbMText
 10
0.0
 20
4.5117370892
 30
0.0
 40
3.5
 41
0.0
 71
     1
 72
     1
  1
Recommended
  7
SLDTEXTSTYLE0
 73
     1
 44
1.0
  0
MTEXT
  5
C6
330
C2
100
AcDbEntity
  8
0
  6
Continuous
 62
     0
370
     0
100
AcDbMText
 10
0.0
 20
0.0117372829
 30
0.0
 40
3.5
 41
0.0
 71
     1
 72
     1
  1
panel mouting hole
  7
SLDTEXTSTYLE0
 73
     1
 44
1.0
  0
MTEXT
  5
C7
330
C2
100
AcDbEntity
  8
0
  6
Continuous
 62
     0
370
     0
100
AcDbMText
 10
0.0
 20
-4.4882625234
 30
0.0
 40
3.5
 41
0.0
 71
     1
 72
     1
  1
dimensions
  7
SLDTEXTSTYLE0
 73
     1
 44
1.0
  0
ENDBLK
  5
C4
330
C2
100
AcDbEntity
  8
0
100
AcDbBlockEnd
  0
BLOCK
  5
CA
330
C9
100
AcDbEntity
  8
0
100
AcDbBlockBegin
  2
SW_NOTE_1
 70
     0
 10
0.0
 20
0.0
 30
0.0
  3
SW_NOTE_1
  1
SW_NOTE_1
  0
MTEXT
  5
CC
330
C9
100
AcDbEntity
  8
0
  6
Continuous
 62
     0
370
     0
100
AcDbMText
 10
0.0
 20
4.5117370892
 30
0.0
 40
3.5
 41
0.0
 71
     1
 72
     1
  1
Recommended
  7
SLDTEXTSTYLE0
 73
     1
 44
1.0
  0
MTEXT
  5
CD
330
C9
100
AcDbEntity
  8
0
  6
Continuous
 62
     0
370
     0
100
AcDbMText
 10
0.0
 20
0.0117372829
 30
0.0
 40
3.5
 41
0.0
 71
     1
 72
     1
  1
PC board pattern
  7
SLDTEXTSTYLE0
 73
     1
 44
1.0
  0
ENDBLK
  5
CB
330
C9
100
AcDbEntity
  8
0
100
AcDbBlockEnd
  0
BLOCK
  5
D6
330
D5
100
AcDbEntity
  8
0
100
AcDbBlockBegin
  2
SW_NOTE_2
 70
     0
 10
0.0
 20
0.0
 30
0.0
  3
SW_NOTE_2
  1
SW_NOTE_2
  0
LINE
  5
D8
330
D5
100
AcDbEntity
  8
0
  6
Continuous
 62
     0
370
     0
100
AcDbLine
 10
-0.0985681659
 20
-0.0515589371
 30
0.0
 11
10.0931573639
 21
-0.0515589371
 31
0.0
  0
LINE
  5
D9
330
D5
100
AcDbEntity
  8
0
  6
Continuous
 62
     0
370
     0
100
AcDbLine
 10
10.0931573639
 20
-0.0515589371
 30
0.0
 11
-0.0985681659
 21
-0.0515589371
 31
0.0
  0
LINE
  5
DA
330
D5
100
AcDbEntity
  8
0
  6
Continuous
 62
     0
370
     0
100
AcDbLine
 10
-0.0985681659
 20
-0.0515589371
 30
0.0
 11
10.0931573639
 21
-0.0515589371
 31
0.0
  0
LINE
  5
DB
330
D5
100
AcDbEntity
  8
0
  6
Continuous
 62
     0
370
     0
100
AcDbLine
 10
10.0931573639
 20
-0.0515589371
 30
0.0
 11
-0.0985681659
 21
-0.0515589371
 31
0.0
  0
LINE
  5
DC
330
D5
100
AcDbEntity
  8
0
  6
Continuous
 62
     0
370
     0
100
AcDbLine
 10
-0.0985681659
 20
-0.0515589371
 30
0.0
 11
10.0931573639
 21
-0.0515589371
 31
0.0
  0
LINE
  5
DD
330
D5
100
AcDbEntity
  8
0
  6
Continuous
 62
     0
370
     0
100
AcDbLine
 10
10.0931573639
 20
-0.0515589371
 30
0.0
 11
-0.0985681659
 21
-0.0515589371
 31
0.0
  0
MTEXT
  5
DE
330
D5
100
AcDbEntity
  8
0
  6
Continuous
 62
     0
370
     0
100
AcDbMText
 10
0.0
 20
4.5117370892
 30
0.0
 40
3.5
 41
0.0
 71
     1
 72
     1
  1
Note2
  7
SLDTEXTSTYLE0
 73
     1
 44
1.0
  0
ENDBLK
  5
D7
330
D5
100
AcDbEntity
  8
0
100
AcDbBlockEnd
  0
BLOCK
  5
ED
330
EC
100
AcDbEntity
  8
0
100
AcDbBlockBegin
  2
SW_NOTE_3
 70
     0
 10
0.0
 20
0.0
 30
0.0
  3
SW_NOTE_3
  1
SW_NOTE_3
  0
MTEXT
  5
F0
330
EC
100
AcDbEntity
  8
0
  6
Continuous
 62
     0
370
     0
100
AcDbMText
 10
0.0
 20
4.7749217527
 30
0.0
 40
3.7041666667
 41
0.0
 71
     1
 72
     1
  1
±0.5     mm
  7
SLDTEXTSTYLE1
 73
     1
 44
1.0
  0
MTEXT
  5
F1
330
EC
100
AcDbEntity
  8
0
  6
Continuous
 62
     0
370
     0
100
AcDbMText
 10
0.0
 20
-0.1639670765
 30
0.0
 40
3.7041666667
 41
0.0
 71
     1
 72
     1
  1
(±0.020 inch)
  7
SLDTEXTSTYLE0
 73
     1
 44
1.0
  0
ENDBLK
  5
EE
330
EC
100
AcDbEntity
  8
0
100
AcDbBlockEnd
  0
BLOCK
  5
F4
330
F3
100
AcDbEntity
  8
0
100
AcDbBlockBegin
  2
SW_NOTE_4
 70
     0
 10
0.0
 20
0.0
 30
0.0
  3
SW_NOTE_4
  1
SW_NOTE_4
  0
MTEXT
  5
F6
330
F3
100
AcDbEntity
  8
0
  6
Continuous
 62
     0
370
     0
100
AcDbMText
 10
0.0
 20
4.7749217527
 30
0.0
 40
3.7041666667
 41
0.0
 71
     1
 72
     1
  1
Note1 : In oredr to ensure proper detection, install it with
  7
SLDTEXTSTYLE0
 73
     1
 44
1.0
  0
MTEXT
  5
F7
330
F3
100
AcDbEntity
  8
0
  6
Continuous
 62
     0
370
     0
100
AcDbMText
 10
14.0063802083
 20
-0.1639670765
 30
0.0
 40
3.7041666667
 41
0.0
 71
     1
 72
     1
  1
the lens exposed at least 6.6mm (0.260inch)
  7
SLDTEXTSTYLE0
 73
     1
 44
1.0
  0
MTEXT
  5
F8
330
F3
100
AcDbEntity
  8
0
  6
Continuous
 62
     0
370
     0
100
AcDbMText
 10
0.0
 20
-5.1028559057
 30
0.0
 40
3.7041666667
 41
0.0
 71
     1
 72
     1
  1
Note2 : As for panel mouting hole, tapering or making
  7
SLDTEXTSTYLE0
 73
     1
 44
1.0
  0
MTEXT
  5
F9
330
F3
100
AcDbEntity
  8
0
  6
Continuous
 62
     0
370
     0
100
AcDbMText
 10
14.0063802083
 20
-10.0417447349
 30
0.0
 40
3.7041666667
 41
0.0
 71
     1
 72
     1
  1
a large size hole should be done.
  7
SLDTEXTSTYLE0
 73
     1
 44
1.0
  0
ENDBLK
  5
F5
330
F3
100
AcDbEntity
  8
0
100
AcDbBlockEnd
  0
BLOCK
  5
153
330
152
100
AcDbEntity
  8
0
100
AcDbBlockBegin
  2
_D_4
 70
     0
 10
0.0
 20
0.0
 30
0.0
  3
_D_4
  1
_D_4
  0
INSERT
  5
155
330
152
100
AcDbEntity
  8
0
  6
Continuous
 62
     7
370
     0
100
AcDbBlockReference
  2
_OPEN30
 10
147.9039163031
 20
196.0135803562
 30
0.1
 41
1.5
 42
1.5
 50
360.0
  0
INSERT
  5
156
330
152
100
AcDbEntity
  8
0
  6
Continuous
 62
     7
370
     0
100
AcDbBlockReference
  2
_OPEN30
 10
136.8739163031
 20
196.0135803562
 30
0.1
 41
1.5
 42
1.5
 50
180.0
  0
LINE
  5
157
330
152
100
AcDbEntity
  8
0
  6
Continuous
 62
     7
370
     0
100
AcDbLine
 10
147.9039163031
 20
210.7992130092
 30
0.0
 11
147.9039163031
 21
195.0135803562
 31
0.0
  0
LINE
  5
158
330
152
100
AcDbEntity
  8
0
  6
Continuous
 62
     7
370
     0
100
AcDbLine
 10
136.8739163031
 20
210.7992130092
 30
0.0
 11
136.8739163031
 21
195.0135803562
 31
0.0
  0
LINE
  5
159
330
152
100
AcDbEntity
  8
0
  6
Continuous
 62
     7
370
     0
100
AcDbLine
 10
147.9039163031
 20
196.0135803562
 30
0.0
 11
136.8739163031
 21
196.0135803562
 31
0.0
  0
LINE
  5
15A
330
152
100
AcDbEntity
  8
0
  6
Continuous
 62
     7
370
     0
100
AcDbLine
 10
136.8739163031
 20
196.0135803562
 30
0.0
 11
113.8444133128
 21
196.0135803562
 31
0.0
  0
MTEXT
  5
15B
330
152
100
AcDbEntity
  8
0
  6
Continuous
 62
     7
370
     0
100
AcDbMText
 10
113.8444133128
 20
200.5253176783
 30
0.0
 40
3.5
 41
0.0
 71
     1
 72
     1
  1
%%c
  7
SLDTEXTSTYLE0
 73
     1
 44
1.0
  0
MTEXT
  5
15C
330
152
100
AcDbEntity
  8
0
  6
Continuous
 62
     7
370
     0
100
AcDbMText
 10
117.7143438278
 20
200.5253176783
 30
0.0
 40
3.5
 41
0.0
 71
     1
 72
     1
  1
11
  7
SLDTEXTSTYLE0
 73
     1
 44
1.0
  0
ENDBLK
  5
154
330
152
100
AcDbEntity
  8
0
100
AcDbBlockEnd
  0
BLOCK
  5
160
330
15F
100
AcDbEntity
  8
0
100
AcDbBlockBegin
  2
_D_5
 70
     0
 10
0.0
 20
0.0
 30
0.0
  3
_D_5
  1
_D_5
  0
INSERT
  5
162
330
15F
100
AcDbEntity
  8
0
  6
Continuous
 62
     7
370
     0
100
AcDbBlockReference
  2
_OPEN30
 10
161.8712799409
 20
211.7992130092
 30
0.1
 41
1.5
 42
1.5
 50
90.0
  0
INSERT
  5
163
330
15F
100
AcDbEntity
  8
0
  6
Continuous
 62
     7
370
     0
100
AcDbBlockReference
  2
_OPEN30
 10
161.8712799409
 20
207.1992130092
 30
0.1
 41
1.5
 42
1.5
 50
270.0
  0
LINE
  5
164
330
15F
100
AcDbEntity
  8
0
  6
Continuous
 62
     7
370
     0
100
AcDbLine
 10
148.9039163031
 20
211.7992130092
 30
0.0
 11
162.8712799409
 21
211.7992130092
 31
0.0
  0
LINE
  5
165
330
15F
100
AcDbEntity
  8
0
  6
Continuous
 62
     7
370
     0
100
AcDbLine
 10
145.4099675273
 20
207.1992130092
 30
0.0
 11
162.8712799409
 21
207.1992130092
 31
0.0
  0
LINE
  5
166
330
15F
100
AcDbEntity
  8
0
  6
Continuous
 62
     7
370
     0
100
AcDbLine
 10
161.8712799409
 20
211.7992130092
 30
0.0
 11
161.8712799409
 21
207.1992130092
 31
0.0
  0
LINE
  5
167
330
15F
100
AcDbEntity
  8
0
  6
Continuous
 62
     7
370
     0
100
AcDbLine
 10
161.8712799409
 20
207.1992130092
 30
0.0
 11
161.8712799409
 21
198.8941511308
 31
0.0
  0
MTEXT
  5
168
330
15F
100
AcDbEntity
  8
0
  6
Continuous
 62
     7
370
     0
100
AcDbMText
 10
157.3595430845
 20
198.8941511308
 30
0.0
 40
3.5
 41
0.0
 71
     1
 72
     1
  1
4.6
  7
SLDTEXTSTYLE0
 11
-7.044195017643634E-15
 21
1.0
 31
0.0
 73
     1
 44
1.0
  0
ENDBLK
  5
161
330
15F
100
AcDbEntity
  8
0
100
AcDbBlockEnd
  0
BLOCK
  5
16B
330
16A
100
AcDbEntity
  8
0
100
AcDbBlockBegin
  2
_D_6
 70
     0
 10
0.0
 20
0.0
 30
0.0
  3
_D_6
  1
_D_6
  0
INSERT
  5
16D
330
16A
100
AcDbEntity
  8
0
  6
Continuous
 62
     7
370
     0
100
AcDbBlockReference
  2
_OPEN30
 10
171.3893238249
 20
232.0492130092
 30
0.1
 41
1.5
 42
1.5
 50
90.0
  0
INSERT
  5
16E
330
16A
100
AcDbEntity
  8
0
  6
Continuous
 62
     7
370
     0
100
AcDbBlockReference
  2
_OPEN30
 10
171.3893238249
 20
211.7992130092
 30
0.1
 41
1.5
 42
1.5
 50
270.0
  0
LINE
  5
16F
330
16A
100
AcDbEntity
  8
0
  6
Continuous
 62
     7
370
     0
100
AcDbLine
 10
143.3889163031
 20
232.0492130092
 30
0.0
 11
172.3893238249
 21
232.0492130092
 31
0.0
  0
LINE
  5
170
330
16A
100
AcDbEntity
  8
0
  6
Continuous
 62
     7
370
     0
100
AcDbLine
 10
148.9039163031
 20
211.7992130092
 30
0.0
 11
172.3893238249
 21
211.7992130092
 31
0.0
  0
LINE
  5
171
330
16A
100
AcDbEntity
  8
0
  6
Continuous
 62
     7
370
     0
100
AcDbLine
 10
171.3893238249
 20
232.0492130092
 30
0.0
 11
171.3893238249
 21
211.7992130092
 31
0.0
  0
MTEXT
  5
172
330
16A
100
AcDbEntity
  8
0
  6
Continuous
 62
     7
370
     0
100
AcDbMText
 10
166.8775869686
 20
217.6332308921
 30
0.0
 40
3.5
 41
0.0
 71
     1
 72
     1
  1
20.2
  7
SLDTEXTSTYLE0
 11
-7.044195017643634E-15
 21
1.0
 31
0.0
 73
     1
 44
1.0
  0
ENDBLK
  5
16C
330
16A
100
AcDbEntity
  8
0
100
AcDbBlockEnd
  0
BLOCK
  5
176
330
175
100
AcDbEntity
  8
0
100
AcDbBlockBegin
  2
_D_7
 70
     0
 10
0.0
 20
0.0
 30
0.0
  3
_D_7
  1
_D_7
  0
INSERT
  5
178
330
175
100
AcDbEntity
  8
0
  6
Continuous
 62
     7
370
     0
100
AcDbBlockReference
  2
_OPEN30
 10
161.8712799409
 20
211.7992130092
 30
0.1
 41
1.5
 42
1.5
 50
90.0
  0
INSERT
  5
179
330
175
100
AcDbEntity
  8
0
  6
Continuous
 62
     7
370
     0
100
AcDbBlockReference
  2
_OPEN30
 10
161.8712799409
 20
219.0992130092
 30
0.1
 41
1.5
 42
1.5
 50
270.0
  0
LINE
  5
17A
330
175
100
AcDbEntity
  8
0
  6
Continuous
 62
     7
370
     0
100
AcDbLine
 10
148.9039163031
 20
211.7992130092
 30
0.0
 11
162.8712799409
 21
211.7992130092
 31
0.0
  0
LINE
  5
17B
330
175
100
AcDbEntity
  8
0
  6
Continuous
 62
     7
370
     0
100
AcDbLine
 10
153.7389163031
 20
219.0992130092
 30
0.0
 11
162.8712799409
 21
219.0992130092
 31
0.0
  0
LINE
  5
17C
330
175
100
AcDbEntity
  8
0
  6
Continuous
 62
     7
370
     0
100
AcDbLine
 10
161.8712799409
 20
211.7992130092
 30
0.0
 11
161.8712799409
 21
208.7992130092
 31
0.0
  0
LINE
  5
17D
330
175
100
AcDbEntity
  8
0
  6
Continuous
 62
     7
370
     0
100
AcDbLine
 10
161.8712799409
 20
211.7992130092
 30
0.0
 11
161.8712799409
 21
219.0992130092
 31
0.0
  0
LINE
  5
17E
330
175
100
AcDbEntity
  8
0
  6
Continuous
 62
     7
370
     0
100
AcDbLine
 10
161.8712799409
 20
219.0992130092
 30
0.0
 11
161.8712799409
 21
222.0992130092
 31
0.0
  0
MTEXT
  5
17F
330
175
100
AcDbEntity
  8
0
  6
Continuous
 62
     7
370
     0
100
AcDbMText
 10
157.3595430845
 20
213.1944143448
 30
0.0
 40
3.5
 41
0.0
 71
     1
 72
     1
  1
7.3
  7
SLDTEXTSTYLE0
 11
6.123233995736766E-17
 21
1.0
 31
0.0
 73
     1
 44
1.0
  0
ENDBLK
  5
177
330
175
100
AcDbEntity
  8
0
100
AcDbBlockEnd
  0
BLOCK
  5
183
330
182
100
AcDbEntity
  8
0
100
AcDbBlockBegin
  2
_D_8
 70
     0
 10
0.0
 20
0.0
 30
0.0
  3
_D_8
  1
_D_8
  0
INSERT
  5
185
330
182
100
AcDbEntity
  8
0
  6
Continuous
 62
     7
370
     0
100
AcDbBlockReference
  2
_OPEN30
 10
153.3889163031
 20
246.9408747105
 30
2.15
 41
1.5
 42
1.5
 50
360.0
  0
INSERT
  5
186
330
182
100
AcDbEntity
  8
0
  6
Continuous
 62
     7
370
     0
100
AcDbBlockReference
  2
_OPEN30
 10
131.3889163031
 20
246.9408747105
 30
2.15
 41
1.5
 42
1.5
 50
180.0
  0
LINE
  5
187
330
182
100
AcDbEntity
  8
0
  6
Continuous
 62
     7
370
     0
100
AcDbLine
 10
153.3889163031
 20
222.0992130092
 30
0.0
 11
153.3889163031
 21
247.9408747105
 31
0.0
  0
LINE
  5
188
330
182
100
AcDbEntity
  8
0
  6
Continuous
 62
     7
370
     0
100
AcDbLine
 10
131.3889163031
 20
222.0992130092
 30
0.0
 11
131.3889163031
 21
247.9408747105
 31
0.0
  0
LINE
  5
189
330
182
100
AcDbEntity
  8
0
  6
Continuous
 62
     7
370
     0
100
AcDbLine
 10
153.3889163031
 20
246.9408747105
 30
0.0
 11
131.3889163031
 21
246.9408747105
 31
0.0
  0
MTEXT
  5
18A
330
182
100
AcDbEntity
  8
0
  6
Continuous
 62
     7
370
     0
100
AcDbMText
 10
140.4233029907
 20
251.4526115669
 30
0.0
 40
3.5
 41
0.0
 71
     1
 72
     1
  1
22
  7
SLDTEXTSTYLE0
 73
     1
 44
1.0
  0
ENDBLK
  5
184
330
182
100
AcDbEntity
  8
0
100
AcDbBlockEnd
  0
BLOCK
  5
18E
330
18D
100
AcDbEntity
  8
0
100
AcDbBlockBegin
  2
_D_9
 70
     0
 10
0.0
 20
0.0
 30
0.0
  3
_D_9
  1
_D_9
  0
INSERT
  5
190
330
18D
100
AcDbEntity
  8
0
  6
Continuous
 62
     7
370
     0
100
AcDbBlockReference
  2
_OPEN30
 10
132.055727775
 20
239.3097323915
 30
1.4
 41
1.5
 42
1.5
 50
180.0
  0
INSERT
  5
191
330
18D
100
AcDbEntity
  8
0
  6
Continuous
 62
     7
370
     0
100
AcDbBlockReference
  2
_OPEN30
 10
152.7221048313
 20
239.3097323915
 30
1.4
 41
1.5
 42
1.5
 50
360.0
  0
LINE
  5
192
330
18D
100
AcDbEntity
  8
0
  6
Continuous
 62
     7
370
     0
100
AcDbLine
 10
132.055727775
 20
220.0623415869
 30
0.0
 11
132.055727775
 21
240.3097323915
 31
0.0
  0
LINE
  5
193
330
18D
100
AcDbEntity
  8
0
  6
Continuous
 62
     7
370
     0
100
AcDbLine
 10
152.7221048312
 20
220.0623415869
 30
0.0
 11
152.7221048313
 21
240.3097323915
 31
0.0
  0
LINE
  5
194
330
18D
100
AcDbEntity
  8
0
  6
Continuous
 62
     7
370
     0
100
AcDbLine
 10
132.055727775
 20
239.3097323915
 30
0.0
 11
152.7221048313
 21
239.3097323915
 31
0.0
  0
MTEXT
  5
195
330
18D
100
AcDbEntity
  8
0
  6
Continuous
 62
     7
370
     0
100
AcDbMText
 10
135.7354981655
 20
243.8214697135
 30
0.0
 40
3.5
 41
0.0
 71
     1
 72
     1
  1
%%c
  7
SLDTEXTSTYLE0
 73
     1
 44
1.0
  0
MTEXT
  5
196
330
18D
100
AcDbEntity
  8
0
  6
Continuous
 62
     7
370
     0
100
AcDbMText
 10
139.6054286806
 20
243.8214697135
 30
0.0
 40
3.5
 41
0.0
 71
     1
 72
     1
  1
20.7
  7
SLDTEXTSTYLE0
 73
     1
 44
1.0
  0
ENDBLK
  5
18F
330
18D
100
AcDbEntity
  8
0
100
AcDbBlockEnd
  0
BLOCK
  5
19A
330
199
100
AcDbEntity
  8
0
100
AcDbBlockBegin
  2
_D_10
 70
     0
 10
0.0
 20
0.0
 30
0.0
  3
_D_10
  1
_D_10
  0
INSERT
  5
19C
330
199
100
AcDbEntity
  8
0
  6
Continuous
 62
     7
370
     0
100
AcDbBlockReference
  2
_OPEN30
 10
140.3678650789
 20
205.380319572
 30
-1.6460512242
 41
1.5
 42
1.5
 50
360.0
  0
INSERT
  5
19D
330
199
100
AcDbEntity
  8
0
  6
Continuous
 62
     7
370
     0
100
AcDbBlockReference
  2
_OPEN30
 10
140.8178650789
 20
205.380319572
 30
-1.6460512242
 41
1.5
 42
1.5
 50
180.0
  0
LINE
  5
19E
330
199
100
AcDbEntity
  8
0
  6
Continuous
 62
     7
370
     0
100
AcDbLine
 10
140.3678650789
 20
206.1992130092
 30
0.0
 11
140.3678650789
 21
204.380319572
 31
0.0
  0
LINE
  5
19F
330
199
100
AcDbEntity
  8
0
  6
Continuous
 62
     7
370
     0
100
AcDbLine
 10
140.8178650789
 20
206.1992130092
 30
0.0
 11
140.8178650789
 21
204.380319572
 31
0.0
  0
LINE
  5
1A0
330
199
100
AcDbEntity
  8
0
  6
Continuous
 62
     7
370
     0
100
AcDbLine
 10
140.3678650789
 20
205.380319572
 30
0.0
 11
113.8092465864
 21
205.380319572
 31
0.0
  0
LINE
  5
1A1
330
199
100
AcDbEntity
  8
0
  6
Continuous
 62
     7
370
     0
100
AcDbLine
 10
140.3678650789
 20
205.380319572
 30
0.0
 11
140.8178650789
 21
205.380319572
 31
0.0
  0
LINE
  5
1A2
330
199
100
AcDbEntity
  8
0
  6
Continuous
 62
     7
370
     0
100
AcDbLine
 10
140.8178650789
 20
205.380319572
 30
0.0
 11
143.8178650789
 21
205.380319572
 31
0.0
  0
MTEXT
  5
1A3
330
199
100
AcDbEntity
  8
0
  6
Continuous
 62
     7
370
     0
100
AcDbMText
 10
113.8092465864
 20
209.892056894
 30
0.0
 40
3.5
 41
0.0
 71
     1
 72
     1
  1
%%c
  7
SLDTEXTSTYLE0
 73
     1
 44
1.0
  0
MTEXT
  5
1A4
330
199
100
AcDbEntity
  8
0
  6
Continuous
 62
     7
370
     0
100
AcDbMText
 10
117.6791771014
 20
209.892056894
 30
0.0
 40
3.5
 41
0.0
 71
     1
 72
     1
  1
0.45
  7
SLDTEXTSTYLE0
 73
     1
 44
1.0
  0
MTEXT
  5
1A5
330
199
100
AcDbEntity
  8
0
  6
Continuous
 62
     7
370
     0
100
AcDbMText
 10
125.8191071914
 20
209.892056894
 30
0.0
 40
3.5
 41
0.0
 71
     1
 72
     1
  1
±0.05
  7
SLDTEXTSTYLE0
 73
     1
 44
1.0
  0
ENDBLK
  5
19B
330
199
100
AcDbEntity
  8
0
100
AcDbBlockEnd
  0
BLOCK
  5
27E
330
27D
100
AcDbEntity
  8
0
100
AcDbBlockBegin
  2
_D_11
 70
     0
 10
0.0
 20
0.0
 30
0.0
  3
_D_11
  1
_D_11
  0
INSERT
  5
280
330
27D
100
AcDbEntity
  8
0
  6
Continuous
 62
     7
370
     0
100
AcDbBlockReference
  2
_OPEN30
 10
140.487513338
 20
164.8286421225
 30
0.1
 41
1.5
 42
1.5
 50
318.4678545977
  0
LINE
  5
281
330
27D
100
AcDbEntity
  8
0
  6
Continuous
 62
     7
370
     0
100
AcDbLine
 10
140.487513338
 20
164.8286421225
 30
0.0
 11
129.0316524695
 21
174.975395427
 31
0.0
  0
LINE
  5
282
330
27D
100
AcDbEntity
  8
0
  6
Continuous
 62
     7
370
     0
100
AcDbLine
 10
144.2903192682
 20
161.4603982095
 30
0.0
 11
140.487513338
 21
164.8286421225
 31
0.0
  0
LINE
  5
283
330
27D
100
AcDbEntity
  8
0
  6
Continuous
 62
     7
370
     0
100
AcDbLine
 10
129.0316524695
 20
174.975395427
 30
0.0
 11
96.0894978892
 21
174.975395427
 31
0.0
  0
MTEXT
  5
284
330
27D
100
AcDbEntity
  8
0
  6
Continuous
 62
     7
370
     0
100
AcDbMText
 10
96.0894978892
 20
179.4871327491
 30
0.0
 40
3.5
 41
0.0
 71
     1
 72
     1
  1
P.C.D.
  7
SLDTEXTSTYLE0
 73
     1
 44
1.0
  0
MTEXT
  5
285
330
27D
100
AcDbEntity
  8
0
  6
Continuous
 62
     7
370
     0
100
AcDbMText
 10
106.4242196556
 20
179.4871327491
 30
0.0
 40
3.5
 41
0.0
 71
     1
 72
     1
  1
%%c
  7
SLDTEXTSTYLE0
 73
     1
 44
1.0
  0
MTEXT
  5
286
330
27D
100
AcDbEntity
  8
0
  6
Continuous
 62
     7
370
     0
100
AcDbMText
 10
110.2941508692
 20
179.4871327491
 30
0.0
 40
3.5
 41
0.0
 71
     1
 72
     1
  1
5.08
  7
SLDTEXTSTYLE0
 73
     1
 44
1.0
  0
MTEXT
  5
287
330
27D
100
AcDbEntity
  8
0
  6
Continuous
 62
     7
370
     0
100
AcDbMText
 10
118.4340811919
 20
179.4871327491
 30
0.0
 40
3.5
 41
0.0
 71
     1
 72
     1
  1
±0.2
  7
SLDTEXTSTYLE0
 73
     1
 44
1.0
  0
ENDBLK
  5
27F
330
27D
100
AcDbEntity
  8
0
100
AcDbBlockEnd
  0
BLOCK
  5
28B
330
28A
100
AcDbEntity
  8
0
100
AcDbBlockBegin
  2
_D_12
 70
     0
 10
0.0
 20
0.0
 30
0.0
  3
_D_12
  1
_D_12
  0
ARC
  5
28D
330
28A
100
AcDbEntity
  8
0
  6
Continuous
 62
     7
370
     0
100
AcDbCircle
 10
142.3889163031
 20
163.144520166
 30
0.0
 40
24.47830341783621
100
AcDbArc
 50
225.0
 51
270.0
  0
INSERT
  5
28E
330
28A
100
AcDbEntity
  8
0
  6
Continuous
 62
     7
370
     0
100
AcDbBlockReference
  2
_OPEN30
 10
125.0801419644
 20
145.8357458273
 30
0.1
 41
1.5
 42
1.5
 50
136.7533146444
  0
INSERT
  5
28F
330
28A
100
AcDbEntity
  8
0
  6
Continuous
 62
     7
370
     0
100
AcDbBlockReference
  2
_OPEN30
 10
142.3889163031
 20
138.6662167482
 30
0.1
 41
1.5
 42
1.5
 50
358.2466853556
  0
LINE
  5
290
330
28A
100
AcDbEntity
  8
0
  6
Continuous
 62
     7
370
     0
100
AcDbLine
 10
139.7195882041
 20
160.475192067
 30
0.0
 11
124.3730351832
 21
145.1286390461
 31
0.0
  0
LINE
  5
291
330
28A
100
AcDbEntity
  8
0
  6
Continuous
 62
     7
370
     0
100
AcDbLine
 10
142.3889163031
 20
149.440165889
 30
0.0
 11
142.3889163031
 21
137.6662167482
 31
0.0
  0
MTEXT
  5
292
330
28A
100
AcDbEntity
  8
0
  6
Continuous
 62
     7
370
     0
100
AcDbMText
 10
128.4566571788
 20
148.2733990756
 30
0.0
 40
3.5
 41
0.0
 71
     1
 72
     1
  1
45°
  7
SLDTEXTSTYLE0
 11
0.8517108860690095
 21
-0.5240119908471014
 31
0.0
 73
     1
 44
1.0
  0
ENDBLK
  5
28C
330
28A
100
AcDbEntity
  8
0
100
AcDbBlockEnd
  0
BLOCK
  5
295
330
294
100
AcDbEntity
  8
0
100
AcDbBlockBegin
  2
_D_13
 70
     0
 10
0.0
 20
0.0
 30
0.0
  3
_D_13
  1
_D_13
  0
ARC
  5
297
330
294
100
AcDbEntity
  8
0
  6
Continuous
 62
     7
370
     0
100
AcDbCircle
 10
142.3889163031
 20
163.144520166
 30
0.0
 40
24.50693368877839
100
AcDbArc
 50
270.0
 51
315.0
  0
INSERT
  5
298
330
294
100
AcDbEntity
  8
0
  6
Continuous
 62
     7
370
     0
100
AcDbBlockReference
  2
_OPEN30
 10
142.3889163031
 20
138.6375864772
 30
0.1
 41
1.5
 42
1.5
 50
181.7512714334
  0
INSERT
  5
299
330
294
100
AcDbEntity
  8
0
  6
Continuous
 62
     7
370
     0
100
AcDbBlockReference
  2
_OPEN30
 10
159.7179353005
 20
145.8155011686
 30
0.1
 41
1.5
 42
1.5
 50
43.2487285666
  0
LINE
  5
29A
330
294
100
AcDbEntity
  8
0
  6
Continuous
 62
     7
370
     0
100
AcDbLine
 10
142.3889163031
 20
149.440165889
 30
0.0
 11
142.3889163031
 21
137.6375864772
 31
0.0
  0
LINE
  5
29B
330
294
100
AcDbEntity
  8
0
  6
Continuous
 62
     7
370
     0
100
AcDbLine
 10
145.0582444021
 20
160.475192067
 30
0.0
 11
160.4250420817
 21
145.1083943874
 31
0.0
  0
MTEXT
  5
29C
330
294
100
AcDbEntity
  8
0
  6
Continuous
 62
     7
370
     0
100
AcDbMText
 10
142.8801090062
 20
142.7444973074
 30
0.0
 40
3.5
 41
0.0
 71
     1
 72
     1
  1
45°
  7
SLDTEXTSTYLE0
 11
0.9747824137739832
 21
0.2231574462055142
 31
0.0
 73
     1
 44
1.0
  0
ENDBLK
  5
296
330
294
100
AcDbEntity
  8
0
100
AcDbBlockEnd
  0
BLOCK
  5
29F
330
29E
100
AcDbEntity
  8
0
100
AcDbBlockBegin
  2
_D_14
 70
     0
 10
0.0
 20
0.0
 30
0.0
  3
_D_14
  1
_D_14
  0
INSERT
  5
2A1
330
29E
100
AcDbEntity
  8
0
  6
Continuous
 62
     7
370
     0
100
AcDbBlockReference
  2
_OPEN30
 10
168.3375445001
 20
164.394520166
 30
-1.375
 41
1.5
 42
1.5
 50
270.0
  0
INSERT
  5
2A2
330
29E
100
AcDbEntity
  8
0
  6
Continuous
 62
     7
370
     0
100
AcDbBlockReference
  2
_OPEN30
 10
168.3375445001
 20
161.894520166
 30
-1.375
 41
1.5
 42
1.5
 50
90.0
  0
LINE
  5
2A3
330
29E
100
AcDbEntity
  8
0
  6
Continuous
 62
     7
370
     0
100
AcDbLine
 10
154.0775722389
 20
164.394520166
 30
0.0
 11
169.3375445001
 21
164.394520166
 31
0.0
  0
LINE
  5
2A4
330
29E
100
AcDbEntity
  8
0
  6
Continuous
 62
     7
370
     0
100
AcDbLine
 10
154.0775722389
 20
161.894520166
 30
0.0
 11
169.3375445001
 21
161.894520166
 31
0.0
  0
LINE
  5
2A5
330
29E
100
AcDbEntity
  8
0
  6
Continuous
 62
     7
370
     0
100
AcDbLine
 10
168.3375445001
 20
164.394520166
 30
0.0
 11
168.3375445001
 21
173.9260025973
 31
0.0
  0
LINE
  5
2A6
330
29E
100
AcDbEntity
  8
0
  6
Continuous
 62
     7
370
     0
100
AcDbLine
 10
168.3375445001
 20
164.394520166
 30
0.0
 11
168.3375445001
 21
161.894520166
 31
0.0
  0
LINE
  5
2A7
330
29E
100
AcDbEntity
  8
0
  6
Continuous
 62
     7
370
     0
100
AcDbLine
 10
168.3375445001
 20
161.894520166
 30
0.0
 11
168.3375445001
 21
158.894520166
 31
0.0
  0
MTEXT
  5
2A8
330
29E
100
AcDbEntity
  8
0
  6
Continuous
 62
     7
370
     0
100
AcDbMText
 10
163.8258076437
 20
169.0260025392
 30
0.0
 40
3.5
 41
0.0
 71
     1
 72
     1
  1
2.5
  7
SLDTEXTSTYLE0
 11
-2.603302919143008E-15
 21
1.0
 31
0.0
 73
     1
 44
1.0
  0
ENDBLK
  5
2A0
330
29E
100
AcDbEntity
  8
0
100
AcDbBlockEnd
  0
BLOCK
  5
2AB
330
2AA
100
AcDbEntity
  8
0
100
AcDbBlockBegin
  2
_D_15
 70
     0
 10
0.0
 20
0.0
 30
0.0
  3
_D_15
  1
_D_15
  0
INSERT
  5
2AD
330
2AA
100
AcDbEntity
  8
0
  6
Continuous
 62
     7
370
     0
100
AcDbBlockReference
  2
_OPEN30
 10
176.2594999227
 20
165.644520166
 30
-1.375
 41
1.5
 42
1.5
 50
90.0
  0
INSERT
  5
2AE
330
2AA
100
AcDbEntity
  8
0
  6
Continuous
 62
     7
370
     0
100
AcDbBlockReference
  2
_OPEN30
 10
176.2594999227
 20
160.644520166
 30
-1.375
 41
1.5
 42
1.5
 50
270.0
  0
LINE
  5
2AF
330
2AA
100
AcDbEntity
  8
0
  6
Continuous
 62
     7
370
     0
100
AcDbLine
 10
153.8889163031
 20
165.644520166
 30
0.0
 11
177.2594999227
 21
165.644520166
 31
0.0
  0
LINE
  5
2B0
330
2AA
100
AcDbEntity
  8
0
  6
Continuous
 62
     7
370
     0
100
AcDbLine
 10
153.8889163031
 20
160.644520166
 30
0.0
 11
177.2594999227
 21
160.644520166
 31
0.0
  0
LINE
  5
2B1
330
2AA
100
AcDbEntity
  8
0
  6
Continuous
 62
     7
370
     0
100
AcDbLine
 10
176.2594999227
 20
165.644520166
 30
0.0
 11
176.2594999227
 21
172.494405317
 31
0.0
  0
LINE
  5
2B2
330
2AA
100
AcDbEntity
  8
0
  6
Continuous
 62
     7
370
     0
100
AcDbLine
 10
176.2594999227
 20
165.644520166
 30
0.0
 11
176.2594999227
 21
160.644520166
 31
0.0
  0
MTEXT
  5
2B3
330
2AA
100
AcDbEntity
  8
0
  6
Continuous
 62
     7
370
     0
100
AcDbMText
 10
171.7477630664
 20
170.4575998195
 30
0.0
 40
3.5
 41
0.0
 71
     1
 72
     1
  1
5
  7
SLDTEXTSTYLE0
 11
-9.708730276744010E-15
 21
1.0
 31
0.0
 73
     1
 44
1.0
  0
ENDBLK
  5
2AC
330
2AA
100
AcDbEntity
  8
0
100
AcDbBlockEnd
  0
BLOCK
  5
31D
330
31C
100
AcDbEntity
  8
0
100
AcDbBlockBegin
  2
_D_16
 70
     0
 10
0.0
 20
0.0
 30
0.0
  3
_D_16
  1
_D_16
  0
INSERT
  5
31F
330
31C
100
AcDbEntity
  8
0
  6
Continuous
 62
     7
370
     0
100
AcDbBlockReference
  2
_OPEN30
 10
71.4472579804
 20
171.1744134504
 30
0.1
 41
1.5
 42
1.5
 50
270.0
  0
INSERT
  5
320
330
31C
100
AcDbEntity
  8
0
  6
Continuous
 62
     7
370
     0
100
AcDbBlockReference
  2
_OPEN30
 10
71.4472579804
 20
184.8244134504
 30
0.1
 41
1.5
 42
1.5
 50
90.0
  0
LINE
  5
321
330
31C
100
AcDbEntity
  8
0
  6
Continuous
 62
     7
370
     0
100
AcDbLine
 10
57.2202606051
 20
171.1744134504
 30
0.0
 11
72.4472579804
 21
171.1744134504
 31
0.0
  0
LINE
  5
322
330
31C
100
AcDbEntity
  8
0
  6
Continuous
 62
     7
370
     0
100
AcDbLine
 10
66.3052606051
 20
184.8244134504
 30
0.0
 11
72.4472579804
 21
184.8244134504
 31
0.0
  0
LINE
  5
323
330
31C
100
AcDbEntity
  8
0
  6
Continuous
 62
     7
370
     0
100
AcDbLine
 10
71.4472579804
 20
171.1744134504
 30
0.0
 11
71.4472579804
 21
184.8244134504
 31
0.0
  0
MTEXT
  5
324
330
31C
100
AcDbEntity
  8
0
  6
Continuous
 62
     7
370
     0
100
AcDbMText
 10
66.935521124
 20
174.4731706122
 30
0.0
 40
3.5
 41
0.0
 71
     1
 72
     1
  1
13.7
  7
SLDTEXTSTYLE0
 11
6.123233995736766E-17
 21
1.0
 31
0.0
 73
     1
 44
1.0
  0
ENDBLK
  5
31E
330
31C
100
AcDbEntity
  8
0
100
AcDbBlockEnd
  0
BLOCK
  5
328
330
327
100
AcDbEntity
  8
0
100
AcDbBlockBegin
  2
_D_17
 70
     0
 10
0.0
 20
0.0
 30
0.0
  3
_D_17
  1
_D_17
  0
INSERT
  5
32A
330
327
100
AcDbEntity
  8
0
  6
Continuous
 62
     7
370
     0
100
AcDbBlockReference
  2
_OPEN30
 10
40.1052606051
 20
197.3778655929
 30
0.1
 41
1.5
 42
1.5
 50
180.0
  0
INSERT
  5
32B
330
327
100
AcDbEntity
  8
0
  6
Continuous
 62
     7
370
     0
100
AcDbBlockReference
  2
_OPEN30
 10
61.3052606051
 20
197.3778655929
 30
0.1
 41
1.5
 42
1.5
 50
0.0
  0
LINE
  5
32C
330
327
100
AcDbEntity
  8
0
  6
Continuous
 62
     7
370
     0
100
AcDbLine
 10
40.1052606051
 20
185.8244134504
 30
0.0
 11
40.1052606051
 21
198.3778655929
 31
0.0
  0
LINE
  5
32D
330
327
100
AcDbEntity
  8
0
  6
Continuous
 62
     7
370
     0
100
AcDbLine
 10
61.3052606051
 20
185.8244134504
 30
0.0
 11
61.3052606051
 21
198.3778655929
 31
0.0
  0
LINE
  5
32E
330
327
100
AcDbEntity
  8
0
  6
Continuous
 62
     7
370
     0
100
AcDbLine
 10
40.1052606051
 20
197.3778655929
 30
0.0
 11
18.3826788459
 21
197.3778655929
 31
0.0
  0
LINE
  5
32F
330
327
100
AcDbEntity
  8
0
  6
Continuous
 62
     7
370
     0
100
AcDbLine
 10
40.1052606051
 20
197.3778655929
 30
0.0
 11
61.3052606051
 21
197.3778655929
 31
0.0
  0
MTEXT
  5
330
330
327
100
AcDbEntity
  8
0
  6
Continuous
 62
     7
370
     0
100
AcDbMText
 10
18.3826788459
 20
201.8896033806
 30
0.0
 40
3.5
 41
0.0
 71
     1
 72
     1
  1
%%c
  7
SLDTEXTSTYLE0
 73
     1
 44
1.0
  0
MTEXT
  5
331
330
327
100
AcDbEntity
  8
0
  6
Continuous
 62
     7
370
     0
100
AcDbMText
 10
22.252609361
 20
201.8896033806
 30
0.0
 40
3.5
 41
0.0
 71
     1
 72
     1
  1
21.2
  7
SLDTEXTSTYLE0
 73
     1
 44
1.0
  0
MTEXT
  5
332
330
327
100
AcDbEntity
  8
0
  6
Continuous
 62
     7
370
     0
100
AcDbMText
 10
30.3925394509
 20
201.8896033806
 30
0.0
 40
3.5
 41
0.0
 71
     1
 72
     1
  1

  7
SLDTEXTSTYLE0
 73
     1
 44
1.0
  0
MTEXT
  5
333
330
327
100
AcDbEntity
  8
0
  6
Continuous
 62
     7
370
     0
100
AcDbMText
 10
30.4289982785
 20
205.9632143755
 30
0.0
 40
3.5
 41
0.0
 71
     1
 72
     1
  1
+
  7
SLDTEXTSTYLE0
 73
     1
 44
1.0
  0
MTEXT
  5
334
330
327
100
AcDbEntity
  8
0
  6
Continuous
 62
     7
370
     0
100
AcDbMText
 10
32.0307343463
 20
201.8896033806
 30
0.0
 40
3.5
 41
0.0
 71
     1
 72
     1
  1

  7
SLDTEXTSTYLE0
 73
     1
 44
1.0
  0
MTEXT
  5
335
330
327
100
AcDbEntity
  8
0
  6
Continuous
 62
     7
370
     0
100
AcDbMText
 10
32.4658035432
 20
205.9632143755
 30
0.0
 40
3.5
 41
0.0
 71
     1
 72
     1
  1
0.2
  7
SLDTEXTSTYLE0
 73
     1
 44
1.0
  0
MTEXT
  5
336
330
327
100
AcDbEntity
  8
0
  6
Continuous
 62
     7
370
     0
100
AcDbMText
 10
32.4658035432
 20
201.8896033806
 30
0.0
 40
3.5
 41
0.0
 71
     1
 72
     1
  1
0
  7
SLDTEXTSTYLE0
 73
     1
 44
1.0
  0
ENDBLK
  5
329
330
327
100
AcDbEntity
  8
0
100
AcDbBlockEnd
  0
BLOCK
  5
393
330
392
100
AcDbEntity
  8
0
100
AcDbBlockBegin
  2
_D_18
 70
     0
 10
0.0
 20
0.0
 30
0.0
  3
_D_18
  1
_D_18
  0
INSERT
  5
395
330
392
100
AcDbEntity
  8
0
  6
Continuous
 62
     7
370
     0
100
AcDbBlockReference
  2
_OPEN30
 10
74.5260049628
 20
257.9115194074
 30
0.1
 41
1.5
 42
1.5
 50
90.0
  0
INSERT
  5
396
330
392
100
AcDbEntity
  8
0
  6
Continuous
 62
     7
370
     0
100
AcDbBlockReference
  2
_OPEN30
 10
74.5260049628
 20
251.3115194074
 30
0.1
 41
1.5
 42
1.5
 50
270.0
  0
LINE
  5
397
330
392
100
AcDbEntity
  8
0
  6
Continuous
 62
     7
370
     0
100
AcDbLine
 10
50.779834799
 20
257.9115194074
 30
0.0
 11
75.5260049628
 21
257.9115194074
 31
0.0
  0
LINE
  5
398
330
392
100
AcDbEntity
  8
0
  6
Continuous
 62
     7
370
     0
100
AcDbLine
 10
60.9887152884
 20
251.3115194074
 30
0.0
 11
75.5260049628
 21
251.3115194074
 31
0.0
  0
LINE
  5
399
330
392
100
AcDbEntity
  8
0
  6
Continuous
 62
     7
370
     0
100
AcDbLine
 10
74.5260049628
 20
257.9115194074
 30
0.0
 11
74.5260049628
 21
251.3115194074
 31
0.0
  0
LINE
  5
39A
330
392
100
AcDbEntity
  8
0
  6
Continuous
 62
     7
370
     0
100
AcDbLine
 10
74.5260049628
 20
251.3115194074
 30
0.0
 11
74.5260049628
 21
244.4227457514
 31
0.0
  0
MTEXT
  5
39B
330
392
100
AcDbEntity
  8
0
  6
Continuous
 62
     7
370
     0
100
AcDbMText
 10
70.0142681064
 20
244.4227457514
 30
0.0
 40
3.5
 41
0.0
 71
     1
 72
     1
  1
6.6
  7
SLDTEXTSTYLE0
 11
-7.044195017643634E-15
 21
1.0
 31
0.0
 73
     1
 44
1.0
  0
ENDBLK
  5
394
330
392
100
AcDbEntity
  8
0
100
AcDbBlockEnd
  0
ENDSEC
  0
SECTION
  2
ENTITIES
  0
LINE
  5
6F
330
1F
100
AcDbEntity
  8
0
  6
CENTERX2
 62
     7
370
     0
100
AcDbLine
 10
51.7344694261
 20
132.1994093112
 30
0.0
 11
51.7344694261
 21
122.3963818466
 31
0.0
  0
LINE
  5
70
330
1F
100
AcDbEntity
  8
0
  6
CENTERX2
 62
     7
370
     0
100
AcDbLine
 10
48.1413527515
 20
127.3480741409
 30
0.0
 11
55.6741111514
 21
127.3480741409
 31
0.0
  0
LINE
  5
71
330
1F
100
AcDbEntity
  8
0
  6
CENTERX2
 62
     7
370
     0
100
AcDbLine
 10
53.5305206503
 20
125.5520229167
 30
0.0
 11
49.9384182019
 21
129.1441253651
 31
0.0
  0
LINE
  5
72
330
1F
100
AcDbEntity
  8
0
  6
CENTERX2
 62
     7
370
     0
100
AcDbLine
 10
49.9384182019
 20
125.5520229167
 30
0.0
 11
53.5305206503
 21
129.1441253651
 31
0.0
  0
LINE
  5
73
330
1F
100
AcDbEntity
  8
0
  6
Continuous
 62
     7
370
    30
100
AcDbLine
 10
5.0
 20
25.0
 30
0.0
 11
205.0
 21
25.0
 31
0.0
  0
LINE
  5
74
330
1F
100
AcDbEntity
  8
0
  6
Continuous
 62
     7
370
    30
100
AcDbLine
 10
5.0
 20
292.0
 30
0.0
 11
205.0
 21
292.0
 31
0.0
  0
LINE
  5
75
330
1F
100
AcDbEntity
  8
0
  6
Continuous
 62
     7
370
    30
100
AcDbLine
 10
5.0
 20
292.0
 30
0.0
 11
5.0
 21
7.0
 31
0.0
  0
LINE
  5
76
330
1F
100
AcDbEntity
  8
0
  6
Continuous
 62
     7
370
    30
100
AcDbLine
 10
5.0
 20
7.0
 30
0.0
 11
205.0
 21
7.0
 31
0.0
  0
LINE
  5
77
330
1F
100
AcDbEntity
  8
0
  6
Continuous
 62
     7
370
    30
100
AcDbLine
 10
205.0
 20
292.0
 30
0.0
 11
205.0
 21
7.0
 31
0.0
  0
LINE
  5
78
330
1F
100
AcDbEntity
  8
0
  6
Continuous
 62
     7
370
    30
100
AcDbLine
 10
5.0
 20
40.0
 30
0.0
 11
205.0
 21
40.0
 31
0.0
  0
LINE
  5
79
330
1F
100
AcDbEntity
  8
0
  6
Continuous
 62
     7
370
    30
100
AcDbLine
 10
5.0
 20
47.0
 30
0.0
 11
205.0
 21
47.0
 31
0.0
  0
LINE
  5
7A
330
1F
100
AcDbEntity
  8
0
  6
Continuous
 62
     7
370
    30
100
AcDbLine
 10
145.0
 20
47.0
 30
0.0
 11
145.0
 21
25.0
 31
0.0
  0
LINE
  5
7B
330
1F
100
AcDbEntity
  8
0
  6
Continuous
 62
     7
370
    30
100
AcDbLine
 10
145.0
 20
32.5
 30
0.0
 11
205.0
 21
32.5
 31
0.0
  0
LINE
  5
7C
330
1F
100
AcDbEntity
  8
0
  6
Continuous
 62
     7
370
    30
100
AcDbLine
 10
175.0
 20
40.0
 30
0.0
 11
175.0
 21
32.5
 31
0.0
  0
LINE
  5
7D
330
1F
100
AcDbEntity
  8
0
  6
Continuous
 62
     7
370
     0
100
AcDbLine
 10
128.9292008689
 20
63.0961638737
 30
0.0
 11
200.9292008689
 21
63.0961638737
 31
0.0
  0
LINE
  5
7E
330
1F
100
AcDbEntity
  8
0
  6
Continuous
 62
     7
370
     0
100
AcDbLine
 10
128.9292008689
 20
63.0961638737
 30
0.0
 11
128.9292008689
 21
49.0961638737
 31
0.0
  0
LINE
  5
7F
330
1F
100
AcDbEntity
  8
0
  6
Continuous
 62
     7
370
     0
100
AcDbLine
 10
128.9292008689
 20
49.0961638737
 30
0.0
 11
200.9292008689
 21
49.0961638737
 31
0.0
  0
LINE
  5
80
330
1F
100
AcDbEntity
  8
0
  6
Continuous
 62
     7
370
     0
100
AcDbLine
 10
200.9292008689
 20
63.0961638737
 30
0.0
 11
200.9292008689
 21
49.0961638737
 31
0.0
  0
LINE
  5
81
330
1F
100
AcDbEntity
  8
0
  6
Continuous
 62
     7
370
     0
100
AcDbLine
 10
5.0
 20
292.0
 30
0.0
 11
5.0
 21
262.0
 31
0.0
  0
CIRCLE
  5
82
330
1F
100
AcDbEntity
  8
0
  6
CENTER
 62
     7
370
     0
100
AcDbCircle
 10
51.7344694261
 20
127.3480741409
 30
0.0
 40
2.539999999999218
  0
CIRCLE
  5
83
330
1F
100
AcDbEntity
  8
0
  6
CENTER
 62
     7
370
    30
100
AcDbCircle
 10
53.5305206503
 20
129.1441253651
 30
0.0
 40
0.3249999999992077
  0
CIRCLE
  5
84
330
1F
100
AcDbEntity
  8
0
  6
CENTER
 62
     7
370
    30
100
AcDbCircle
 10
53.5305206503
 20
125.5520229167
 30
0.0
 40
0.3249999999991884
  0
CIRCLE
  5
85
330
1F
100
AcDbEntity
  8
0
  6
CENTER
 62
     7
370
    30
100
AcDbCircle
 10
49.9384182019
 20
129.1441253651
 30
0.0
 40
0.3249999999992469
  0
DIMENSION
  5
86
330
1F
100
AcDbEntity
  8
0
  6
Continuous
 62
     7
370
     0
100
AcDbDimension
  2
_D
 10
53.6472270208
 20
129.0192887842
 30
0.0
 11
32.7118360454
 21
123.2926971215
 31
0.0
 70
   163
  1
<>±0.1
 71
     1
 42
-1.0
  3
SLDDIMSTYLE0
100
AcDbDiametricDimension
 15
49.8217118314
 25
125.6768594977
 35
0.0
 40
0.0
  0
DIMENSION
  5
9C
330
1F
100
AcDbEntity
  8
0
  6
Continuous
 62
     7
370
     0
100
AcDbDimension
  2
_D_1
 10
49.9384182019
 20
125.5520229167
 30
0.0
 11
67.7776739467
 21
131.9399393434
 31
0.0
 70
   162
  1
<>
 71
     1
 42
-1.0
  3
SLDDIMSTYLE1
100
AcDb2LineAngularDimension
 13
55.6741111514
 23
127.3480741409
 33
0.0
 14
48.1413527515
 24
127.3480741409
 34
0.0
 15
53.5305206503
 25
129.1441253651
 35
0.0
 16
67.1516255555
 26
133.7340693029
 36
0.0
  0
DIMENSION
  5
A7
330
1F
100
AcDbEntity
  8
0
  6
Continuous
 62
     7
370
     0
100
AcDbDimension
  2
_D_2
 10
55.6741111514
 20
127.3480741409
 30
0.0
 11
67.7776739467
 21
123.2819931174
 31
0.0
 70
   162
  1
<>
 71
     1
 42
-1.0
  3
SLDDIMSTYLE1
100
AcDb2LineAngularDimension
 13
53.5305206503
 23
125.5520229167
 33
0.0
 14
49.9384182019
 24
129.1441253651
 34
0.0
 15
48.1413527515
 25
127.3480741409
 35
0.0
 16
67.0250922995
 26
121.0144907696
 36
0.0
  0
DIMENSION
  5
B1
330
1F
100
AcDbEntity
  8
0
  6
Continuous
 62
     7
370
     0
100
AcDbDimension
  2
_D_3
 10
50.1454834548
 20
128.8936278981
 30
0.0
 11
32.7118360454
 21
138.190679778
 31
0.0
 70
   163
  1
3-<>
 71
     1
 42
-1.0
  3
SLDDIMSTYLE2
100
AcDbDiametricDimension
 15
49.7313529489
 25
129.3946228322
 35
0.0
 40
0.0
  0
INSERT
  5
C8
330
1F
100
AcDbEntity
  8
0
  6
Continuous
 62
     7
370
     0
100
AcDbBlockReference
  2
SW_NOTE_0
 10
38.8721972384
 20
215.955873905
 30
0.0
  0
INSERT
  5
CE
330
1F
100
AcDbEntity
  8
0
  6
Continuous
 62
     7
370
     0
100
AcDbBlockReference
  2
SW_NOTE_1
 10
37.8428782836
 20
151.0387237338
 30
0.0
  0
MTEXT
  5
CF
330
1F
100
AcDbEntity
  8
0
  6
Continuous
 62
     7
370
     0
100
AcDbMText
 10
71.6176849864
 20
173.2541004292
 30
0.0
 40
2.38125
 41
0.0
 71
     1
 72
     1
  1
(0.537)
  7
SLDTEXTSTYLE0
 11
-3.269436733918102E-15
 21
1.0
 31
0.0
 73
     1
 44
1.0
  0
MTEXT
  5
D0
330
1F
100
AcDbEntity
  8
0
  6
Continuous
 62
     7
370
     0
100
AcDbMText
 10
23.3213478681
 20
133.8473931118
 30
0.0
 40
2.38125
 41
0.0
 71
     1
 72
     1
  1
(3-0.026 dia.)
  7
SLDTEXTSTYLE0
 73
     1
 44
1.0
  0
MTEXT
  5
D1
330
1F
100
AcDbEntity
  8
0
  6
Continuous
 62
     7
370
     0
100
AcDbMText
 10
29.671345463
 20
120.8518697404
 30
0.0
 40
2.38125
 41
0.0
 71
     1
 72
     1
  1
(0.2 dia.)
  7
SLDTEXTSTYLE0
 73
     1
 44
1.0
  0
MTEXT
  5
D2
330
1F
100
AcDbEntity
  8
0
  6
Continuous
 62
     7
370
     0
100
AcDbMText
 10
171.7598635243
 20
217.2478029475
 30
0.0
 40
2.38125
 41
0.0
 71
     1
 72
     1
  1
(0.795)
  7
SLDTEXTSTYLE0
 11
-3.269436733918102E-15
 21
1.0
 31
0.0
 73
     1
 44
1.0
  0
MTEXT
  5
D3
330
1F
100
AcDbEntity
  8
0
  6
Continuous
 62
     7
370
     0
100
AcDbMText
 10
162.4051542468
 20
212.2578147133
 30
0.0
 40
2.38125
 41
0.0
 71
     1
 72
     1
  1
(0.287)
  7
SLDTEXTSTYLE0
 11
-3.269436733918102E-15
 21
1.0
 31
0.0
 73
     1
 44
1.0
  0
MTEXT
  5
D4
330
1F
100
AcDbEntity
  8
0
  6
Continuous
 62
     7
370
     0
100
AcDbMText
 10
162.4051542468
 20
196.8078870718
 30
0.0
 40
2.38125
 41
0.0
 71
     1
 72
     1
  1
(0.181)
  7
SLDTEXTSTYLE0
 11
-3.269436733918102E-15
 21
1.0
 31
0.0
 73
     1
 44
1.0
  0
INSERT
  5
DF
330
1F
100
AcDbEntity
  8
0
  6
Continuous
 62
     7
370
     0
100
AcDbBlockReference
  2
SW_NOTE_2
 10
66.0420595887
 20
189.7793591389
 30
0.0
  0
MTEXT
  5
E0
330
1F
100
AcDbEntity
  8
0
  6
Continuous
 62
     7
370
     0
100
AcDbMText
 10
6.3280684874
 20
6.445181383
 30
0.0
 40
2.38125
 41
0.0
 71
     1
 72
     1
  1
(JIS A-4)
  7
SLDTEXTSTYLE0
 73
     1
 44
1.0
  0
MTEXT
  5
E1
330
1F
100
AcDbEntity
  8
0
  6
Continuous
 62
     7
370
     0
100
AcDbMText
 10
64.7360648843
 20
6.445181383
 30
0.0
 40
2.38125
 41
0.0
 71
     1
 72
     1
  1
All Right Reserved Copyrigh, (C) Panasonic Corporation
  7
SLDTEXTSTYLE0
 73
     1
 44
1.0
  0
MTEXT
  5
E2
330
1F
100
AcDbEntity
  8
0
  6
Continuous
 62
     7
370
     0
100
AcDbMText
 10
76.198799667
 20
22.8890928843
 30
0.0
 40
4.2333333333
 41
0.0
 71
     1
 72
     1
  1
Panasonic Corporation
  7
SLDTEXTSTYLE0
 73
     1
 44
1.0
  0
MTEXT
  5
E3
330
1F
100
AcDbEntity
  8
0
  6
Continuous
 62
     7
370
     0
100
AcDbMText
 10
75.2830248209
 20
16.0597678541
 30
0.0
 40
4.2333333333
 41
0.0
 71
     1
 72
     1
  1
Eco Solutions Company
  7
SLDTEXTSTYLE0
 73
     1
 44
1.0
  0
MTEXT
  5
E4
330
1F
100
AcDbEntity
  8
0
  6
Continuous
 62
     7
370
     0
100
AcDbMText
 10
7.399505626
 20
37.9517125752
 30
0.0
 40
4.2333333333
 41
0.0
 71
     1
 72
     1
  1
Name PIR MOTION SENSOR 'PaPIRs' EKM series
  7
SLDTEXTSTYLE0
 73
     1
 44
1.0
  0
MTEXT
  5
E5
330
1F
100
AcDbEntity
  8
0
  6
Continuous
 62
     7
370
     0
100
AcDbMText
 10
43.1181563571
 20
31.8857114426
 30
0.0
 40
4.2333333333
 41
0.0
 71
     1
 72
     1
  1
(Wall installation type)
  7
SLDTEXTSTYLE0
 73
     1
 44
1.0
  0
MTEXT
  5
E6
330
1F
100
AcDbEntity
  8
0
  6
Continuous
 62
     7
370
     0
100
AcDbMText
 10
148.4473581884
 20
46.0655805192
 30
0.0
 40
4.2333333333
 41
0.0
 71
     1
 72
     1
  1
Date July.06.2016
  7
SLDTEXTSTYLE0
 73
     1
 44
1.0
  0
MTEXT
  5
E7
330
1F
100
AcDbEntity
  8
0
  6
Continuous
 62
     7
370
     0
100
AcDbMText
 10
147.8956185945
 20
38.8622472622
 30
0.0
 40
4.2333333333
 41
0.0
 71
     1
 72
     1
  1
Scale 1:1
  7
SLDTEXTSTYLE0
 73
     1
 44
1.0
  0
MTEXT
  5
E8
330
1F
100
AcDbEntity
  8
0
  6
Continuous
 62
     7
370
     0
100
AcDbMText
 10
177.1188186671
 20
38.8622472622
 30
0.0
 40
4.2333333333
 41
0.0
 71
     1
 72
     1
  1
Unit mm
  7
SLDTEXTSTYLE0
 73
     1
 44
1.0
  0
MTEXT
  5
E9
330
1F
100
AcDbEntity
  8
0
  6
Continuous
 62
     7
370
     0
100
AcDbMText
 10
147.8956185945
 20
31.5452447955
 30
0.0
 40
4.2333333333
 41
0.0
 71
     1
 72
     1
  1
Tolerance
  7
SLDTEXTSTYLE0
 73
     1
 44
1.0
  0
MTEXT
  5
EA
330
1F
100
AcDbEntity
  8
0
  6
Continuous
 62
     7
370
     0
100
AcDbMText
 10
7.399505626
 20
46.2820908805
 30
0.0
 40
4.2333333333
 41
0.0
 71
     1
 72
     1
  1
Parts No. EKM***0411**
  7
SLDTEXTSTYLE0
 73
     1
 44
1.0
  0
MTEXT
  5
EB
330
1F
100
AcDbEntity
  8
0
  6
Continuous
 62
     7
370
     0
100
AcDbMText
 10
130.1376779536
 20
58.3504872728
 30
0.0
 40
3.7041666667
 41
0.0
 71
     1
 72
     1
  1
General tolerance
  7
SLDTEXTSTYLE0
 73
     1
 44
1.0
  0
INSERT
  5
F2
330
1F
100
AcDbEntity
  8
0
  6
Continuous
 62
     7
370
     0
100
AcDbBlockReference
  2
SW_NOTE_3
 10
170.2884828494
 20
55.6699686122
 30
0.0
  0
INSERT
  5
FA
330
1F
100
AcDbEntity
  8
0
  6
Continuous
 62
     7
370
     0
100
AcDbBlockReference
  2
SW_NOTE_4
 10
9.402366996
 20
77.6648053195
 30
0.0
  0
INSERT
  5
FB
330
1F
100
AcDbEntity
  8
0
  6
Continuous
 62
     7
370
     0
100
AcDbBlockReference
  2
_OPEN30
 10
61.9277893373
 20
185.5050481315
 30
0.0
 41
1.5
 42
1.5
 50
226.439662505
  0
LINE
  5
FC
330
1F
100
AcDbEntity
  8
0
  6
Continuous
 62
     7
370
     0
100
AcDbLine
 10
61.9277893373
 20
185.5050481315
 30
0.0
 11
65.9434914228
 21
189.7278002018
 31
0.0
  0
LINE
  5
FD
330
1F
100
AcDbEntity
  8
0
  6
Continuous
 62
     7
370
    30
100
AcDbLine
 10
144.4099675221
 20
207.1992133385
 30
0.0
 11
144.4099675221
 21
211.7992129749
 31
0.0
  0
LINE
  5
FE
330
1F
100
AcDbEntity
  8
0
  6
Continuous
 62
     7
370
    30
100
AcDbLine
 10
143.959967555
 20
211.7992129749
 30
0.0
 11
143.959967555
 21
207.1992133385
 31
0.0
  0
LINE
  5
FF
330
1F
100
AcDbEntity
  8
0
  6
Continuous
 62
     7
370
    30
100
AcDbLine
 10
140.8178650512
 20
207.1992133385
 30
0.0
 11
140.8178650512
 21
211.7992129749
 31
0.0
  0
LINE
  5
100
330
1F
100
AcDbEntity
  8
0
  6
Continuous
 62
     7
370
    30
100
AcDbLine
 10
140.3678650841
 20
211.7992129749
 30
0.0
 11
140.3678650841
 21
207.1992133385
 31
0.0
  0
LINE
  5
101
330
1F
100
AcDbEntity
  8
0
  6
Continuous
 62
     7
370
    30
100
AcDbLine
 10
147.903916383
 20
211.7992129749
 30
0.0
 11
147.3946138656
 21
219.0992129142
 31
0.0
  0
LINE
  5
102
330
1F
100
AcDbEntity
  8
0
  6
Continuous
 62
     7
370
    30
100
AcDbLine
 10
137.3832187406
 20
219.0992129142
 30
0.0
 11
136.8739162232
 21
211.7992129749
 31
0.0
  0
LINE
  5
103
330
1F
100
AcDbEntity
  8
0
  6
Continuous
 62
     7
370
    30
100
AcDbLine
 10
152.6747321929
 20
221.7763636251
 30
0.0
 11
152.5977970722
 21
225.4492130702
 31
0.0
  0
LINE
  5
104
330
1F
100
AcDbEntity
  8
0
  6
Continuous
 62
     7
370
    30
100
AcDbLine
 10
132.180035534
 20
225.4492130702
 30
0.0
 11
132.1031004133
 21
221.7763636251
 31
0.0
  0
ARC
  5
105
330
1F
100
AcDbEntity
  8
0
  6
Continuous
 62
     7
370
    30
100
AcDbCircle
 10
142.3889163031
 20
221.0992130092
 30
0.0
 40
10.95000000000001
100
AcDbArc
 50
23.4070163216
 51
156.5929836784
  0
LINE
  5
106
330
1F
100
AcDbEntity
  8
0
  6
Continuous
 62
     7
370
    30
100
AcDbLine
 10
142.5389162784
 20
213.3992130509
 30
0.0
 11
142.2389163278
 21
213.3992130509
 31
0.0
  0
LINE
  5
107
330
1F
100
AcDbEntity
  8
0
  6
Continuous
 62
     7
370
    30
100
AcDbLine
 10
142.2389163278
 20
213.6492130919
 30
0.0
 11
142.2389163278
 21
213.3992130509
 31
0.0
  0
LINE
  5
108
330
1F
100
AcDbEntity
  8
0
  6
Continuous
 62
     7
370
    30
100
AcDbLine
 10
142.5389162784
 20
213.6492130919
 30
0.0
 11
142.5389162784
 21
213.3992130509
 31
0.0
  0
LINE
  5
109
330
1F
100
AcDbEntity
  8
0
  6
Continuous
 62
     7
370
    30
100
AcDbLine
 10
142.7889164019
 20
213.3992130509
 30
0.0
 11
142.5389162784
 21
213.3992130509
 31
0.0
  0
LINE
  5
10A
330
1F
100
AcDbEntity
  8
0
  6
Continuous
 62
     7
370
    30
100
AcDbLine
 10
142.7889164019
 20
213.6492130919
 30
0.0
 11
142.7889164019
 21
213.3992130509
 31
0.0
  0
LINE
  5
10B
330
1F
100
AcDbEntity
  8
0
  6
Continuous
 62
     7
370
    30
100
AcDbLine
 10
142.2389163278
 20
213.3992130509
 30
0.0
 11
141.9889162043
 21
213.3992130509
 31
0.0
  0
LINE
  5
10C
330
1F
100
AcDbEntity
  8
0
  6
Continuous
 62
     7
370
    30
100
AcDbLine
 10
141.9889162043
 20
213.6492130919
 30
0.0
 11
141.9889162043
 21
213.3992130509
 31
0.0
  0
LINE
  5
10D
330
1F
100
AcDbEntity
  8
0
  6
Continuous
 62
     7
370
    30
100
AcDbLine
 10
144.3440666233
 20
207.1992133385
 30
0.0
 11
144.4099675221
 21
207.1992133385
 31
0.0
  0
LINE
  5
10E
330
1F
100
AcDbEntity
  8
0
  6
Continuous
 62
     7
370
    30
100
AcDbLine
 10
143.959967555
 20
207.1992133385
 30
0.0
 11
144.3440666233
 21
207.1992133385
 31
0.0
  0
LINE
  5
10F
330
1F
100
AcDbEntity
  8
0
  6
Continuous
 62
     7
370
    30
100
AcDbLine
 10
142.4889162866
 20
212.6992133087
 30
0.0
 11
142.4889162866
 21
213.3992130509
 31
0.0
  0
LINE
  5
110
330
1F
100
AcDbEntity
  8
0
  6
Continuous
 62
     7
370
    30
100
AcDbLine
 10
142.2889163196
 20
213.3992130509
 30
0.0
 11
142.2889163196
 21
212.6992133087
 31
0.0
  0
LINE
  5
111
330
1F
100
AcDbEntity
  8
0
  6
Continuous
 62
     7
370
    30
100
AcDbLine
 10
142.4889162866
 20
212.6992133087
 30
0.0
 11
142.2889163196
 21
212.6992133087
 31
0.0
  0
LINE
  5
112
330
1F
100
AcDbEntity
  8
0
  6
Continuous
 62
     7
370
    30
100
AcDbLine
 10
141.988916369
 20
212.6992133087
 30
0.0
 11
141.988916369
 21
213.3992130509
 31
0.0
  0
LINE
  5
113
330
1F
100
AcDbEntity
  8
0
  6
Continuous
 62
     7
370
    30
100
AcDbLine
 10
142.2889163196
 20
212.6992133087
 30
0.0
 11
141.988916369
 21
212.6992133087
 31
0.0
  0
LINE
  5
114
330
1F
100
AcDbEntity
  8
0
  6
Continuous
 62
     7
370
    30
100
AcDbLine
 10
142.7889162373
 20
213.3992130509
 30
0.0
 11
142.7889162373
 21
212.6992133087
 31
0.0
  0
LINE
  5
115
330
1F
100
AcDbEntity
  8
0
  6
Continuous
 62
     7
370
    30
100
AcDbLine
 10
142.7889162373
 20
212.6992133087
 30
0.0
 11
142.4889162866
 21
212.6992133087
 31
0.0
  0
LINE
  5
116
330
1F
100
AcDbEntity
  8
0
  6
Continuous
 62
     7
370
    30
100
AcDbLine
 10
141.9889162043
 20
212.6992133087
 30
0.0
 11
141.8911029178
 21
212.6992133087
 31
0.0
  0
LINE
  5
117
330
1F
100
AcDbEntity
  8
0
  6
Continuous
 62
     7
370
    30
100
AcDbLine
 10
141.9272110778
 20
213.3992130509
 30
0.0
 11
141.9889162043
 21
213.3992130509
 31
0.0
  0
LINE
  5
118
330
1F
100
AcDbEntity
  8
0
  6
Continuous
 62
     7
370
    30
100
AcDbLine
 10
142.8836233339
 20
212.6992133087
 30
0.0
 11
142.7889164019
 21
212.6992133087
 31
0.0
  0
LINE
  5
119
330
1F
100
AcDbEntity
  8
0
  6
Continuous
 62
     7
370
    30
100
AcDbLine
 10
142.7889164019
 20
213.3992130509
 30
0.0
 11
142.8469636429
 21
213.3992130509
 31
0.0
  0
LINE
  5
11A
330
1F
100
AcDbEntity
  8
0
  6
Continuous
 62
     7
370
    30
100
AcDbLine
 10
140.7519641524
 20
207.1992133385
 30
0.0
 11
140.8178650512
 21
207.1992133385
 31
0.0
  0
LINE
  5
11B
330
1F
100
AcDbEntity
  8
0
  6
Continuous
 62
     7
370
    30
100
AcDbLine
 10
140.3678650841
 20
207.1992133385
 30
0.0
 11
140.7519641524
 21
207.1992133385
 31
0.0
  0
LINE
  5
11C
330
1F
100
AcDbEntity
  8
0
  6
Continuous
 62
     7
370
    30
100
AcDbLine
 10
132.4352702631
 20
220.0992129617
 30
0.0
 11
132.4352702631
 21
221.0992130092
 31
0.0
  0
LINE
  5
11D
330
1F
100
AcDbEntity
  8
0
  6
Continuous
 62
     7
370
    30
100
AcDbLine
 10
132.4352702631
 20
221.0992130092
 30
0.0
 11
152.3425623431
 21
221.0992130092
 31
0.0
  0
LINE
  5
11E
330
1F
100
AcDbEntity
  8
0
  6
Continuous
 62
     7
370
    30
100
AcDbLine
 10
152.3425623431
 20
220.0992129617
 30
0.0
 11
152.3425623431
 21
221.0992130092
 31
0.0
  0
LINE
  5
11F
330
1F
100
AcDbEntity
  8
0
  6
Continuous
 62
     7
370
    30
100
AcDbLine
 10
132.4352702631
 20
220.0992129617
 30
0.0
 11
152.3425623431
 21
220.0992129617
 31
0.0
  0
LINE
  5
120
330
1F
100
AcDbEntity
  8
0
  6
Continuous
 62
     7
370
    30
100
AcDbLine
 10
133.3274591185
 20
219.0992129142
 30
0.0
 11
151.4503734877
 21
219.0992129142
 31
0.0
  0
LINE
  5
121
330
1F
100
AcDbEntity
  8
0
  6
Continuous
 62
     7
370
    30
100
AcDbLine
 10
133.3274591185
 20
219.0992129142
 30
0.0
 11
133.3274591185
 21
220.0992129617
 31
0.0
  0
LINE
  5
122
330
1F
100
AcDbEntity
  8
0
  6
Continuous
 62
     7
370
    30
100
AcDbLine
 10
151.4503734877
 20
219.0992129142
 30
0.0
 11
151.4503734877
 21
220.0992129617
 31
0.0
  0
LINE
  5
123
330
1F
100
AcDbEntity
  8
0
  6
Continuous
 62
     7
370
    30
100
AcDbLine
 10
142.838916229
 20
213.6492130919
 30
0.0
 11
142.933916378
 21
211.7992129749
 31
0.0
  0
LINE
  5
124
330
1F
100
AcDbEntity
  8
0
  6
Continuous
 62
     7
370
    30
100
AcDbLine
 10
141.9389163772
 20
213.6492130919
 30
0.0
 11
142.838916229
 21
213.6492130919
 31
0.0
  0
LINE
  5
125
330
1F
100
AcDbEntity
  8
0
  6
Continuous
 62
     7
370
    30
100
AcDbLine
 10
141.8439162282
 20
211.7992129749
 30
0.0
 11
141.9389163772
 21
213.6492130919
 31
0.0
  0
LINE
  5
126
330
1F
100
AcDbEntity
  8
0
  6
Continuous
 62
     7
370
    30
100
AcDbLine
 10
142.933916378
 20
211.7992129749
 30
0.0
 11
147.903916383
 21
211.7992129749
 31
0.0
  0
LINE
  5
127
330
1F
100
AcDbEntity
  8
0
  6
Continuous
 62
     7
370
    30
100
AcDbLine
 10
136.8739162232
 20
211.7992129749
 30
0.0
 11
141.8439162282
 21
211.7992129749
 31
0.0
  0
LINE
  5
128
330
1F
100
AcDbEntity
  8
0
  6
Continuous
 62
     7
370
    30
100
AcDbLine
 10
142.933916378
 20
211.7992129749
 30
0.0
 11
141.8414675951
 21
211.7992129749
 31
0.0
  0
LINE
  5
129
330
1F
100
AcDbEntity
  8
0
  6
Continuous
 62
     7
370
    30
100
AcDbLine
 10
152.5358369244
 20
221.0992130092
 30
0.0
 11
152.5358369244
 21
220.0992129617
 31
0.0
  0
LINE
  5
12A
330
1F
100
AcDbEntity
  8
0
  6
Continuous
 62
     7
370
    30
100
AcDbLine
 10
152.5358369244
 20
220.0992129617
 30
0.0
 11
152.3425623431
 21
220.0992129617
 31
0.0
  0
LINE
  5
12B
330
1F
100
AcDbEntity
  8
0
  6
Continuous
 62
     7
370
    30
100
AcDbLine
 10
152.3425623431
 20
221.0992130092
 30
0.0
 11
152.5358369244
 21
221.0992130092
 31
0.0
  0
LINE
  5
12C
330
1F
100
AcDbEntity
  8
0
  6
Continuous
 62
     7
370
    30
100
AcDbLine
 10
132.2419956818
 20
221.0992130092
 30
0.0
 11
132.2419956818
 21
220.0992129617
 31
0.0
  0
LINE
  5
12D
330
1F
100
AcDbEntity
  8
0
  6
Continuous
 62
     7
370
    30
100
AcDbLine
 10
132.2419956818
 20
220.0992129617
 30
0.0
 11
132.4352702631
 21
220.0992129617
 31
0.0
  0
LINE
  5
12E
330
1F
100
AcDbEntity
  8
0
  6
Continuous
 62
     7
370
    30
100
AcDbLine
 10
132.4352702631
 20
221.0992130092
 30
0.0
 11
132.2419956818
 21
221.0992130092
 31
0.0
  0
LINE
  5
12F
330
1F
100
AcDbEntity
  8
0
  6
Continuous
 62
     7
370
    30
100
AcDbLine
 10
152.8889165501
 20
219.1123364134
 30
0.0
 11
152.8889165501
 21
221.0992130092
 31
0.0
  0
LINE
  5
130
330
1F
100
AcDbEntity
  8
0
  6
Continuous
 62
     7
370
    30
100
AcDbLine
 10
152.8889165501
 20
219.1123364134
 30
0.0
 11
152.7389162456
 21
219.0992129142
 31
0.0
  0
LINE
  5
131
330
1F
100
AcDbEntity
  8
0
  6
Continuous
 62
     7
370
    30
100
AcDbLine
 10
151.4503734877
 20
219.0992129142
 30
0.0
 11
152.7389162456
 21
219.0992129142
 31
0.0
  0
LINE
  5
132
330
1F
100
AcDbEntity
  8
0
  6
Continuous
 62
     7
370
    30
100
AcDbLine
 10
152.5358369244
 20
221.0992130092
 30
0.0
 11
152.8889165501
 21
221.0992130092
 31
0.0
  0
LINE
  5
133
330
1F
100
AcDbEntity
  8
0
  6
Continuous
 62
     7
370
    30
100
AcDbLine
 10
153.3889164678
 20
221.0992130092
 30
0.0
 11
153.3889164678
 21
219.1560806347
 31
0.0
  0
LWPOLYLINE
  5
134
330
1F
100
AcDbEntity
  8
0
  6
Continuous
 62
     7
370
    30
100
AcDbPolyline
 90
       10
 70
   128
 43
0.0
 10
153.3889164678
 20
219.1560806347
 10
153.3813198277
 20
219.1554160196
 10
153.3587627026
 20
219.1534425471
 10
153.3219289912
 20
219.1502200546
 10
153.2719388776
 20
219.1458463309
 10
153.2103103069
 20
219.1404546717
 10
153.1389161797
 20
219.1342085241
 10
153.0599264002
 20
219.1272976449
 10
152.9757400459
 20
219.1199325131
 10
152.8889165501
 20
219.1123364134
  0
LINE
  5
135
330
1F
100
AcDbEntity
  8
0
  6
Continuous
 62
     7
370
    30
100
AcDbLine
 10
152.8889165501
 20
221.0992130092
 30
0.0
 11
153.3889164678
 21
221.0992130092
 31
0.0
  0
LINE
  5
136
330
1F
100
AcDbEntity
  8
0
  6
Continuous
 62
     7
370
    30
100
AcDbLine
 10
131.8889160561
 20
219.1123364134
 30
0.0
 11
132.0389163606
 21
219.0992129142
 31
0.0
  0
LINE
  5
137
330
1F
100
AcDbEntity
  8
0
  6
Continuous
 62
     7
370
    30
100
AcDbLine
 10
131.8889160561
 20
221.0992130092
 30
0.0
 11
131.8889160561
 21
219.1123364134
 31
0.0
  0
LINE
  5
138
330
1F
100
AcDbEntity
  8
0
  6
Continuous
 62
     7
370
    30
100
AcDbLine
 10
133.3274591185
 20
219.0992129142
 30
0.0
 11
132.0389163606
 21
219.0992129142
 31
0.0
  0
LINE
  5
139
330
1F
100
AcDbEntity
  8
0
  6
Continuous
 62
     7
370
    30
100
AcDbLine
 10
132.2419956818
 20
221.0992130092
 30
0.0
 11
131.8889160561
 21
221.0992130092
 31
0.0
  0
LINE
  5
13A
330
1F
100
AcDbEntity
  8
0
  6
Continuous
 62
     7
370
    30
100
AcDbLine
 10
131.3889161384
 20
219.1560806347
 30
0.0
 11
131.3889161384
 21
221.0992130092
 31
0.0
  0
LWPOLYLINE
  5
13B
330
1F
100
AcDbEntity
  8
0
  6
Continuous
 62
     7
370
    30
100
AcDbPolyline
 90
       10
 70
   128
 43
0.0
 10
131.8889160561
 20
219.1123364134
 10
131.8020925603
 20
219.1199325131
 10
131.7179062061
 20
219.1272976449
 10
131.6389164265
 20
219.1342085241
 10
131.5675222993
 20
219.1404546717
 10
131.5058937286
 20
219.1458463309
 10
131.455903615
 20
219.1502200546
 10
131.4190699036
 20
219.1534425471
 10
131.3965127786
 20
219.1554160196
 10
131.3889161384
 20
219.1560806347
  0
LINE
  5
13C
330
1F
100
AcDbEntity
  8
0
  6
Continuous
 62
     7
370
    30
100
AcDbLine
 10
131.3889161384
 20
221.0992130092
 30
0.0
 11
131.8889160561
 21
221.0992130092
 31
0.0
  0
SPLINE
  5
13D
330
1F
100
AcDbEntity
  8
0
  6
Continuous
 62
     7
370
    30
100
AcDbSpline
210
0.0
220
0.0
230
1.0
 70
     8
 71
     3
 72
    14
 73
    10
 74
     0
 42
0.000000001
 43
0.00000001
 40
0.0
 40
0.0
 40
0.0
 40
0.0
 40
0.0160486910212037
 40
0.0386781192227465
 40
0.0792187211243768
 40
0.2145965462785739
 40
0.5334041864584491
 40
0.8557715596577946
 40
1.0
 40
1.0
 40
1.0
 40
1.0
 10
152.674731534364
 20
221.7763636251114
 30
0.0
 10
152.6747370720442
 20
221.7760371026483
 30
0.0
 10
152.6747504181204
 20
221.7752501677676
 30
0.0
 10
152.6749287437404
 20
221.7651002733654
 30
0.0
 10
152.6755573325875
 20
221.7289923990927
 30
0.0
 10
152.6775229605315
 20
221.61650815309
 30
0.0
 10
152.6807084118093
 20
221.4339106437487
 30
0.0
 10
152.6839898249948
 20
221.2459363025542
 30
0.0
 10
152.6859463224291
 20
221.13385746152
 30
0.0
 10
152.6865510911933
 20
221.0992130091512
 30
0.0
  0
SPLINE
  5
13E
330
1F
100
AcDbEntity
  8
0
  6
Continuous
 62
     7
370
    30
100
AcDbSpline
210
0.0
220
0.0
230
1.0
 70
     8
 71
     3
 72
    14
 73
    10
 74
     0
 42
0.000000001
 43
0.00000001
 40
0.0
 40
0.0
 40
0.0
 40
0.0
 40
0.0160486910078728
 40
0.0386781191906182
 40
0.0792187210585732
 40
0.2145965461003179
 40
0.533404147755431
 40
0.8557715499725447
 40
1.0
 40
1.0
 40
1.0
 40
1.0
 10
132.1031010718426
 20
221.7763636251114
 30
0.0
 10
132.1030955341624
 20
221.7760371026484
 30
0.0
 10
132.1030821880862
 20
221.7752501677677
 30
0.0
 10
132.1029038624665
 20
221.7651002733643
 30
0.0
 10
132.1022752736152
 20
221.7289923991075
 30
0.0
 10
132.1003096459141
 20
221.6165081614598
 30
0.0
 10
132.0971241937994
 20
221.433910658079
 30
0.0
 10
132.0938427812828
 20
221.2459363144277
 30
0.0
 10
132.0918862837869
 20
221.1338574639109
 30
0.0
 10
132.0912815150133
 20
221.0992130091581
 30
0.0
  0
LINE
  5
13F
330
1F
100
AcDbEntity
  8
0
  6
Continuous
 62
     7
370
    30
100
AcDbLine
 10
152.5977970722
 20
225.4492130702
 30
0.0
 11
132.180035534
 21
225.4492130702
 31
0.0
  0
LINE
  5
140
330
1F
100
AcDbEntity
  8
0
  6
Continuous
 62
     7
370
    30
100
AcDbLine
 10
132.9210759125
 20
219.0992129142
 30
0.0
 11
132.9210759125
 21
218.0992129831
 31
0.0
  0
LINE
  5
141
330
1F
100
AcDbEntity
  8
0
  6
Continuous
 62
     7
370
    30
100
AcDbLine
 10
151.8567566937
 20
219.0992129142
 30
0.0
 11
151.8567566937
 21
218.0992129831
 31
0.0
  0
LINE
  5
142
330
1F
100
AcDbEntity
  8
0
  6
Continuous
 62
     7
370
    30
100
AcDbLine
 10
131.7063688355
 20
219.0990606429
 30
0.0
 11
132.0557280141
 21
219.0623416206
 31
0.0
  0
LINE
  5
143
330
1F
100
AcDbEntity
  8
0
  6
Continuous
 62
     7
370
    30
100
AcDbLine
 10
132.0557280141
 20
219.0623416206
 30
0.0
 11
132.0563710828
 21
219.0992129142
 31
0.0
  0
LINE
  5
144
330
1F
100
AcDbEntity
  8
0
  6
Continuous
 62
     7
370
    30
100
AcDbLine
 10
132.9210759125
 20
218.0992129831
 30
0.0
 11
132.3389166405
 21
218.0992129831
 31
0.0
  0
LINE
  5
145
330
1F
100
AcDbEntity
  8
0
  6
Continuous
 62
     7
370
    30
100
AcDbLine
 10
131.7000678817
 20
218.7380618522
 30
0.0
 11
132.3389166405
 21
218.0992129831
 31
0.0
  0
LINE
  5
146
330
1F
100
AcDbEntity
  8
0
  6
Continuous
 62
     7
370
    30
100
AcDbLine
 10
131.7000678817
 20
218.7380618522
 30
0.0
 11
131.7063688355
 21
219.0990606429
 31
0.0
  0
LINE
  5
147
330
1F
100
AcDbEntity
  8
0
  6
Continuous
 62
     7
370
    30
100
AcDbLine
 10
152.7221045921
 20
219.0623416206
 30
0.0
 11
152.7214615234
 21
219.0992129142
 31
0.0
  0
LINE
  5
148
330
1F
100
AcDbEntity
  8
0
  6
Continuous
 62
     7
370
    30
100
AcDbLine
 10
153.0714637707
 20
219.0990606429
 30
0.0
 11
152.7221045921
 21
219.0623416206
 31
0.0
  0
LINE
  5
149
330
1F
100
AcDbEntity
  8
0
  6
Continuous
 62
     7
370
    30
100
AcDbLine
 10
153.0714637707
 20
219.0990606429
 30
0.0
 11
153.0775721002
 21
218.74911409
 31
0.0
  0
LINE
  5
14A
330
1F
100
AcDbEntity
  8
0
  6
Continuous
 62
     7
370
    30
100
AcDbLine
 10
152.4389159657
 20
218.0992129831
 30
0.0
 11
153.0775721002
 21
218.74911409
 31
0.0
  0
LINE
  5
14B
330
1F
100
AcDbEntity
  8
0
  6
Continuous
 62
     7
370
    30
100
AcDbLine
 10
152.4389159657
 20
218.0992129831
 30
0.0
 11
151.8567566937
 21
218.0992129831
 31
0.0
  0
LINE
  5
14C
330
1F
100
AcDbEntity
  8
0
  6
CENTERX2
 62
     7
370
     0
100
AcDbLine
 10
142.3889163031
 20
235.2481382155
 30
0.0
 11
142.3889163031
 21
204.9697536947
 31
0.0
  0
CIRCLE
  5
14D
330
1F
100
AcDbEntity
  8
0
  6
Continuous
 62
     7
370
     0
100
AcDbCircle
 10
136.8739163031
 20
211.7992130092
 30
0.0
 40
0.0009999999999949
  0
CIRCLE
  5
14E
330
1F
100
AcDbEntity
  8
0
  6
Continuous
 62
     7
370
     0
100
AcDbCircle
 10
147.9039163031
 20
211.7992130092
 30
0.0
 40
0.0001000000000033
  0
CIRCLE
  5
14F
330
1F
100
AcDbEntity
  8
0
  6
Continuous
 62
     7
370
     0
100
AcDbCircle
 10
142.3889163031
 20
232.0492130092
 30
0.0
 40
0.0001000000000033
  0
DIMENSION
  5
150
330
1F
100
AcDbEntity
  8
0
  6
Continuous
 62
     7
370
     0
100
AcDbDimension
  2
_D_4
 10
136.8739163031
 20
196.0135803562
 30
0.0
 11
117.8161841842
 21
196.0135803562
 31
0.0
 70
   160
  1
%%c<>
 71
     2
 42
-1.0
  3
SLDDIMSTYLE3
100
AcDbAlignedDimension
 13
147.9039163031
 23
211.7992130092
 33
0.0
 14
136.8739163031
 24
211.7992130092
 34
0.0
 50
0.0
100
AcDbRotatedDimension
  0
DIMENSION
  5
15D
330
1F
100
AcDbEntity
  8
0
  6
Continuous
 62
     7
370
     0
100
AcDbDimension
  2
_D_5
 10
161.8712799409
 20
207.1992130092
 30
0.0
 11
161.8712799409
 21
201.3441511599
 31
0.0
 70
   160
  1
<>
 71
     2
 42
-1.0
  3
SLDDIMSTYLE4
100
AcDbAlignedDimension
 13
147.9039163031
 23
211.7992130092
 33
0.0
 14
144.4099675273
 24
207.1992130092
 34
0.0
 50
90.0
100
AcDbRotatedDimension
  0
DIMENSION
  5
169
330
1F
100
AcDbEntity
  8
0
  6
Continuous
 62
     7
370
     0
100
AcDbDimension
  2
_D_6
 10
171.3893238249
 20
211.7992130092
 30
0.0
 11
171.3893238249
 21
221.1016335534
 31
0.0
 70
   160
  1
<>
 71
     2
 42
-1.0
  3
SLDDIMSTYLE4
100
AcDbAlignedDimension
 13
142.3889163031
 23
232.0492130092
 33
0.0
 14
147.9039163031
 24
211.7992130092
 34
0.0
 50
90.0
100
AcDbRotatedDimension
  0
DIMENSION
  5
173
330
1F
100
AcDbEntity
  8
0
  6
Continuous
 62
     7
370
     0
100
AcDbDimension
  2
_D_7
 10
161.8712799409
 20
219.0992130092
 30
0.0
 11
161.8712799409
 21
215.6444143739
 31
0.0
 70
   160
  1
<>
 71
     2
 42
-1.0
  3
SLDDIMSTYLE5
100
AcDbAlignedDimension
 13
147.9039163031
 23
211.7992130092
 33
0.0
 14
152.7389163031
 24
219.0992130092
 34
0.0
 50
90.0
100
AcDbRotatedDimension
  0
DIMENSION
  5
180
330
1F
100
AcDbEntity
  8
0
  6
Continuous
 62
     7
370
     0
100
AcDbDimension
  2
_D_8
 10
131.3889163031
 20
246.9408747105
 30
0.0
 11
142.4601084881
 21
246.9408747105
 31
0.0
 70
   160
  1
<>
 71
     2
 42
-1.0
  3
SLDDIMSTYLE6
100
AcDbAlignedDimension
 13
153.3889163031
 23
221.0992130092
 33
0.0
 14
131.3889163031
 24
221.0992130092
 34
0.0
 50
0.0
100
AcDbRotatedDimension
  0
DIMENSION
  5
18B
330
1F
100
AcDbEntity
  8
0
  6
Continuous
 62
     7
370
     0
100
AcDbDimension
  2
_D_9
 10
152.7221048313
 20
239.3097323914
 30
0.0
 11
141.1388659681
 21
239.3097323914
 31
0.0
 70
   160
  1
%%c<>
 71
     2
 42
-1.0
  3
SLDDIMSTYLE7
100
AcDbAlignedDimension
 13
132.055727775
 23
219.0623415869
 33
0.0
 14
152.7221048312
 24
219.0623415869
 34
0.0
 50
0.0
100
AcDbRotatedDimension
  0
DIMENSION
  5
197
330
1F
100
AcDbEntity
  8
0
  6
Continuous
 62
     7
370
     0
100
AcDbDimension
  2
_D_10
 10
140.8178650789
 20
205.380319572
 30
0.0
 11
125.3376146944
 21
205.380319572
 31
0.0
 70
   160
  1
%%c<>
 71
     2
 42
-1.0
  3
SLDDIMSTYLE8
100
AcDbAlignedDimension
 13
140.3678650789
 23
207.1992130092
 33
0.0
 14
140.8178650789
 24
207.1992130092
 34
0.0
 50
0.0
100
AcDbRotatedDimension
  0
MTEXT
  5
1A6
330
1F
100
AcDbEntity
  8
0
  6
Continuous
 62
     7
370
     0
100
AcDbMText
 10
118.1916599327
 20
205.4988418632
 30
0.0
 40
2.38125
 41
0.0
 71
     1
 72
     1
  1
(0.018 dia.)
  7
SLDTEXTSTYLE0
 73
     1
 44
1.0
  0
MTEXT
  5
1A7
330
1F
100
AcDbEntity
  8
0
  6
Continuous
 62
     7
370
     0
100
AcDbMText
 10
118.1916599327
 20
195.7393531113
 30
0.0
 40
2.38125
 41
0.0
 71
     1
 72
     1
  1
(0.433 dia.)
  7
SLDTEXTSTYLE0
 73
     1
 44
1.0
  0
MTEXT
  5
1A8
330
1F
100
AcDbEntity
  8
0
  6
Continuous
 62
     7
370
     0
100
AcDbMText
 10
135.3141537265
 20
239.1593500608
 30
0.0
 40
2.38125
 41
0.0
 71
     1
 72
     1
  1
(0.815 dia.)
  7
SLDTEXTSTYLE0
 73
     1
 44
1.0
  0
MTEXT
  5
1A9
330
1F
100
AcDbEntity
  8
0
  6
Continuous
 62
     7
370
     0
100
AcDbMText
 10
137.9974696183
 20
246.9380194297
 30
0.0
 40
2.38125
 41
0.0
 71
     1
 72
     1
  1
(0.866)
  7
SLDTEXTSTYLE0
 73
     1
 44
1.0
  0
MTEXT
  5
1AA
330
1F
100
AcDbEntity
  8
0
  6
Continuous
 62
     7
370
     0
100
AcDbMText
 10
37.5414549573
 20
274.8859659654
 30
0.0
 40
3.5
 41
0.0
 71
     1
 72
     1
  1
Detection range
  7
SLDTEXTSTYLE0
 73
     1
 44
1.0
  0
LINE
  5
1AB
330
1F
100
AcDbEntity
  8
0
  6
Continuous
 62
     7
370
     0
100
AcDbLine
 10
128.3493696267
 20
225.4492130092
 30
0.0
 11
156.9915846941
 21
225.4492130092
 31
0.0
  0
LINE
  5
1AC
330
1F
100
AcDbEntity
  8
0
  6
Continuous
 62
     7
370
     0
100
AcDbLine
 10
130.3493696267
 20
219.4492130092
 30
0.0
 11
130.3493696267
 21
225.4492130092
 31
0.0
  0
INSERT
  5
1AD
330
1F
100
AcDbEntity
  8
0
  6
Continuous
 62
     7
370
     0
100
AcDbBlockReference
  2
_OPEN30
 10
130.3493696267
 20
225.4492130092
 30
0.0
 41
3.0
 42
3.0
 50
90.0
  0
LINE
  5
1AE
330
1F
100
AcDbEntity
  8
0
  6
Continuous
 62
     7
370
     0
100
AcDbLine
 10
154.9915846941
 20
219.4492130092
 30
0.0
 11
154.9915846941
 21
225.4492130092
 31
0.0
  0
INSERT
  5
1AF
330
1F
100
AcDbEntity
  8
0
  6
Continuous
 62
     7
370
     0
100
AcDbBlockReference
  2
_OPEN30
 10
154.9915846941
 20
225.4492130092
 30
0.0
 41
3.0
 42
3.0
 50
90.0
  0
MTEXT
  5
1B0
330
1F
100
AcDbEntity
  8
0
  6
Continuous
 62
     7
100
AcDbMText
 10
128.9795891681
 20
219.8852799256
 30
0.0
 40
3.5
 41
0.0
 71
     1
 72
     1
  1
A
  7
SLDTEXTSTYLE0
 73
     1
 44
1.0
  0
MTEXT
  5
1B1
330
1F
100
AcDbEntity
  8
0
  6
Continuous
 62
     7
100
AcDbMText
 10
153.6797874759
 20
219.8852799256
 30
0.0
 40
3.5
 41
0.0
 71
     1
 72
     1
  1
A
  7
SLDTEXTSTYLE0
 73
     1
 44
1.0
  0
LINE
  5
1B2
330
1F
100
AcDbEntity
  8
0
  6
Continuous
 62
     7
370
    30
100
AcDbLine
 10
131.538916443
 20
267.5439082776
 30
0.0
 11
131.538916443
 21
271.5439082776
 31
0.0
  0
LINE
  5
1B3
330
1F
100
AcDbEntity
  8
0
  6
Continuous
 62
     7
370
    30
100
AcDbLine
 10
153.2389161632
 20
271.5439082776
 30
0.0
 11
153.2389161632
 21
267.5439082776
 31
0.0
  0
ARC
  5
1B4
330
1F
100
AcDbEntity
  8
0
  6
Continuous
 62
     7
370
    30
100
AcDbCircle
 10
152.5358370183
 20
272.2439082776
 30
0.0
 40
0.1999999999999886
100
AcDbArc
 50
194.9005966878
 51
270.0
  0
LINE
  5
1B5
330
1F
100
AcDbEntity
  8
0
  6
Continuous
 62
     7
370
    30
100
AcDbLine
 10
152.8889165501
 20
272.0439085246
 30
0.0
 11
152.5358369244
 21
272.0439081953
 31
0.0
  0
ARC
  5
1B6
330
1F
100
AcDbEntity
  8
0
  6
Continuous
 62
     7
370
    30
100
AcDbCircle
 10
152.8889163031
 20
271.5439082776
 30
0.0
 40
0.5
100
AcDbArc
 50
0.0
 51
90.0
  0
LINE
  5
1B7
330
1F
100
AcDbEntity
  8
0
  6
Continuous
 62
     7
370
    30
100
AcDbLine
 10
153.3889164678
 20
267.5439079483
 30
0.0
 11
153.3889164678
 21
271.5439086069
 31
0.0
  0
ARC
  5
1B8
330
1F
100
AcDbEntity
  8
0
  6
Continuous
 62
     7
370
    30
100
AcDbCircle
 10
152.8889163031
 20
267.5439082776
 30
0.0
 40
0.5
100
AcDbArc
 50
270.0
 51
0.0
  0
LINE
  5
1B9
330
1F
100
AcDbEntity
  8
0
  6
Continuous
 62
     7
370
    30
100
AcDbLine
 10
152.5358369244
 20
267.0439083599
 30
0.0
 11
152.8889165501
 21
267.0439080306
 31
0.0
  0
ARC
  5
1BA
330
1F
100
AcDbEntity
  8
0
  6
Continuous
 62
     7
370
    30
100
AcDbCircle
 10
152.5358370183
 20
266.8439082776
 30
0.0
 40
0.2000000000000455
100
AcDbArc
 50
90.0
 51
165.0994033122
  0
ARC
  5
1BB
330
1F
100
AcDbEntity
  8
0
  6
Continuous
 62
     7
370
    30
100
AcDbCircle
 10
142.3889163031
 20
269.5439082776
 30
0.0
 40
10.3
100
AcDbArc
 50
194.9005966878
 51
345.0994033122
  0
ARC
  5
1BC
330
1F
100
AcDbEntity
  8
0
  6
Continuous
 62
     7
370
    30
100
AcDbCircle
 10
132.2419955879
 20
266.8439082776
 30
0.0
 40
0.1999999999999915
100
AcDbArc
 50
14.9005966878
 51
90.0
  0
LINE
  5
1BD
330
1F
100
AcDbEntity
  8
0
  6
Continuous
 62
     7
370
    30
100
AcDbLine
 10
132.2419956818
 20
267.0439083599
 30
0.0
 11
131.8889160561
 21
267.0439080306
 31
0.0
  0
ARC
  5
1BE
330
1F
100
AcDbEntity
  8
0
  6
Continuous
 62
     7
370
    30
100
AcDbCircle
 10
131.8889163031
 20
267.5439082776
 30
0.0
 40
0.5
100
AcDbArc
 50
180.0
 51
270.0
  0
LINE
  5
1BF
330
1F
100
AcDbEntity
  8
0
  6
Continuous
 62
     7
370
    30
100
AcDbLine
 10
131.3889161384
 20
267.5439079483
 30
0.0
 11
131.3889161384
 21
271.5439086069
 31
0.0
  0
ARC
  5
1C0
330
1F
100
AcDbEntity
  8
0
  6
Continuous
 62
     7
370
    30
100
AcDbCircle
 10
131.8889163031
 20
271.5439082776
 30
0.0
 40
0.5
100
AcDbArc
 50
90.0
 51
180.0
  0
LINE
  5
1C1
330
1F
100
AcDbEntity
  8
0
  6
Continuous
 62
     7
370
    30
100
AcDbLine
 10
131.8889160561
 20
272.0439085246
 30
0.0
 11
132.2419956818
 21
272.0439081953
 31
0.0
  0
ARC
  5
1C2
330
1F
100
AcDbEntity
  8
0
  6
Continuous
 62
     7
370
    30
100
AcDbCircle
 10
132.2419955879
 20
272.2439082776
 30
0.0
 40
0.1999999999999886
100
AcDbArc
 50
270.0
 51
345.0994033122
  0
ARC
  5
1C3
330
1F
100
AcDbEntity
  8
0
  6
Continuous
 62
     7
370
    30
100
AcDbCircle
 10
142.3889163031
 20
269.5439082776
 30
0.0
 40
10.30000000000004
100
AcDbArc
 50
91.256137072
 51
165.0994033122
  0
ARC
  5
1C4
330
1F
100
AcDbEntity
  8
0
  6
Continuous
 62
     7
370
    30
100
AcDbCircle
 10
142.3889163031
 20
279.6439082776
 30
0.0
 40
0.3000000000000222
100
AcDbArc
 50
41.1791674876
 51
138.8208325124
  0
ARC
  5
1C5
330
1F
100
AcDbEntity
  8
0
  6
Continuous
 62
     7
370
    30
100
AcDbCircle
 10
142.3889163031
 20
269.5439082776
 30
0.0
 40
10.30000000000004
100
AcDbArc
 50
14.9005966878
 51
88.743862928
  0
LWPOLYLINE
  5
1C6
330
1F
100
AcDbEntity
  8
0
  6
Continuous
 62
     7
370
    30
100
AcDbPolyline
 90
        9
 70
   128
 43
0.0
 10
132.0389163606
 20
270.8439083929
 10
132.0293091841
 20
270.8573581766
 10
132.0008564393
 20
270.8971925461
 10
131.954650981
 20
270.9618793975
 10
131.8924695622
 20
271.0489333838
 10
131.8167013824
 20
271.155009099
 10
131.7302581961
 20
271.2760298232
 10
131.6364617018
 20
271.4073449152
 10
131.538916443
 20
271.5439082776
  0
LINE
  5
1C7
330
1F
100
AcDbEntity
  8
0
  6
Continuous
 62
     7
370
    30
100
AcDbLine
 10
132.0389163606
 20
270.8439083929
 30
0.0
 11
132.0389163606
 21
268.2439081624
 31
0.0
  0
LWPOLYLINE
  5
1C8
330
1F
100
AcDbEntity
  8
0
  6
Continuous
 62
     7
370
    30
100
AcDbPolyline
 90
        9
 70
   128
 43
0.0
 10
131.538916443
 20
267.5439082776
 10
131.6364617018
 20
267.68047164
 10
131.7302581961
 20
267.811786732
 10
131.8167013824
 20
267.9328074562
 10
131.8924695622
 20
268.0388831714
 10
131.954650981
 20
268.1259371577
 10
132.0008564393
 20
268.1906240091
 10
132.0293091841
 20
268.2304583786
 10
132.0389163606
 20
268.2439081624
  0
ARC
  5
1C9
330
1F
100
AcDbEntity
  8
0
  6
Continuous
 62
     7
370
    30
100
AcDbCircle
 10
132.2389163031
 20
270.8439082776
 30
0.0
 40
0.1999999999999886
100
AcDbArc
 50
101.7738564237
 51
180.0
  0
ARC
  5
1CA
330
1F
100
AcDbEntity
  8
0
  6
Continuous
 62
     7
370
    30
100
AcDbCircle
 10
132.2389163031
 20
268.2439082776
 30
0.0
 40
0.2000000000000171
100
AcDbArc
 50
180.0
 51
258.2261435764
  0
LWPOLYLINE
  5
1CB
330
1F
100
AcDbEntity
  8
0
  6
Continuous
 62
     7
370
    30
100
AcDbPolyline
 90
       10
 70
   128
 43
0.0
 10
153.2389161632
 20
271.5439082776
 10
153.152092009
 20
271.4223544616
 10
153.0679066425
 20
271.3044944218
 10
152.9889162044
 20
271.1939083352
 10
152.9175224065
 20
271.0939567547
 10
152.8558941651
 20
271.0076772167
 10
152.8059033929
 20
270.9376903992
 10
152.7690700108
 20
270.8861234007
 10
152.7465125565
 20
270.8545432281
 10
152.7389162456
 20
270.8439083929
  0
ARC
  5
1CC
330
1F
100
AcDbEntity
  8
0
  6
Continuous
 62
     7
370
    30
100
AcDbCircle
 10
152.5389163031
 20
270.8439082776
 30
0.0
 40
0.2000000000000325
100
AcDbArc
 50
0.0
 51
78.2261435771
  0
LWPOLYLINE
  5
1CD
330
1F
100
AcDbEntity
  8
0
  6
Continuous
 62
     7
370
    30
100
AcDbPolyline
 90
       10
 70
   128
 43
0.0
 10
152.7389162456
 20
268.2439081624
 10
152.7465125565
 20
268.2332733271
 10
152.7690700108
 20
268.2016931545
 10
152.8059033929
 20
268.1501261561
 10
152.8558941651
 20
268.0801393385
 10
152.9175224065
 20
267.9938598005
 10
152.9889162044
 20
267.89390822
 10
153.0679066425
 20
267.7833221335
 10
153.152092009
 20
267.6654620936
 10
153.2389161632
 20
267.5439082776
  0
LINE
  5
1CE
330
1F
100
AcDbEntity
  8
0
  6
Continuous
 62
     7
370
    30
100
AcDbLine
 10
152.7389162456
 20
268.2439081624
 30
0.0
 11
152.7389162456
 21
270.8439083929
 31
0.0
  0
ARC
  5
1CF
330
1F
100
AcDbEntity
  8
0
  6
Continuous
 62
     7
370
    30
100
AcDbCircle
 10
152.5389163031
 20
268.2439082776
 30
0.0
 40
0.2000000000000171
100
AcDbArc
 50
281.7738564229
 51
0.0
  0
CIRCLE
  5
1D0
330
1F
100
AcDbEntity
  8
0
  6
Continuous
 62
     7
370
    30
100
AcDbCircle
 10
142.3889163031
 20
269.5439082776
 30
0.0
 40
10.04888053466648
  0
ARC
  5
1D1
330
1F
100
AcDbEntity
  8
0
  6
Continuous
 62
     7
370
    30
100
AcDbCircle
 10
142.3889163031
 20
269.5439082776
 30
0.0
 40
10.30000000000003
100
AcDbArc
 50
6.9705537036
 51
88.743862928
  0
ARC
  5
1D2
330
1F
100
AcDbEntity
  8
0
  6
Continuous
 62
     7
370
    30
100
AcDbCircle
 10
142.3889163031
 20
269.5439082776
 30
0.0
 40
10.3
100
AcDbArc
 50
1.2278937394
 51
6.9705537036
  0
SPLINE
  5
1D3
330
1F
100
AcDbEntity
  8
0
  6
Continuous
 62
     7
370
    30
100
AcDbSpline
210
0.0
220
0.0
230
1.0
 70
     8
 71
     3
 72
    26
 73
    22
 74
     0
 42
0.000000001
 43
0.00000001
 40
0.0
 40
0.0
 40
0.0
 40
0.0
 40
0.2500000000000029
 40
0.2500000000000029
 40
0.3750000000000043
 40
0.3750000000000043
 40
0.4375000000000052
 40
0.4375000000000052
 40
0.4687500000000053
 40
0.4687500000000053
 40
0.5000000000000054
 40
0.5000000000000054
 40
0.5312500000000056
 40
0.5312500000000056
 40
0.5625000000000057
 40
0.5625000000000057
 40
0.6250000000000048
 40
0.6250000000000048
 40
0.7500000000000032
 40
0.7500000000000032
 40
1.0
 40
1.0
 40
1.0
 40
1.0
 10
152.6865511083186
 20
269.7646285041223
 30
0.0
 10
152.6844656858406
 20
269.7451375194457
 30
0.0
 10
152.6823887772891
 20
269.7236903329051
 30
0.0
 10
152.6793147288846
 20
269.6820269469178
 30
0.0
 10
152.6782961367495
 20
269.666739729947
 30
0.0
 10
152.676798892131
 20
269.6367680829745
 30
0.0
 10
152.6763037633208
 20
269.625757494655
 30
0.0
 10
152.6755862997591
 20
269.6037829048464
 30
0.0
 10
152.6753535395951
 20
269.5956376529412
 30
0.0
 10
152.6749439232429
 20
269.5753730215166
 30
0.0
 10
152.674752936519
 20
269.562433460117
 30
0.0
 10
152.6747079730556
 20
269.5313329681096
 30
0.0
 10
152.6748768251446
 20
269.5169861073496
 30
0.0
 10
152.6752660708918
 20
269.4956710136007
 30
0.0
 10
152.6754958677423
 20
269.4872073807405
 30
0.0
 10
152.6761953079158
 20
269.4647766394064
 30
0.0
 10
152.6766956127917
 20
269.4533334608537
 30
0.0
 10
152.6782080384311
 20
269.4224626727135
 30
0.0
 10
152.6792377235528
 20
269.4069190081159
 30
0.0
 10
152.682344918119
 20
269.3645571178401
 30
0.0
 10
152.6844453944147
 20
269.3428686855427
 30
0.0
 10
152.6865511083186
 20
269.3231880511059
 30
0.0
  0
ARC
  5
1D4
330
1F
100
AcDbEntity
  8
0
  6
Continuous
 62
     7
370
    30
100
AcDbCircle
 10
142.3889163031
 20
269.5439082776
 30
0.0
 40
10.30000000000001
100
AcDbArc
 50
353.0294462964
 51
358.7721062606
  0
ARC
  5
1D5
330
1F
100
AcDbEntity
  8
0
  6
Continuous
 62
     7
370
    30
100
AcDbCircle
 10
142.3889163031
 20
269.5439082776
 30
0.0
 40
10.30000000000001
100
AcDbArc
 50
186.9705537036
 51
353.0294462964
  0
ARC
  5
1D6
330
1F
100
AcDbEntity
  8
0
  6
Continuous
 62
     7
370
    30
100
AcDbCircle
 10
142.3889163031
 20
269.5439082776
 30
0.0
 40
10.29999999999999
100
AcDbArc
 50
181.2278937401
 51
186.9705537036
  0
SPLINE
  5
1D7
330
1F
100
AcDbEntity
  8
0
  6
Continuous
 62
     7
370
    30
100
AcDbSpline
210
0.0
220
0.0
230
1.0
 70
     8
 71
     3
 72
    26
 73
    22
 74
     0
 42
0.000000001
 43
0.00000001
 40
0.0
 40
0.0
 40
0.0
 40
0.0
 40
0.2499999999999976
 40
0.2499999999999976
 40
0.3749999999999964
 40
0.3749999999999964
 40
0.4374999999999962
 40
0.4374999999999962
 40
0.4687499999999966
 40
0.4687499999999966
 40
0.499999999999997
 40
0.499999999999997
 40
0.5312499999999974
 40
0.5312499999999974
 40
0.562499999999998
 40
0.562499999999998
 40
0.6249999999999984
 40
0.6249999999999984
 40
0.7499999999999989
 40
0.7499999999999989
 40
1.0
 40
1.0
 40
1.0
 40
1.0
 10
132.0912814978882
 20
269.764628504246
 30
0.0
 10
132.0933669203691
 20
269.7451375195533
 30
0.0
 10
132.0954438289236
 20
269.723690332995
 30
0.0
 10
132.0985178773326
 20
269.6820269469658
 30
0.0
 10
132.0995364694692
 20
269.6667397299797
 30
0.0
 10
132.1010337140899
 20
269.6367680829657
 30
0.0
 10
132.1015288429013
 20
269.6257574946186
 30
0.0
 10
132.1022463064633
 20
269.6037829047801
 30
0.0
 10
132.1024790666275
 20
269.595637652863
 30
0.0
 10
132.1028886829797
 20
269.5753730213855
 30
0.0
 10
132.1030796697033
 20
269.5624334599519
 30
0.0
 10
132.1031246331637
 20
269.5313329678638
 30
0.0
 10
132.1029557810735
 20
269.5169861071699
 30
0.0
 10
132.1025665353251
 20
269.4956710134504
 30
0.0
 10
132.1023367384743
 20
269.4872073806025
 30
0.0
 10
132.1016372983
 20
269.4647766392878
 30
0.0
 10
132.1011369934234
 20
269.4533334607318
 30
0.0
 10
132.0996245677829
 20
269.4224626726066
 30
0.0
 10
132.0985948826603
 20
269.4069190080075
 30
0.0
 10
132.0954876880915
 20
269.3645571177274
 30
0.0
 10
132.0933872117937
 20
269.3428686854218
 30
0.0
 10
132.091281497888
 20
269.3231880509801
 30
0.0
  0
ARC
  5
1D8
330
1F
100
AcDbEntity
  8
0
  6
Continuous
 62
     7
370
    30
100
AcDbCircle
 10
142.3889163031
 20
269.5439082776
 30
0.0
 40
10.3
100
AcDbArc
 50
173.0294462964
 51
178.7721062599
  0
ARC
  5
1D9
330
1F
100
AcDbEntity
  8
0
  6
Continuous
 62
     7
370
    30
100
AcDbCircle
 10
142.3889163031
 20
269.5439082776
 30
0.0
 40
10.30000000000004
100
AcDbArc
 50
91.256137072
 51
173.0294462964
  0
LWPOLYLINE
  5
1DA
330
1F
100
AcDbEntity
  8
0
  6
Continuous
 62
     7
370
    30
100
AcDbPolyline
 90
        4
 70
   128
 43
0.0
 10
142.1631198306
 20
279.8414330888
 10
142.1631171964
 20
279.8288700352
 10
142.1631066597
 20
279.7786178209
 10
142.1631004035
 20
279.7502908581
  0
ARC
  5
1DB
330
1F
100
AcDbEntity
  8
0
  6
Continuous
 62
     7
370
    30
100
AcDbCircle
 10
142.3889163031
 20
269.5439082776
 30
0.0
 40
10.20888048949337
100
AcDbArc
 50
91.2674612137
 51
88.7325387864
  0
LWPOLYLINE
  5
1DC
330
1F
100
AcDbEntity
  8
0
  6
Continuous
 62
     7
370
    30
100
AcDbPolyline
 90
        4
 70
   128
 43
0.0
 10
142.6147322027
 20
279.7502908581
 10
142.6147295685
 20
279.7628539117
 10
142.6147187025
 20
279.8131064553
 10
142.6147127756
 20
279.8414330888
  0
SPLINE
  5
1DD
330
1F
100
AcDbEntity
  8
0
  6
Continuous
 62
     7
370
    30
100
AcDbSpline
210
0.0
220
0.0
230
1.0
 70
     8
 71
     3
 72
    38
 73
    34
 74
     0
 42
0.000000001
 43
0.00000001
 40
0.001862703442668
 40
0.001862703442668
 40
0.001862703442668
 40
0.001862703442668
 40
0.0018826803252003
 40
0.0018826803252003
 40
0.0018826803252003
 40
0.0019325032339143
 40
0.0019325032339143
 40
0.0019325032339143
 40
0.0019823261426282
 40
0.0019823261426282
 40
0.0019823261426282
 40
0.0020321490513422
 40
0.0020321490513422
 40
0.0020321490513422
 40
0.0020819719600561
 40
0.0020819719600561
 40
0.0020819719600561
 40
0.0021317948687701
 40
0.0021317948687701
 40
0.0021317948687701
 40
0.002181617777484
 40
0.002181617777484
 40
0.002181617777484
 40
0.0022314406861979
 40
0.0022314406861979
 40
0.0022314406861979
 40
0.0022812635949119
 40
0.0022812635949119
 40
0.0022812635949119
 40
0.0023310865036258
 40
0.0023310865036258
 40
0.0023310865036258
 40
0.0023733995784488
 40
0.0023733995784488
 40
0.0023733995784488
 40
0.0023733995784488
 10
142.1631002854586
 20
279.7502909852589
 30
0.0
 10
142.1674962563301
 20
279.7553171598768
 30
0.0
 10
142.1720626699074
 20
279.7601992026224
 30
0.0
 10
142.1767842687464
 20
279.7649208014615
 30
0.0
 10
142.1885276409498
 20
279.7766641736649
 30
0.0
 10
142.2012931741957
 20
279.7874659391541
 30
0.0
 10
142.2148181582499
 20
279.7971038013521
 30
0.0
 10
142.228343142304
 20
279.8067416635502
 30
0.0
 10
142.2427203525624
 20
279.8152817339201
 30
0.0
 10
142.2576539110382
 20
279.8225482607838
 30
0.0
 10
142.2725874695141
 20
279.8298147876476
 30
0.0
 10
142.2881798137997
 20
279.8358576161589
 30
0.0
 10
142.3041100588726
 20
279.8405523870085
 30
0.0
 10
142.3200403039455
 20
279.845247157858
 30
0.0
 10
142.3364177242263
 20
279.8486260750932
 30
0.0
 10
142.3529052781016
 20
279.8506196017725
 30
0.0
 10
142.369392831977
 20
279.8526131284517
 30
0.0
 10
142.3861036167588
 20
279.8532349392844
 30
0.0
 10
142.4026937303083
 20
279.85247223762
 30
0.0
 10
142.4192838438578
 20
279.8517095359555
 30
0.0
 10
142.4358670870008
 20
279.8495570899986
 30
0.0
 10
142.452102182361
 20
279.8460591963382
 30
0.0
 10
142.4683372777211
 20
279.8425613026779
 30
0.0
 10
142.484335590857
 20
279.837693967314
 30
0.0
 10
142.4997678820483
 20
279.8315573583155
 30
0.0
 10
142.5152001732396
 20
279.8254207493171
 30
0.0
 10
142.530172301164
 20
279.8179727722662
 30
0.0
 10
142.5443761446362
 20
279.8093667039402
 30
0.0
 10
142.5585799881083
 20
279.8007606356141
 30
0.0
 10
142.5721129791989
 20
279.7909374421986
 30
0.0
 10
142.5846966136581
 20
279.7800992815978
 30
0.0
 10
142.5953843514999
 20
279.7708940381075
 30
0.0
 10
142.6054461162109
 20
279.7609084545047
 30
0.0
 10
142.6147323207469
 20
279.7502909852581
 30
0.0
  0
LINE
  5
1DE
330
1F
100
AcDbEntity
  8
0
  6
Continuous
 62
     7
370
    30
100
AcDbLine
 10
152.7221045921
 20
268.2939084834
 30
0.0
 11
152.6865510912
 21
268.2939084834
 31
0.0
  0
LINE
  5
1DF
330
1F
100
AcDbEntity
  8
0
  6
Continuous
 62
     7
370
    30
100
AcDbLine
 10
152.6865510912
 20
268.2939084834
 30
0.0
 11
152.6865510912
 21
269.3231878661
 31
0.0
  0
LINE
  5
1E0
330
1F
100
AcDbEntity
  8
0
  6
Continuous
 62
     7
370
    30
100
AcDbLine
 10
152.6865510912
 20
269.7646286891
 30
0.0
 11
152.6865510912
 21
270.7939080718
 31
0.0
  0
LINE
  5
1E1
330
1F
100
AcDbEntity
  8
0
  6
Continuous
 62
     7
370
    30
100
AcDbLine
 10
152.6865510912
 20
270.7939080718
 30
0.0
 11
152.7221045921
 21
270.7939080718
 31
0.0
  0
LINE
  5
1E2
330
1F
100
AcDbEntity
  8
0
  6
Continuous
 62
     7
370
    30
100
AcDbLine
 10
152.7221045921
 20
270.7939080718
 30
0.0
 11
152.7221045921
 21
268.2939084834
 31
0.0
  0
LINE
  5
1E3
330
1F
100
AcDbEntity
  8
0
  6
Continuous
 62
     7
370
    30
100
AcDbLine
 10
132.091281515
 20
270.7939080718
 30
0.0
 11
132.091281515
 21
269.7646286891
 31
0.0
  0
LINE
  5
1E4
330
1F
100
AcDbEntity
  8
0
  6
Continuous
 62
     7
370
    30
100
AcDbLine
 10
132.091281515
 20
269.3231878661
 30
0.0
 11
132.091281515
 21
268.2939084834
 31
0.0
  0
LINE
  5
1E5
330
1F
100
AcDbEntity
  8
0
  6
Continuous
 62
     7
370
    30
100
AcDbLine
 10
132.0557280141
 20
268.2939084834
 30
0.0
 11
132.091281515
 21
268.2939084834
 31
0.0
  0
LINE
  5
1E6
330
1F
100
AcDbEntity
  8
0
  6
Continuous
 62
     7
370
    30
100
AcDbLine
 10
132.0557280141
 20
268.2939084834
 30
0.0
 11
132.0557280141
 21
270.7939080718
 31
0.0
  0
LINE
  5
1E7
330
1F
100
AcDbEntity
  8
0
  6
Continuous
 62
     7
370
    30
100
AcDbLine
 10
132.091281515
 20
270.7939080718
 30
0.0
 11
132.0557280141
 21
270.7939080718
 31
0.0
  0
LINE
  5
1E8
330
1F
100
AcDbEntity
  8
0
  6
Continuous
 62
     7
370
    30
100
AcDbLine
 10
132.091281515
 20
270.7939080718
 30
0.0
 11
132.1650467317
 21
270.7939084011
 31
0.0
  0
LINE
  5
1E9
330
1F
100
AcDbEntity
  8
0
  6
Continuous
 62
     7
370
    30
100
AcDbLine
 10
132.1650467317
 20
268.2939081541
 30
0.0
 11
132.091281515
 21
268.2939084834
 31
0.0
  0
LINE
  5
1EA
330
1F
100
AcDbEntity
  8
0
  6
Continuous
 62
     7
370
    30
100
AcDbLine
 10
152.6127858745
 20
270.7939084011
 30
0.0
 11
152.6865510912
 21
270.7939080718
 31
0.0
  0
LINE
  5
1EB
330
1F
100
AcDbEntity
  8
0
  6
Continuous
 62
     7
370
    30
100
AcDbLine
 10
152.6865510912
 20
268.2939084834
 30
0.0
 11
152.6127858745
 21
268.2939081541
 31
0.0
  0
LINE
  5
1EC
330
1F
100
AcDbEntity
  8
0
  6
Continuous
 62
     7
370
    30
100
AcDbLine
 10
132.0389166899
 20
268.2939084834
 30
0.0
 11
132.0557280141
 21
268.2939084834
 31
0.0
  0
LINE
  5
1ED
330
1F
100
AcDbEntity
  8
0
  6
Continuous
 62
     7
370
    30
100
AcDbLine
 10
132.0389166899
 20
270.7939080718
 30
0.0
 11
132.0557280141
 21
270.7939080718
 31
0.0
  0
LINE
  5
1EE
330
1F
100
AcDbEntity
  8
0
  6
Continuous
 62
     7
370
    30
100
AcDbLine
 10
152.7389159163
 20
268.2939084834
 30
0.0
 11
152.7221045921
 21
268.2939084834
 31
0.0
  0
LINE
  5
1EF
330
1F
100
AcDbEntity
  8
0
  6
Continuous
 62
     7
370
    30
100
AcDbLine
 10
152.7389159163
 20
270.7939080718
 30
0.0
 11
152.7221045921
 21
270.7939080718
 31
0.0
  0
LINE
  5
1F0
330
1F
100
AcDbEntity
  8
0
  6
Continuous
 62
     7
370
    30
100
AcDbLine
 10
131.538916443
 20
271.5439082776
 30
0.0
 11
132.2849564914
 21
271.5439082776
 31
0.0
  0
LINE
  5
1F1
330
1F
100
AcDbEntity
  8
0
  6
Continuous
 62
     7
370
    30
100
AcDbLine
 10
132.2849564914
 20
267.5439082776
 30
0.0
 11
131.538916443
 21
267.5439082776
 31
0.0
  0
LINE
  5
1F2
330
1F
100
AcDbEntity
  8
0
  6
Continuous
 62
     7
370
    30
100
AcDbLine
 10
153.2389161632
 20
267.5439082776
 30
0.0
 11
152.4928761148
 21
267.5439082776
 31
0.0
  0
LINE
  5
1F3
330
1F
100
AcDbEntity
  8
0
  6
Continuous
 62
     7
370
    30
100
AcDbLine
 10
152.4928761148
 20
271.5439082776
 30
0.0
 11
153.2389161632
 21
271.5439082776
 31
0.0
  0
LWPOLYLINE
  5
1F4
330
1F
100
AcDbEntity
  8
0
  6
Continuous
 62
     7
370
    30
100
AcDbPolyline
 90
        8
 70
   128
 43
0.0
 10
131.538916443
 20
271.5439082776
 10
131.6754798054
 20
271.4463630187
 10
131.8067948974
 20
271.3525665245
 10
131.9278152923
 20
271.2661230089
 10
132.0338910075
 20
271.1903548291
 10
132.1209449938
 20
271.1281734103
 10
132.1856321745
 20
271.0819682812
 10
132.2025794881
 20
271.0698632454
  0
LWPOLYLINE
  5
1F5
330
1F
100
AcDbEntity
  8
0
  6
Continuous
 62
     7
370
    30
100
AcDbPolyline
 90
        8
 70
   128
 43
0.0
 10
132.2025794881
 20
268.0179533099
 10
132.1856321745
 20
268.005848274
 10
132.1209449938
 20
267.9596431449
 10
132.0338910075
 20
267.8974617261
 10
131.9278152923
 20
267.8216935463
 10
131.8067948974
 20
267.7352500308
 10
131.6754798054
 20
267.6414535365
 10
131.538916443
 20
267.5439082776
  0
LWPOLYLINE
  5
1F6
330
1F
100
AcDbEntity
  8
0
  6
Continuous
 62
     7
370
    30
100
AcDbPolyline
 90
        9
 70
   128
 43
0.0
 10
152.5752531181
 20
271.0698632454
 10
152.5811316156
 20
271.0740617959
 10
152.6326982848
 20
271.1108955073
 10
152.7026851024
 20
271.1608862794
 10
152.7889649696
 20
271.2225141916
 10
152.8889162209
 20
271.2939083188
 10
152.9995026366
 20
271.3728984276
 10
153.1173623472
 20
271.4570841233
 10
153.2389161632
 20
271.5439082776
  0
LWPOLYLINE
  5
1F7
330
1F
100
AcDbEntity
  8
0
  6
Continuous
 62
     7
370
    30
100
AcDbPolyline
 90
        8
 70
   128
 43
0.0
 10
153.2389161632
 20
267.5439082776
 10
153.1023528008
 20
267.6414535365
 10
152.9710377088
 20
267.7352500308
 10
152.8500173139
 20
267.8216935463
 10
152.7439415987
 20
267.8974617261
 10
152.6568876124
 20
267.9596431449
 10
152.5922004317
 20
268.005848274
 10
152.5752531181
 20
268.0179533099
  0
LINE
  5
1F8
330
1F
100
AcDbEntity
  8
0
  6
CENTERX2
 62
     7
370
     0
100
AcDbLine
 10
129.0961470941
 20
269.5439082776
 30
0.0
 11
155.293534418
 21
269.5439082776
 31
0.0
  0
LINE
  5
1F9
330
1F
100
AcDbEntity
  8
0
  6
CENTERX2
 62
     7
370
     0
100
AcDbLine
 10
142.3889163031
 20
257.1378496599
 30
0.0
 11
142.3889163031
 21
282.1290263444
 31
0.0
  0
ARC
  5
1FA
330
1F
100
AcDbEntity
  8
0
  6
Continuous
 62
     7
370
    30
100
AcDbCircle
 10
146.9329128593
 20
164.1550251376
 30
0.0
 40
0.2
100
AcDbArc
 50
105.0
 51
192.5451104446
  0
ARC
  5
1FB
330
1F
100
AcDbEntity
  8
0
  6
Continuous
 62
     7
370
    30
100
AcDbCircle
 10
137.8449197469
 20
162.1340151945
 30
0.0
 40
0.2000000000000186
100
AcDbArc
 50
285.0
 51
12.5451104446
  0
ARC
  5
1FC
330
1F
100
AcDbEntity
  8
0
  6
Continuous
 62
     7
370
    30
100
AcDbCircle
 10
146.9329128593
 20
162.1340151945
 30
0.0
 40
0.2000000000000186
100
AcDbArc
 50
167.4342153281
 51
255.0
  0
ARC
  5
1FD
330
1F
100
AcDbEntity
  8
0
  6
Continuous
 62
     7
370
    30
100
AcDbCircle
 10
137.8449197469
 20
164.1550251376
 30
0.0
 40
0.2000000000000198
100
AcDbArc
 50
347.4342153281
 51
75.0
  0
ARC
  5
1FE
330
1F
100
AcDbEntity
  8
0
  6
Continuous
 62
     7
370
    30
100
AcDbCircle
 10
142.3889163031
 20
163.144520166
 30
0.0
 40
4.454999999999994
100
AcDbArc
 50
347.4646459271
 51
12.539958685
  0
ARC
  5
1FF
330
1F
100
AcDbEntity
  8
0
  6
Continuous
 62
     7
370
    30
100
AcDbCircle
 10
142.3889163031
 20
163.144520166
 30
0.0
 40
4.455000000000004
100
AcDbArc
 50
167.4656374842
 51
192.5362173208
  0
LINE
  5
200
330
1F
100
AcDbEntity
  8
0
  6
Continuous
 62
     7
370
    30
100
AcDbLine
 10
143.444953975
 20
161.4345200977
 30
0.0
 11
143.4399204312
 21
161.4345201388
 31
0.0
  0
LINE
  5
201
330
1F
100
AcDbEntity
  8
0
  6
Continuous
 62
     7
370
    30
100
AcDbLine
 10
143.4399204312
 20
164.8545201932
 30
0.0
 11
143.444953975
 21
164.8545202344
 31
0.0
  0
LINE
  5
202
330
1F
100
AcDbEntity
  8
0
  6
Continuous
 62
     7
370
    30
100
AcDbLine
 10
144.0989163714
 20
164.2005578379
 30
0.0
 11
144.0989163303
 21
164.1955242941
 31
0.0
  0
LINE
  5
203
330
1F
100
AcDbEntity
  8
0
  6
Continuous
 62
     7
370
    30
100
AcDbLine
 10
144.0989163303
 20
162.0935160379
 30
0.0
 11
144.0989163714
 21
162.0884824941
 31
0.0
  0
LINE
  5
204
330
1F
100
AcDbEntity
  8
0
  6
Continuous
 62
     7
370
    30
100
AcDbLine
 10
141.9889162043
 20
168.2445201496
 30
0.0
 11
141.988916369
 21
168.1769035983
 31
0.0
  0
ARC
  5
205
330
1F
100
AcDbEntity
  8
0
  6
Continuous
 62
     7
370
    30
100
AcDbCircle
 10
142.2389163031
 20
168.244520166
 30
0.0
 40
0.25
100
AcDbArc
 50
90.0
 51
180.0
  0
LINE
  5
206
330
1F
100
AcDbEntity
  8
0
  6
Continuous
 62
     7
370
    30
100
AcDbLine
 10
142.5389162784
 20
168.4945202731
 30
0.0
 11
142.2389163278
 21
168.4945202731
 31
0.0
  0
ARC
  5
207
330
1F
100
AcDbEntity
  8
0
  6
Continuous
 62
     7
370
    30
100
AcDbCircle
 10
142.5389163031
 20
168.244520166
 30
0.0
 40
0.25
100
AcDbArc
 50
360.0
 51
90.0
  0
LINE
  5
208
330
1F
100
AcDbEntity
  8
0
  6
Continuous
 62
     7
370
    30
100
AcDbLine
 10
142.7889162373
 20
168.1769035983
 30
0.0
 11
142.7889164019
 21
168.2445201496
 31
0.0
  0
CIRCLE
  5
209
330
1F
100
AcDbEntity
  8
0
  6
Continuous
 62
     7
370
    30
100
AcDbCircle
 10
144.1849675273
 20
161.3484689418
 30
0.0
 40
0.2249999999999857
  0
CIRCLE
  5
20A
330
1F
100
AcDbEntity
  8
0
  6
Continuous
 62
     7
370
    30
100
AcDbCircle
 10
144.1849675273
 20
161.3484689418
 30
0.0
 40
0.7450000000000069
  0
CIRCLE
  5
20B
330
1F
100
AcDbEntity
  8
0
  6
Continuous
 62
     7
370
    30
100
AcDbCircle
 10
144.1849675273
 20
164.9405713902
 30
0.0
 40
0.2250000000000058
  0
CIRCLE
  5
20C
330
1F
100
AcDbEntity
  8
0
  6
Continuous
 62
     7
370
    30
100
AcDbCircle
 10
144.1849675273
 20
164.9405713902
 30
0.0
 40
0.7450000000000069
  0
CIRCLE
  5
20D
330
1F
100
AcDbEntity
  8
0
  6
Continuous
 62
     7
370
    30
100
AcDbCircle
 10
140.5928650789
 20
161.3484689418
 30
0.0
 40
0.2249999999999857
  0
ARC
  5
20E
330
1F
100
AcDbEntity
  8
0
  6
Continuous
 62
     7
370
    30
100
AcDbCircle
 10
142.4889163031
 20
168.1769036449
 30
0.0
 40
0.3000000000000398
100
AcDbArc
 50
0.0
 51
90.0
  0
LINE
  5
20F
330
1F
100
AcDbEntity
  8
0
  6
Continuous
 62
     7
370
    30
100
AcDbLine
 10
142.7889164019
 20
167.9437388359
 30
0.0
 11
142.7889162373
 21
168.1769035983
 31
0.0
  0
ARC
  5
210
330
1F
100
AcDbEntity
  8
0
  6
Continuous
 62
     7
370
    30
100
AcDbCircle
 10
143.0889163031
 20
167.9437388524
 30
0.0
 40
0.2999999999999829
100
AcDbArc
 50
180.0
 51
261.7015230635
  0
ARC
  5
211
330
1F
100
AcDbEntity
  8
0
  6
Continuous
 62
     7
370
    30
100
AcDbCircle
 10
141.6889163031
 20
167.9437388524
 30
0.0
 40
0.3000000000000114
100
AcDbArc
 50
278.2984769365
 51
0.0
  0
LINE
  5
212
330
1F
100
AcDbEntity
  8
0
  6
Continuous
 62
     7
370
    30
100
AcDbLine
 10
141.988916369
 20
168.1769035983
 30
0.0
 11
141.9889162043
 21
167.9437388359
 31
0.0
  0
ARC
  5
213
330
1F
100
AcDbEntity
  8
0
  6
Continuous
 62
     7
370
    30
100
AcDbCircle
 10
142.2889163031
 20
168.1769036449
 30
0.0
 40
0.3000000000000114
100
AcDbArc
 50
90.0
 51
180.0
  0
LINE
  5
214
330
1F
100
AcDbEntity
  8
0
  6
Continuous
 62
     7
370
    30
100
AcDbLine
 10
142.4889162866
 20
168.4769035489
 30
0.0
 11
142.2889163196
 21
168.4769035489
 31
0.0
  0
CIRCLE
  5
215
330
1F
100
AcDbEntity
  8
0
  6
Continuous
 62
     7
370
    30
100
AcDbCircle
 10
140.5928650789
 20
161.3484689418
 30
0.0
 40
0.7500000000000061
  0
CIRCLE
  5
216
330
1F
100
AcDbEntity
  8
0
  6
Continuous
 62
     7
370
    30
100
AcDbCircle
 10
144.1849675273
 20
161.3484689418
 30
0.0
 40
0.7500000000000061
  0
CIRCLE
  5
217
330
1F
100
AcDbEntity
  8
0
  6
Continuous
 62
     7
370
    30
100
AcDbCircle
 10
144.1849675273
 20
164.9405713902
 30
0.0
 40
0.7499999999999659
  0
ARC
  5
218
330
1F
100
AcDbEntity
  8
0
  6
Continuous
 62
     7
370
    30
100
AcDbCircle
 10
142.3889163031
 20
163.144520166
 30
0.0
 40
4.550000000000024
100
AcDbArc
 50
14.6568599166
 51
81.7015230635
  0
ARC
  5
219
330
1F
100
AcDbEntity
  8
0
  6
Continuous
 62
     7
370
    30
100
AcDbCircle
 10
142.3889163031
 20
163.144520166
 30
0.0
 40
4.549999999999999
100
AcDbArc
 50
194.6568599166
 51
345.3431400834
  0
ARC
  5
21A
330
1F
100
AcDbEntity
  8
0
  6
Continuous
 62
     7
370
    30
100
AcDbCircle
 10
142.3889163031
 20
163.144520166
 30
0.0
 40
4.550000000000019
100
AcDbArc
 50
98.2984769365
 51
165.3431400834
  0
LINE
  5
21B
330
1F
100
AcDbEntity
  8
0
  6
Continuous
 62
     7
370
    30
100
AcDbLine
 10
143.4415233903
 20
165.039520101
 30
0.0
 11
143.4465678
 21
165.0395201422
 31
0.0
  0
LINE
  5
21C
330
1F
100
AcDbEntity
  8
0
  6
Continuous
 62
     7
370
    30
100
AcDbLine
 10
143.6639163402
 20
165.4730473592
 30
0.0
 11
143.663916299
 21
165.4800207282
 31
0.0
  0
LINE
  5
21D
330
1F
100
AcDbEntity
  8
0
  6
Continuous
 62
     7
370
    30
100
AcDbLine
 10
143.663916299
 20
160.8090196038
 30
0.0
 11
143.6639163402
 21
160.8159929728
 31
0.0
  0
LINE
  5
21E
330
1F
100
AcDbEntity
  8
0
  6
Continuous
 62
     7
370
    30
100
AcDbLine
 10
143.445296521
 20
161.2595202294
 30
0.0
 11
143.440260837
 21
161.2595201059
 31
0.0
  0
LWPOLYLINE
  5
21F
330
1F
100
AcDbEntity
  8
0
  6
Continuous
 62
     7
370
    30
100
AcDbPolyline
 90
        3
 70
   128
 43
0.0
 10
143.6033493021
 20
161.8140279995
 10
143.6031420252
 20
161.8156233235
 10
143.6022711721
 20
161.8206606025
  0
LINE
  5
220
330
1F
100
AcDbEntity
  8
0
  6
Continuous
 62
     7
370
    30
100
AcDbLine
 10
143.9039163006
 20
160.6585158832
 30
0.0
 11
143.9039162183
 21
160.6531200164
 31
0.0
  0
LINE
  5
221
330
1F
100
AcDbEntity
  8
0
  6
Continuous
 62
     7
370
    30
100
AcDbLine
 10
143.7431509542
 20
161.9545201355
 30
0.0
 11
143.7516929247
 21
161.9545201253
 31
0.0
  0
LINE
  5
222
330
1F
100
AcDbEntity
  8
0
  6
Continuous
 62
     7
370
    30
100
AcDbLine
 10
143.9039162183
 20
165.6359203156
 30
0.0
 11
143.9039163006
 21
165.6305244489
 31
0.0
  0
LINE
  5
223
330
1F
100
AcDbEntity
  8
0
  6
Continuous
 62
     7
370
    30
100
AcDbLine
 10
143.7380358692
 20
164.3445202
 30
0.0
 11
143.7297500828
 21
164.3445201794
 31
0.0
  0
LINE
  5
224
330
1F
100
AcDbEntity
  8
0
  6
Continuous
 62
     7
370
    30
100
AcDbLine
 10
143.6019276742
 20
164.4767938549
 30
0.0
 11
143.6003187214
 21
164.4707994175
 31
0.0
  0
LINE
  5
225
330
1F
100
AcDbEntity
  8
0
  6
Continuous
 62
     7
370
    30
100
AcDbLine
 10
142.933916378
 20
168.6325253541
 30
0.0
 11
142.933916378
 21
167.7624714966
 31
0.0
  0
ARC
  5
226
330
1F
100
AcDbEntity
  8
0
  6
Continuous
 62
     7
370
    30
100
AcDbCircle
 10
142.3889163031
 20
163.144520166
 30
0.0
 40
5.515
100
AcDbArc
 50
95.6713052782
 51
84.3286947218
  0
LINE
  5
227
330
1F
100
AcDbEntity
  8
0
  6
Continuous
 62
     7
370
    30
100
AcDbLine
 10
141.8439162282
 20
168.6325253541
 30
0.0
 11
141.8439162282
 21
167.7624714966
 31
0.0
  0
ARC
  5
228
330
1F
100
AcDbEntity
  8
0
  6
Continuous
 62
     7
370
    30
100
AcDbCircle
 10
142.3889163031
 20
163.144520166
 30
0.0
 40
4.649999999999999
100
AcDbArc
 50
96.7307821522
 51
83.2692178478
  0
LINE
  5
229
330
1F
100
AcDbEntity
  8
0
  6
Continuous
 62
     7
370
    30
100
AcDbLine
 10
142.838916229
 20
168.5116183934
 30
0.0
 11
142.838916229
 21
167.7779076153
 31
0.0
  0
ARC
  5
22A
330
1F
100
AcDbEntity
  8
0
  6
Continuous
 62
     7
370
    30
100
AcDbCircle
 10
142.3889163031
 20
163.144520166
 30
0.0
 40
4.649999999996727
100
AcDbArc
 50
83.2692178478
 51
84.399575686
  0
LINE
  5
22B
330
1F
100
AcDbEntity
  8
0
  6
Continuous
 62
     7
370
    30
100
AcDbLine
 10
142.838916229
 20
168.5116183934
 30
0.0
 11
142.933916378
 21
168.6325253541
 31
0.0
  0
LINE
  5
22C
330
1F
100
AcDbEntity
  8
0
  6
Continuous
 62
     7
370
    30
100
AcDbLine
 10
141.9389163772
 20
168.5116183934
 30
0.0
 11
141.9389163772
 21
167.7779076153
 31
0.0
  0
ARC
  5
22D
330
1F
100
AcDbEntity
  8
0
  6
Continuous
 62
     7
370
    30
100
AcDbCircle
 10
142.3889163031
 20
163.144520166
 30
0.0
 40
4.649999999997306
100
AcDbArc
 50
95.6004243141
 51
96.7307821523
  0
LINE
  5
22E
330
1F
100
AcDbEntity
  8
0
  6
Continuous
 62
     7
370
    30
100
AcDbLine
 10
141.8439162282
 20
168.6325253541
 30
0.0
 11
141.9389163772
 21
168.5116183934
 31
0.0
  0
ARC
  5
22F
330
1F
100
AcDbEntity
  8
0
  6
Continuous
 62
     7
370
    30
100
AcDbCircle
 10
142.3889163031
 20
163.144520166
 30
0.0
 40
5.385930232558135
100
AcDbArc
 50
85.2072915987
 51
94.7927084013
  0
ARC
  5
230
330
1F
100
AcDbEntity
  8
0
  6
Continuous
 62
     7
370
    30
100
AcDbCircle
 10
152.5389163031
 20
164.444520166
 30
0.0
 40
0.2000000000000171
100
AcDbArc
 50
0.0
 51
90.0
  0
LINE
  5
231
330
1F
100
AcDbEntity
  8
0
  6
Continuous
 62
     7
370
    30
100
AcDbLine
 10
151.8389163937
 20
164.6445202483
 30
0.0
 11
152.5389162785
 21
164.6445202483
 31
0.0
  0
LINE
  5
232
330
1F
100
AcDbEntity
  8
0
  6
Continuous
 62
     7
370
    30
100
AcDbLine
 10
151.8389163937
 20
161.6445200837
 30
0.0
 11
151.8389163937
 21
164.6445202483
 31
0.0
  0
LINE
  5
233
330
1F
100
AcDbEntity
  8
0
  6
Continuous
 62
     7
370
    30
100
AcDbLine
 10
152.5389162785
 20
161.6445200837
 30
0.0
 11
151.8389163937
 21
161.6445200837
 31
0.0
  0
ARC
  5
234
330
1F
100
AcDbEntity
  8
0
  6
Continuous
 62
     7
370
    30
100
AcDbCircle
 10
152.5389163031
 20
161.844520166
 30
0.0
 40
0.2000000000000171
100
AcDbArc
 50
270.0
 51
0.0
  0
LINE
  5
235
330
1F
100
AcDbEntity
  8
0
  6
Continuous
 62
     7
370
    30
100
AcDbLine
 10
152.7389162456
 20
160.6445202483
 30
0.0
 11
152.7389162456
 21
161.8445200508
 31
0.0
  0
LINE
  5
236
330
1F
100
AcDbEntity
  8
0
  6
Continuous
 62
     7
370
    30
100
AcDbLine
 10
152.7389162456
 20
160.6445202483
 30
0.0
 11
151.4503734877
 21
160.644519919
 31
0.0
  0
ARC
  5
237
330
1F
100
AcDbEntity
  8
0
  6
Continuous
 62
     7
370
    30
100
AcDbCircle
 10
142.3889163031
 20
163.144520166
 30
0.0
 40
9.400000000000007
100
AcDbArc
 50
195.423852199
 51
344.576147801
  0
LINE
  5
238
330
1F
100
AcDbEntity
  8
0
  6
Continuous
 62
     7
370
    30
100
AcDbLine
 10
132.0389163606
 20
160.6445202483
 30
0.0
 11
133.3274591185
 21
160.644519919
 31
0.0
  0
LINE
  5
239
330
1F
100
AcDbEntity
  8
0
  6
Continuous
 62
     7
370
    30
100
AcDbLine
 10
132.0389163606
 20
160.6445202483
 30
0.0
 11
132.0389163606
 21
161.8445200508
 31
0.0
  0
ARC
  5
23A
330
1F
100
AcDbEntity
  8
0
  6
Continuous
 62
     7
370
    30
100
AcDbCircle
 10
132.2389163031
 20
161.844520166
 30
0.0
 40
0.2000000000000171
100
AcDbArc
 50
180.0
 51
270.0
  0
LINE
  5
23B
330
1F
100
AcDbEntity
  8
0
  6
Continuous
 62
     7
370
    30
100
AcDbLine
 10
132.2389163277
 20
161.6445200837
 30
0.0
 11
132.9389162125
 21
161.6445200837
 31
0.0
  0
LINE
  5
23C
330
1F
100
AcDbEntity
  8
0
  6
Continuous
 62
     7
370
    30
100
AcDbLine
 10
132.9389162125
 20
161.6445200837
 30
0.0
 11
132.9389162125
 21
164.6445202483
 31
0.0
  0
LINE
  5
23D
330
1F
100
AcDbEntity
  8
0
  6
Continuous
 62
     7
370
    30
100
AcDbLine
 10
132.9389162125
 20
164.6445202483
 30
0.0
 11
132.2389163277
 21
164.6445202483
 31
0.0
  0
ARC
  5
23E
330
1F
100
AcDbEntity
  8
0
  6
Continuous
 62
     7
370
    30
100
AcDbCircle
 10
132.2389163031
 20
164.444520166
 30
0.0
 40
0.2000000000000171
100
AcDbArc
 50
90.0
 51
180.0
  0
LINE
  5
23F
330
1F
100
AcDbEntity
  8
0
  6
Continuous
 62
     7
370
    30
100
AcDbLine
 10
132.0389163606
 20
164.4445202813
 30
0.0
 11
132.0389163606
 21
165.6445200837
 31
0.0
  0
LINE
  5
240
330
1F
100
AcDbEntity
  8
0
  6
Continuous
 62
     7
370
    30
100
AcDbLine
 10
133.3274591185
 20
165.644520413
 30
0.0
 11
132.0389163606
 21
165.6445200837
 31
0.0
  0
ARC
  5
241
330
1F
100
AcDbEntity
  8
0
  6
Continuous
 62
     7
370
    30
100
AcDbCircle
 10
142.3889163031
 20
163.144520166
 30
0.0
 40
9.40000000000001
100
AcDbArc
 50
15.423852199
 51
164.576147801
  0
LINE
  5
242
330
1F
100
AcDbEntity
  8
0
  6
Continuous
 62
     7
370
    30
100
AcDbLine
 10
151.4503734877
 20
165.644520413
 30
0.0
 11
152.7389162456
 21
165.6445200837
 31
0.0
  0
LINE
  5
243
330
1F
100
AcDbEntity
  8
0
  6
Continuous
 62
     7
370
    30
100
AcDbLine
 10
152.7389162456
 20
164.4445202813
 30
0.0
 11
152.7389162456
 21
165.6445200837
 31
0.0
  0
LINE
  5
244
330
1F
100
AcDbEntity
  8
0
  6
Continuous
 62
     7
370
    30
100
AcDbLine
 10
152.7389162456
 20
164.4445202813
 30
0.0
 11
152.7389159163
 21
164.3945199602
 31
0.0
  0
LINE
  5
245
330
1F
100
AcDbEntity
  8
0
  6
Continuous
 62
     7
370
    30
100
AcDbLine
 10
152.7389159163
 20
161.8945203718
 30
0.0
 11
152.7389162456
 21
161.8445200508
 31
0.0
  0
LINE
  5
246
330
1F
100
AcDbEntity
  8
0
  6
Continuous
 62
     7
370
    30
100
AcDbLine
 10
152.8889165501
 20
165.644520413
 30
0.0
 11
152.7389162456
 21
165.6445200837
 31
0.0
  0
ARC
  5
247
330
1F
100
AcDbEntity
  8
0
  6
Continuous
 62
     7
370
    30
100
AcDbCircle
 10
152.8889163031
 20
165.144520166
 30
0.0
 40
0.5
100
AcDbArc
 50
0.0
 51
90.0
  0
LINE
  5
248
330
1F
100
AcDbEntity
  8
0
  6
Continuous
 62
     7
370
    30
100
AcDbLine
 10
153.3889164678
 20
161.1445198367
 30
0.0
 11
153.3889164678
 21
165.1445204953
 31
0.0
  0
ARC
  5
249
330
1F
100
AcDbEntity
  8
0
  6
Continuous
 62
     7
370
    30
100
AcDbCircle
 10
152.8889163031
 20
161.144520166
 30
0.0
 40
0.5
100
AcDbArc
 50
270.0
 51
0.0
  0
LINE
  5
24A
330
1F
100
AcDbEntity
  8
0
  6
Continuous
 62
     7
370
    30
100
AcDbLine
 10
152.7389162456
 20
160.6445202483
 30
0.0
 11
152.8889165501
 21
160.644519919
 31
0.0
  0
ARC
  5
24B
330
1F
100
AcDbEntity
  8
0
  6
Continuous
 62
     7
370
    30
100
AcDbCircle
 10
131.8889163031
 20
165.144520166
 30
0.0
 40
0.5
100
AcDbArc
 50
90.0
 51
180.0
  0
LINE
  5
24C
330
1F
100
AcDbEntity
  8
0
  6
Continuous
 62
     7
370
    30
100
AcDbLine
 10
132.0389163606
 20
164.4445202813
 30
0.0
 11
132.0389166899
 21
164.3945199602
 31
0.0
  0
LINE
  5
24D
330
1F
100
AcDbEntity
  8
0
  6
Continuous
 62
     7
370
    30
100
AcDbLine
 10
132.0389166899
 20
161.8945203718
 30
0.0
 11
132.0389163606
 21
161.8445200508
 31
0.0
  0
LINE
  5
24E
330
1F
100
AcDbEntity
  8
0
  6
Continuous
 62
     7
370
    30
100
AcDbLine
 10
132.0389163606
 20
160.6445202483
 30
0.0
 11
131.8889160561
 21
160.644519919
 31
0.0
  0
ARC
  5
24F
330
1F
100
AcDbEntity
  8
0
  6
Continuous
 62
     7
370
    30
100
AcDbCircle
 10
131.8889163031
 20
161.144520166
 30
0.0
 40
0.5
100
AcDbArc
 50
180.0
 51
270.0
  0
LINE
  5
250
330
1F
100
AcDbEntity
  8
0
  6
Continuous
 62
     7
370
    30
100
AcDbLine
 10
131.3889161384
 20
161.1445198367
 30
0.0
 11
131.3889161384
 21
165.1445204953
 31
0.0
  0
LINE
  5
251
330
1F
100
AcDbEntity
  8
0
  6
Continuous
 62
     7
370
    30
100
AcDbLine
 10
131.8889160561
 20
165.644520413
 30
0.0
 11
132.0389163606
 21
165.6445200837
 31
0.0
  0
ARC
  5
252
330
1F
100
AcDbEntity
  8
0
  6
Continuous
 62
     7
370
    30
100
AcDbCircle
 10
132.2419955879
 20
165.844520166
 30
0.0
 40
0.200000000000019
100
AcDbArc
 50
270.0
 51
345.0994033122
  0
ARC
  5
253
330
1F
100
AcDbEntity
  8
0
  6
Continuous
 62
     7
370
    30
100
AcDbCircle
 10
142.3889163031
 20
163.144520166
 30
0.0
 40
10.3
100
AcDbArc
 50
14.9005966878
 51
165.0994033122
  0
ARC
  5
254
330
1F
100
AcDbEntity
  8
0
  6
Continuous
 62
     7
370
    30
100
AcDbCircle
 10
152.5358370183
 20
165.844520166
 30
0.0
 40
0.1999999999999886
100
AcDbArc
 50
194.9005966878
 51
270.0
  0
ARC
  5
255
330
1F
100
AcDbEntity
  8
0
  6
Continuous
 62
     7
370
    30
100
AcDbCircle
 10
132.2419955879
 20
160.444520166
 30
0.0
 40
0.2000000000000117
100
AcDbArc
 50
14.9005966878
 51
90.0
  0
ARC
  5
256
330
1F
100
AcDbEntity
  8
0
  6
Continuous
 62
     7
370
    30
100
AcDbCircle
 10
152.5358370183
 20
160.444520166
 30
0.0
 40
0.2000000000000171
100
AcDbArc
 50
90.0
 51
165.0994033122
  0
ARC
  5
257
330
1F
100
AcDbEntity
  8
0
  6
Continuous
 62
     7
370
    30
100
AcDbCircle
 10
142.3889163031
 20
163.144520166
 30
0.0
 40
10.30000000000001
100
AcDbArc
 50
271.256137072
 51
345.0994033122
  0
ARC
  5
258
330
1F
100
AcDbEntity
  8
0
  6
Continuous
 62
     7
370
    30
100
AcDbCircle
 10
142.3889163031
 20
153.044520166
 30
0.0
 40
0.3000000000000222
100
AcDbArc
 50
221.1791674876
 51
318.8208325124
  0
ARC
  5
259
330
1F
100
AcDbEntity
  8
0
  6
Continuous
 62
     7
370
    30
100
AcDbCircle
 10
142.3889163031
 20
163.144520166
 30
0.0
 40
10.30000000000001
100
AcDbArc
 50
194.9005966878
 51
268.743862928
  0
ARC
  5
25A
330
1F
100
AcDbEntity
  8
0
  6
Continuous
 62
     7
370
    30
100
AcDbCircle
 10
142.3889163031
 20
163.144520166
 30
0.0
 40
9.54999999999932
100
AcDbArc
 50
352.4789719478
 51
7.5210280522
  0
LINE
  5
25B
330
1F
100
AcDbEntity
  8
0
  6
Continuous
 62
     7
370
    30
100
AcDbLine
 10
152.4389159657
 20
164.3945199602
 30
0.0
 11
151.8567566937
 21
164.3945199602
 31
0.0
  0
LINE
  5
25C
330
1F
100
AcDbEntity
  8
0
  6
Continuous
 62
     7
370
    30
100
AcDbLine
 10
152.4389159657
 20
161.8945203718
 30
0.0
 11
152.4389159657
 21
164.3945199602
 31
0.0
  0
LINE
  5
25D
330
1F
100
AcDbEntity
  8
0
  6
Continuous
 62
     7
370
    30
100
AcDbLine
 10
151.8567566937
 20
161.8945203718
 30
0.0
 11
152.4389159657
 21
161.8945203718
 31
0.0
  0
LINE
  5
25E
330
1F
100
AcDbEntity
  8
0
  6
Continuous
 62
     7
370
    30
100
AcDbLine
 10
153.0775721002
 20
164.3945202895
 30
0.0
 11
153.0775721002
 21
161.8945200425
 31
0.0
  0
LINE
  5
25F
330
1F
100
AcDbEntity
  8
0
  6
Continuous
 62
     7
370
    30
100
AcDbLine
 10
153.0775721002
 20
161.8945200425
 30
0.0
 11
152.4389159657
 21
161.8945203718
 31
0.0
  0
LINE
  5
260
330
1F
100
AcDbEntity
  8
0
  6
Continuous
 62
     7
370
    30
100
AcDbLine
 10
152.4389159657
 20
164.3945199602
 30
0.0
 11
153.0775721002
 21
164.3945202895
 31
0.0
  0
LINE
  5
261
330
1F
100
AcDbEntity
  8
0
  6
Continuous
 62
     7
370
    30
100
AcDbLine
 10
132.3389166405
 20
161.8945203718
 30
0.0
 11
132.9210759125
 21
161.8945203718
 31
0.0
  0
LINE
  5
262
330
1F
100
AcDbEntity
  8
0
  6
Continuous
 62
     7
370
    30
100
AcDbLine
 10
132.3389166405
 20
164.3945199602
 30
0.0
 11
132.3389166405
 21
161.8945203718
 31
0.0
  0
LINE
  5
263
330
1F
100
AcDbEntity
  8
0
  6
Continuous
 62
     7
370
    30
100
AcDbLine
 10
132.9210759125
 20
164.3945199602
 30
0.0
 11
132.3389166405
 21
164.3945199602
 31
0.0
  0
ARC
  5
264
330
1F
100
AcDbEntity
  8
0
  6
Continuous
 62
     7
370
    30
100
AcDbCircle
 10
142.3889163031
 20
163.144520166
 30
0.0
 40
9.549999999999338
100
AcDbArc
 50
172.4789719478
 51
187.5210280522
  0
LINE
  5
265
330
1F
100
AcDbEntity
  8
0
  6
Continuous
 62
     7
370
    30
100
AcDbLine
 10
131.7000678817
 20
161.8945203718
 30
0.0
 11
131.7000678817
 21
164.3945199602
 31
0.0
  0
LINE
  5
266
330
1F
100
AcDbEntity
  8
0
  6
Continuous
 62
     7
370
    30
100
AcDbLine
 10
132.3389166405
 20
161.8945203718
 30
0.0
 11
131.7000678817
 21
161.8945203718
 31
0.0
  0
LINE
  5
267
330
1F
100
AcDbEntity
  8
0
  6
Continuous
 62
     7
370
    30
100
AcDbLine
 10
131.7000678817
 20
164.3945199602
 30
0.0
 11
132.3389166405
 21
164.3945199602
 31
0.0
  0
LINE
  5
268
330
1F
100
AcDbEntity
  8
0
  6
Continuous
 62
     7
370
    30
100
AcDbLine
 10
152.6127858745
 20
164.3945202895
 30
0.0
 11
152.5797262816
 21
164.6403121489
 31
0.0
  0
LINE
  5
269
330
1F
100
AcDbEntity
  8
0
  6
Continuous
 62
     7
370
    30
100
AcDbLine
 10
132.1981063246
 20
164.6403121489
 30
0.0
 11
132.1650467317
 21
164.3945202895
 31
0.0
  0
LINE
  5
26A
330
1F
100
AcDbEntity
  8
0
  6
Continuous
 62
     7
370
    30
100
AcDbLine
 10
151.8567566937
 20
164.3945199602
 30
0.0
 11
151.8389163937
 21
164.5229252733
 31
0.0
  0
LINE
  5
26B
330
1F
100
AcDbEntity
  8
0
  6
Continuous
 62
     7
370
    30
100
AcDbLine
 10
132.9389162125
 20
164.5229252733
 30
0.0
 11
132.9210759125
 21
164.3945199602
 31
0.0
  0
LINE
  5
26C
330
1F
100
AcDbEntity
  8
0
  6
Continuous
 62
     7
370
    30
100
AcDbLine
 10
152.5797262816
 20
161.6487281831
 30
0.0
 11
152.6127858745
 21
161.8945200425
 31
0.0
  0
LINE
  5
26D
330
1F
100
AcDbEntity
  8
0
  6
Continuous
 62
     7
370
    30
100
AcDbLine
 10
132.1650467317
 20
161.8945200425
 30
0.0
 11
132.1981063246
 21
161.6487281831
 31
0.0
  0
LINE
  5
26E
330
1F
100
AcDbEntity
  8
0
  6
Continuous
 62
     7
370
    30
100
AcDbLine
 10
132.9210759125
 20
161.8945203718
 30
0.0
 11
132.9389162125
 21
161.7661150587
 31
0.0
  0
LINE
  5
26F
330
1F
100
AcDbEntity
  8
0
  6
Continuous
 62
     7
370
    30
100
AcDbLine
 10
151.8389163937
 20
161.7661150587
 30
0.0
 11
151.8567566937
 21
161.8945203718
 31
0.0
  0
ARC
  5
270
330
1F
100
AcDbEntity
  8
0
  6
Continuous
 62
     7
370
    30
100
AcDbCircle
 10
142.3889163031
 20
163.144520166
 30
0.0
 40
9.501578816175742
100
AcDbArc
 50
174.0272809632
 51
185.9727190368
  0
SPLINE
  5
271
330
1F
100
AcDbEntity
  8
0
  6
Continuous
 62
     7
370
    30
100
AcDbSpline
210
0.0
220
0.0
230
1.0
 70
     8
 71
     3
 72
    10
 73
     6
 74
     0
 42
0.000000001
 43
0.00000001
 40
0.0
 40
0.0
 40
0.0
 40
0.0
 40
0.0495215089567155
 40
0.551832394412858
 40
1.0
 40
1.0
 40
1.0
 40
1.0
 10
151.8389163937277
 20
163.2747871844119
 30
0.0
 10
151.8419251782809
 20
163.2895166247452
 30
0.0
 10
151.8754529285298
 20
163.4536510079402
 30
0.0
 10
151.882119480582
 20
163.7794671505808
 30
0.0
 10
151.8527597176893
 20
164.0833287582616
 30
0.0
 10
151.8389160644554
 20
164.2266049401294
 30
0.0
  0
SPLINE
  5
272
330
1F
100
AcDbEntity
  8
0
  6
Continuous
 62
     7
370
    30
100
AcDbSpline
210
0.0
220
0.0
230
1.0
 70
     8
 71
     3
 72
    11
 73
     7
 74
     0
 42
0.000000001
 43
0.00000001
 40
0.0
 40
0.0
 40
0.0
 40
0.0
 40
0.1548911917223195
 40
0.476977220231396
 40
0.7988586967863156
 40
1.0
 40
1.0
 40
1.0
 40
1.0
 10
146.9271621809386
 20
164.1578433446006
 30
0.0
 10
146.9099665143252
 20
164.1536407652673
 30
0.0
 10
146.8570135918895
 20
164.1406991990885
 30
0.0
 10
146.7874939206888
 20
164.1237423847404
 30
0.0
 10
146.7436588419215
 20
164.1130645808349
 30
0.0
 10
146.7393454135101
 20
164.1120143024844
 30
0.0
 10
146.7376865782824
 20
164.1116103920538
 30
0.0
  0
SPLINE
  5
273
330
1F
100
AcDbEntity
  8
0
  6
Continuous
 62
     7
370
    30
100
AcDbSpline
210
0.0
220
0.0
230
1.0
 70
     8
 71
     3
 72
    12
 73
     8
 74
     0
 42
0.000000001
 43
0.00000001
 40
0.0
 40
0.0
 40
0.0
 40
0.0
 40
0.0344394963508781
 40
0.3562838421840607
 40
0.6780610727713503
 40
0.9998917576338063
 40
1.0
 40
1.0
 40
1.0
 40
1.0
 10
137.850670425268
 20
162.1311969874306
 30
0.0
 10
137.8545694003826
 20
162.1321501858616
 30
0.0
 10
137.8949051190078
 20
162.1420112243597
 30
0.0
 10
137.9634832854628
 20
162.1587600538185
 30
0.0
 10
138.0235991470397
 20
162.173369289201
 30
0.0
 10
138.0445561872355
 20
162.1785733017556
 30
0.0
 10
138.0401475102104
 20
162.1774303242695
 30
0.0
 10
138.0401460279242
 20
162.1774299399774
 30
0.0
  0
SPLINE
  5
274
330
1F
100
AcDbEntity
  8
0
  6
Continuous
 62
     7
370
    30
100
AcDbSpline
210
0.0
220
0.0
230
1.0
 70
     8
 71
     3
 72
    11
 73
     7
 74
     0
 42
0.000000001
 43
0.00000001
 40
0.0
 40
0.0
 40
0.0
 40
0.0
 40
0.0006195713442801
 40
0.322459358339536
 40
0.6442456895478121
 40
1.0
 40
1.0
 40
1.0
 40
1.0
 10
146.7377078163428
 20
162.1774248362575
 30
0.0
 10
146.737699236662
 20
162.1774269261792
 30
0.0
 10
146.7332338939782
 20
162.1785146375797
 30
0.0
 10
146.7545141042353
 20
162.1733318658729
 30
0.0
 10
146.8154733672995
 20
162.1584814009227
 30
0.0
 10
146.8887087105136
 20
162.1405907696107
 30
0.0
 10
146.9271621809386
 20
162.1311969874306
 30
0.0
  0
SPLINE
  5
275
330
1F
100
AcDbEntity
  8
0
  6
Continuous
 62
     7
370
    30
100
AcDbSpline
210
0.0
220
0.0
230
1.0
 70
     8
 71
     3
 72
    11
 73
     7
 74
     0
 42
0.000000001
 43
0.00000001
 40
0.0
 40
0.0
 40
0.0
 40
0.0
 40
0.2007311195391389
 40
0.5227778700371885
 40
0.8450292775190733
 40
1.0
 40
1.0
 40
1.0
 40
1.0
 10
138.0401247898638
 20
164.1116154957738
 30
0.0
 10
138.038468496931
 20
164.1120188150242
 30
0.0
 10
138.0341548992508
 20
164.1130692071067
 30
0.0
 10
137.9903361636918
 20
164.1237429889736
 30
0.0
 10
137.9208192821542
 20
164.1406991349143
 30
0.0
 10
137.8678661575368
 20
164.1536407495362
 30
0.0
 10
137.850670425268
 20
164.1578433446006
 30
0.0
  0
LINE
  5
276
330
1F
100
AcDbEntity
  8
0
  6
CENTERX2
 62
     7
370
     0
100
AcDbLine
 10
142.3889163031
 20
175.5878283493
 30
0.0
 11
142.3889163031
 21
150.440165889
 31
0.0
  0
LINE
  5
277
330
1F
100
AcDbEntity
  8
0
  6
CENTERX2
 62
     7
370
     0
100
AcDbLine
 10
128.7600198212
 20
163.144520166
 30
0.0
 11
156.0298478899
 21
163.144520166
 31
0.0
  0
LINE
  5
278
330
1F
100
AcDbEntity
  8
0
  6
CENTERX2
 62
     7
370
     0
100
AcDbLine
 10
140.4337660531
 20
161.189369916
 30
0.0
 11
140.4266949853
 21
161.1822988482
 31
0.0
  0
LINE
  5
279
330
1F
100
AcDbEntity
  8
0
  6
Continuous
 62
     7
370
     0
100
AcDbLine
 10
144.3440665531
 20
161.189369916
 30
0.0
 11
144.3511376209
 21
161.1822988482
 31
0.0
  0
CIRCLE
  5
27A
330
1F
100
AcDbEntity
  8
0
  6
CENTERX2
 62
     7
370
     0
100
AcDbCircle
 10
142.3889163031
 20
163.144520166
 30
0.0
 40
2.5399999999994
  0
DIMENSION
  5
27B
330
1F
100
AcDbEntity
  8
0
  6
Continuous
 62
     7
370
     0
100
AcDbDimension
  2
_D_11
 10
144.2903192682
 20
161.4603982095
 30
0.0
 11
111.7668251794
 21
177.5122010065
 31
0.0
 70
   163
  1
P.C.D.<>
 71
     1
 42
-1.0
  3
SLDDIMSTYLE9
100
AcDbDiametricDimension
 15
140.487513338
 25
164.8286421225
 35
0.0
 40
0.0
  0
DIMENSION
  5
288
330
1F
100
AcDbEntity
  8
0
  6
Continuous
 62
     7
370
     0
100
AcDbDimension
  2
_D_12
 10
142.3889163031
 20
175.5878283493
 30
0.0
 11
129.5619917966
 21
142.2960826725
 31
0.0
 70
   162
  1
<>
 71
     1
 42
-1.0
  3
SLDDIMSTYLE10
100
AcDb2LineAngularDimension
 13
140.4266949853
 23
161.1822988482
 33
0.0
 14
140.4337660531
 24
161.189369916
 34
0.0
 15
142.3889163031
 25
150.440165889
 35
0.0
 16
133.0214751327
 26
140.5295166477
 36
0.0
  0
DIMENSION
  5
293
330
1F
100
AcDbEntity
  8
0
  6
Continuous
 62
     7
370
     0
100
AcDbDimension
  2
_D_13
 10
144.3440665531
 20
161.189369916
 30
0.0
 11
147.8578210394
 21
139.2555921907
 31
0.0
 70
   162
  1
<>
 71
     1
 42
-1.0
  3
SLDDIMSTYLE10
100
AcDb2LineAngularDimension
 13
142.3889163031
 23
150.440165889
 33
0.0
 14
142.3889163031
 24
175.5878283493
 34
0.0
 15
144.3511376209
 25
161.1822988482
 35
0.0
 16
151.7673138039
 26
140.5030657263
 36
0.0
  0
DIMENSION
  5
29D
330
1F
100
AcDbEntity
  8
0
  6
Continuous
 62
     7
370
     0
100
AcDbDimension
  2
_D_14
 10
168.3375445001
 20
161.894520166
 30
0.0
 11
168.3375445001
 21
171.4760025683
 31
0.0
 70
   160
  1
<>
 71
     2
 42
-1.0
  3
SLDDIMSTYLE5
100
AcDbAlignedDimension
 13
153.0775722389
 23
164.394520166
 33
0.0
 14
153.0775722389
 24
161.894520166
 34
0.0
 50
90.0
100
AcDbRotatedDimension
  0
DIMENSION
  5
2A9
330
1F
100
AcDbEntity
  8
0
  6
Continuous
 62
     7
370
     0
100
AcDbDimension
  2
_D_15
 10
176.2594999227
 20
160.644520166
 30
0.0
 11
176.2594999227
 21
171.4760025683
 31
0.0
 70
   160
  1
<>
 71
     2
 42
-1.0
  3
SLDDIMSTYLE6
100
AcDbAlignedDimension
 13
152.8889163031
 23
165.644520166
 33
0.0
 14
152.8889163031
 24
160.644520166
 34
0.0
 50
90.0
100
AcDbRotatedDimension
  0
MTEXT
  5
2B4
330
1F
100
AcDbEntity
  8
0
  6
Continuous
 62
     7
370
     0
100
AcDbMText
 10
121.8767416021
 20
158.1831321609
 30
0.0
 40
3.5
 41
0.0
 71
     1
 72
     1
  1
GND
  7
SLDTEXTSTYLE0
 73
     1
 44
1.0
  0
LEADER
  5
2B6
330
1F
100
AcDbEntity
  8
0
  6
Continuous
 62
     7
370
     0
100
AcDbLeader
  3
SLDDIMSTYLE11
 76
     3
 10
140.4114148097
 20
161.2154245891
 30
0.0
 10
130.3183652876
 20
153.5822401615
 30
0.0
 10
121.8466195762
 20
153.5822401615
 30
0.0
  0
MTEXT
  5
2B7
330
1F
100
AcDbEntity
  8
0
  6
Continuous
 62
     7
370
     0
100
AcDbMText
 10
156.0672595221
 20
158.1831321609
 30
0.0
 40
3.5
 41
0.0
 71
     1
 72
     1
  1
OUT
  7
SLDTEXTSTYLE0
 73
     1
 44
1.0
  0
LEADER
  5
2B8
330
1F
100
AcDbEntity
  8
0
  6
Continuous
 62
     7
370
     0
100
AcDbLeader
  3
SLDDIMSTYLE11
 76
     3
 10
144.3260122276
 20
161.1731652267
 30
0.0
 10
155.5544904137
 20
153.5822401615
 30
0.0
 10
163.9253279516
 20
153.5822401615
 30
0.0
  0
MTEXT
  5
2B9
330
1F
100
AcDbEntity
  8
0
  6
Continuous
 62
     7
370
     0
100
AcDbMText
 10
156.0842738542
 20
179.2003270728
 30
0.0
 40
3.5
 41
0.0
 71
     1
 72
     1
  1
VDD
  7
SLDTEXTSTYLE0
 73
     1
 44
1.0
  0
LEADER
  5
2BA
330
1F
100
AcDbEntity
  8
0
  6
Continuous
 62
     7
370
     0
100
AcDbLeader
  3
SLDDIMSTYLE11
 76
     3
 10
144.3576570579
 20
165.0848049717
 30
0.0
 10
155.5544904137
 20
174.6720484359
 30
0.0
 10
163.9253279516
 20
174.6720484359
 30
0.0
  0
MTEXT
  5
2BB
330
1F
100
AcDbEntity
  8
0
  6
Continuous
 62
     7
370
     0
100
AcDbMText
 10
103.8686799972
 20
175.2258550969
 30
0.0
 40
2.38125
 41
0.0
 71
     1
 72
     1
  1
(0.2 dia.)
  7
SLDTEXTSTYLE0
 73
     1
 44
1.0
  0
MTEXT
  5
2BC
330
1F
100
AcDbEntity
  8
0
  6
Continuous
 62
     7
370
     0
100
AcDbMText
 10
135.3175587573
 20
143.7823755457
 30
0.0
 40
2.38125
 41
0.0
 71
     1
 72
     1
  1
±4°
  7
SLDTEXTSTYLE0
 11
0.9396926207859081
 21
-0.3420201433256694
 31
0.0
 73
     1
 44
1.0
  0
MTEXT
  5
2BD
330
1F
100
AcDbEntity
  8
0
  6
Continuous
 62
     7
370
     0
100
AcDbMText
 10
150.7278260545
 20
144.2068078023
 30
0.0
 40
2.38125
 41
0.0
 71
     1
 72
     1
  1
±4°
  7
SLDTEXTSTYLE0
 11
0.9063077870366495
 21
0.4226182617407004
 31
0.0
 73
     1
 44
1.0
  0
MTEXT
  5
2BE
330
1F
100
AcDbEntity
  8
0
  6
Continuous
 62
     7
370
     0
100
AcDbMText
 10
168.7108711692
 20
166.7481017096
 30
0.0
 40
2.38125
 41
0.0
 71
     1
 72
     1
  1
(0.098)
  7
SLDTEXTSTYLE0
 11
-3.491481338843133E-15
 21
1.0
 31
0.0
 73
     1
 44
1.0
  0
MTEXT
  5
2BF
330
1F
100
AcDbEntity
  8
0
  6
Continuous
 62
     7
370
     0
100
AcDbMText
 10
176.4228451324
 20
166.6358774203
 30
0.0
 40
2.38125
 41
0.0
 71
     1
 72
     1
  1
(0.197)
  7
SLDTEXTSTYLE0
 11
-3.491481338843133E-15
 21
1.0
 31
0.0
 73
     1
 44
1.0
  0
LINE
  5
2C0
330
1F
100
AcDbEntity
  8
0
  6
Continuous
 62
     7
370
    30
100
AcDbLine
 10
52.7263118241
 20
166.5744137797
 30
0.0
 11
52.7263118241
 21
171.1744134161
 31
0.0
  0
LINE
  5
2C1
330
1F
100
AcDbEntity
  8
0
  6
Continuous
 62
     7
370
    30
100
AcDbLine
 10
52.276311857
 20
171.1744134161
 30
0.0
 11
52.276311857
 21
166.5744137797
 31
0.0
  0
LINE
  5
2C2
330
1F
100
AcDbEntity
  8
0
  6
Continuous
 62
     7
370
    30
100
AcDbLine
 10
49.1342093532
 20
166.5744137797
 30
0.0
 11
49.1342093532
 21
171.1744134161
 31
0.0
  0
LINE
  5
2C3
330
1F
100
AcDbEntity
  8
0
  6
Continuous
 62
     7
370
    30
100
AcDbLine
 10
48.6842093861
 20
171.1744134161
 30
0.0
 11
48.6842093861
 21
166.5744137797
 31
0.0
  0
LINE
  5
2C4
330
1F
100
AcDbEntity
  8
0
  6
Continuous
 62
     7
370
    30
100
AcDbLine
 10
56.220260685
 20
171.1744134161
 30
0.0
 11
55.7109581676
 21
178.4744133554
 31
0.0
  0
LINE
  5
2C5
330
1F
100
AcDbEntity
  8
0
  6
Continuous
 62
     7
370
    30
100
AcDbLine
 10
45.6995630426
 20
178.4744133554
 30
0.0
 11
45.1902605252
 21
171.1744134161
 31
0.0
  0
LINE
  5
2C6
330
1F
100
AcDbEntity
  8
0
  6
Continuous
 62
     7
370
    30
100
AcDbLine
 10
60.9910764949
 20
181.1515640663
 30
0.0
 11
60.9141413742
 21
184.8244135115
 31
0.0
  0
LINE
  5
2C7
330
1F
100
AcDbEntity
  8
0
  6
Continuous
 62
     7
370
    30
100
AcDbLine
 10
40.496379836
 20
184.8244135115
 30
0.0
 11
40.4194447153
 21
181.1515640663
 31
0.0
  0
ARC
  5
2C8
330
1F
100
AcDbEntity
  8
0
  6
Continuous
 62
     7
370
    30
100
AcDbCircle
 10
50.7052606051
 20
180.4744134504
 30
0.0
 40
10.95
100
AcDbArc
 50
23.4070163216
 51
156.5929836784
  0
LINE
  5
2C9
330
1F
100
AcDbEntity
  8
0
  6
Continuous
 62
     7
370
    30
100
AcDbLine
 10
50.8552605804
 20
172.7744134921
 30
0.0
 11
50.5552606298
 21
172.7744134921
 31
0.0
  0
LINE
  5
2CA
330
1F
100
AcDbEntity
  8
0
  6
Continuous
 62
     7
370
    30
100
AcDbLine
 10
50.5552606298
 20
173.0244135331
 30
0.0
 11
50.5552606298
 21
172.7744134921
 31
0.0
  0
LINE
  5
2CB
330
1F
100
AcDbEntity
  8
0
  6
Continuous
 62
     7
370
    30
100
AcDbLine
 10
50.8552605804
 20
173.0244135331
 30
0.0
 11
50.8552605804
 21
172.7744134921
 31
0.0
  0
LINE
  5
2CC
330
1F
100
AcDbEntity
  8
0
  6
Continuous
 62
     7
370
    30
100
AcDbLine
 10
51.1052607039
 20
172.7744134921
 30
0.0
 11
50.8552605804
 21
172.7744134921
 31
0.0
  0
LINE
  5
2CD
330
1F
100
AcDbEntity
  8
0
  6
Continuous
 62
     7
370
    30
100
AcDbLine
 10
51.1052607039
 20
173.0244135331
 30
0.0
 11
51.1052607039
 21
172.7744134921
 31
0.0
  0
LINE
  5
2CE
330
1F
100
AcDbEntity
  8
0
  6
Continuous
 62
     7
370
    30
100
AcDbLine
 10
50.5552606298
 20
172.7744134921
 30
0.0
 11
50.3052605063
 21
172.7744134921
 31
0.0
  0
LINE
  5
2CF
330
1F
100
AcDbEntity
  8
0
  6
Continuous
 62
     7
370
    30
100
AcDbLine
 10
50.3052605063
 20
173.0244135331
 30
0.0
 11
50.3052605063
 21
172.7744134921
 31
0.0
  0
LINE
  5
2D0
330
1F
100
AcDbEntity
  8
0
  6
Continuous
 62
     7
370
    30
100
AcDbLine
 10
52.6604109253
 20
166.5744137797
 30
0.0
 11
52.7263118241
 21
166.5744137797
 31
0.0
  0
LINE
  5
2D1
330
1F
100
AcDbEntity
  8
0
  6
Continuous
 62
     7
370
    30
100
AcDbLine
 10
52.276311857
 20
166.5744137797
 30
0.0
 11
52.6604109253
 21
166.5744137797
 31
0.0
  0
LINE
  5
2D2
330
1F
100
AcDbEntity
  8
0
  6
Continuous
 62
     7
370
    30
100
AcDbLine
 10
50.8052605887
 20
172.0744137499
 30
0.0
 11
50.8052605887
 21
172.7744134921
 31
0.0
  0
LINE
  5
2D3
330
1F
100
AcDbEntity
  8
0
  6
Continuous
 62
     7
370
    30
100
AcDbLine
 10
50.6052606216
 20
172.7744134921
 30
0.0
 11
50.6052606216
 21
172.0744137499
 31
0.0
  0
LINE
  5
2D4
330
1F
100
AcDbEntity
  8
0
  6
Continuous
 62
     7
370
    30
100
AcDbLine
 10
50.8052605887
 20
172.0744137499
 30
0.0
 11
50.6052606216
 21
172.0744137499
 31
0.0
  0
LINE
  5
2D5
330
1F
100
AcDbEntity
  8
0
  6
Continuous
 62
     7
370
    30
100
AcDbLine
 10
50.305260671
 20
172.0744137499
 30
0.0
 11
50.305260671
 21
172.7744134921
 31
0.0
  0
LINE
  5
2D6
330
1F
100
AcDbEntity
  8
0
  6
Continuous
 62
     7
370
    30
100
AcDbLine
 10
50.6052606216
 20
172.0744137499
 30
0.0
 11
50.305260671
 21
172.0744137499
 31
0.0
  0
LINE
  5
2D7
330
1F
100
AcDbEntity
  8
0
  6
Continuous
 62
     7
370
    30
100
AcDbLine
 10
51.1052605393
 20
172.7744134921
 30
0.0
 11
51.1052605393
 21
172.0744137499
 31
0.0
  0
LINE
  5
2D8
330
1F
100
AcDbEntity
  8
0
  6
Continuous
 62
     7
370
    30
100
AcDbLine
 10
51.1052605393
 20
172.0744137499
 30
0.0
 11
50.8052605887
 21
172.0744137499
 31
0.0
  0
LINE
  5
2D9
330
1F
100
AcDbEntity
  8
0
  6
Continuous
 62
     7
370
    30
100
AcDbLine
 10
50.3052605063
 20
172.0744137499
 30
0.0
 11
50.2074472198
 21
172.0744137499
 31
0.0
  0
LINE
  5
2DA
330
1F
100
AcDbEntity
  8
0
  6
Continuous
 62
     7
370
    30
100
AcDbLine
 10
50.2435553798
 20
172.7744134921
 30
0.0
 11
50.3052605063
 21
172.7744134921
 31
0.0
  0
LINE
  5
2DB
330
1F
100
AcDbEntity
  8
0
  6
Continuous
 62
     7
370
    30
100
AcDbLine
 10
51.199967636
 20
172.0744137499
 30
0.0
 11
51.1052607039
 21
172.0744137499
 31
0.0
  0
LINE
  5
2DC
330
1F
100
AcDbEntity
  8
0
  6
Continuous
 62
     7
370
    30
100
AcDbLine
 10
51.1052607039
 20
172.7744134921
 30
0.0
 11
51.1633079449
 21
172.7744134921
 31
0.0
  0
LINE
  5
2DD
330
1F
100
AcDbEntity
  8
0
  6
Continuous
 62
     7
370
    30
100
AcDbLine
 10
49.0683084545
 20
166.5744137797
 30
0.0
 11
49.1342093532
 21
166.5744137797
 31
0.0
  0
LINE
  5
2DE
330
1F
100
AcDbEntity
  8
0
  6
Continuous
 62
     7
370
    30
100
AcDbLine
 10
48.6842093861
 20
166.5744137797
 30
0.0
 11
49.0683084545
 21
166.5744137797
 31
0.0
  0
LINE
  5
2DF
330
1F
100
AcDbEntity
  8
0
  6
Continuous
 62
     7
370
    30
100
AcDbLine
 10
40.7516145651
 20
179.4744134029
 30
0.0
 11
40.7516145651
 21
180.4744134504
 31
0.0
  0
LINE
  5
2E0
330
1F
100
AcDbEntity
  8
0
  6
Continuous
 62
     7
370
    30
100
AcDbLine
 10
40.7516145651
 20
180.4744134504
 30
0.0
 11
60.6589066451
 21
180.4744134504
 31
0.0
  0
LINE
  5
2E1
330
1F
100
AcDbEntity
  8
0
  6
Continuous
 62
     7
370
    30
100
AcDbLine
 10
60.6589066451
 20
179.4744134029
 30
0.0
 11
60.6589066451
 21
180.4744134504
 31
0.0
  0
LINE
  5
2E2
330
1F
100
AcDbEntity
  8
0
  6
Continuous
 62
     7
370
    30
100
AcDbLine
 10
40.7516145651
 20
179.4744134029
 30
0.0
 11
60.6589066451
 21
179.4744134029
 31
0.0
  0
LINE
  5
2E3
330
1F
100
AcDbEntity
  8
0
  6
Continuous
 62
     7
370
    30
100
AcDbLine
 10
41.6438034206
 20
178.4744133554
 30
0.0
 11
59.7667177897
 21
178.4744133554
 31
0.0
  0
LINE
  5
2E4
330
1F
100
AcDbEntity
  8
0
  6
Continuous
 62
     7
370
    30
100
AcDbLine
 10
41.6438034206
 20
178.4744133554
 30
0.0
 11
41.6438034206
 21
179.4744134029
 31
0.0
  0
LINE
  5
2E5
330
1F
100
AcDbEntity
  8
0
  6
Continuous
 62
     7
370
    30
100
AcDbLine
 10
59.7667177897
 20
178.4744133554
 30
0.0
 11
59.7667177897
 21
179.4744134029
 31
0.0
  0
LINE
  5
2E6
330
1F
100
AcDbEntity
  8
0
  6
Continuous
 62
     7
370
    30
100
AcDbLine
 10
51.155260531
 20
173.0244135331
 30
0.0
 11
51.25026068
 21
171.1744134161
 31
0.0
  0
LINE
  5
2E7
330
1F
100
AcDbEntity
  8
0
  6
Continuous
 62
     7
370
    30
100
AcDbLine
 10
50.2552606792
 20
173.0244135331
 30
0.0
 11
51.155260531
 21
173.0244135331
 31
0.0
  0
LINE
  5
2E8
330
1F
100
AcDbEntity
  8
0
  6
Continuous
 62
     7
370
    30
100
AcDbLine
 10
50.1602605302
 20
171.1744134161
 30
0.0
 11
50.2552606792
 21
173.0244135331
 31
0.0
  0
LINE
  5
2E9
330
1F
100
AcDbEntity
  8
0
  6
Continuous
 62
     7
370
    30
100
AcDbLine
 10
51.25026068
 20
171.1744134161
 30
0.0
 11
56.220260685
 21
171.1744134161
 31
0.0
  0
LINE
  5
2EA
330
1F
100
AcDbEntity
  8
0
  6
Continuous
 62
     7
370
    30
100
AcDbLine
 10
45.1902605252
 20
171.1744134161
 30
0.0
 11
50.1602605302
 21
171.1744134161
 31
0.0
  0
LINE
  5
2EB
330
1F
100
AcDbEntity
  8
0
  6
Continuous
 62
     7
370
    30
100
AcDbLine
 10
51.25026068
 20
171.1744134161
 30
0.0
 11
50.1578118971
 21
171.1744134161
 31
0.0
  0
LINE
  5
2EC
330
1F
100
AcDbEntity
  8
0
  6
Continuous
 62
     7
370
    30
100
AcDbLine
 10
60.8521812264
 20
180.4744134504
 30
0.0
 11
60.8521812264
 21
179.4744134029
 31
0.0
  0
LINE
  5
2ED
330
1F
100
AcDbEntity
  8
0
  6
Continuous
 62
     7
370
    30
100
AcDbLine
 10
60.8521812264
 20
179.4744134029
 30
0.0
 11
60.6589066451
 21
179.4744134029
 31
0.0
  0
LINE
  5
2EE
330
1F
100
AcDbEntity
  8
0
  6
Continuous
 62
     7
370
    30
100
AcDbLine
 10
60.6589066451
 20
180.4744134504
 30
0.0
 11
60.8521812264
 21
180.4744134504
 31
0.0
  0
LINE
  5
2EF
330
1F
100
AcDbEntity
  8
0
  6
Continuous
 62
     7
370
    30
100
AcDbLine
 10
40.5583399839
 20
180.4744134504
 30
0.0
 11
40.5583399839
 21
179.4744134029
 31
0.0
  0
LINE
  5
2F0
330
1F
100
AcDbEntity
  8
0
  6
Continuous
 62
     7
370
    30
100
AcDbLine
 10
40.5583399839
 20
179.4744134029
 30
0.0
 11
40.7516145651
 21
179.4744134029
 31
0.0
  0
LINE
  5
2F1
330
1F
100
AcDbEntity
  8
0
  6
Continuous
 62
     7
370
    30
100
AcDbLine
 10
40.7516145651
 20
180.4744134504
 30
0.0
 11
40.5583399839
 21
180.4744134504
 31
0.0
  0
LINE
  5
2F2
330
1F
100
AcDbEntity
  8
0
  6
Continuous
 62
     7
370
    30
100
AcDbLine
 10
61.2052608522
 20
178.4875368546
 30
0.0
 11
61.2052608522
 21
180.4744134504
 31
0.0
  0
LINE
  5
2F3
330
1F
100
AcDbEntity
  8
0
  6
Continuous
 62
     7
370
    30
100
AcDbLine
 10
61.2052608522
 20
178.4875368546
 30
0.0
 11
61.0552605476
 21
178.4744133554
 31
0.0
  0
LINE
  5
2F4
330
1F
100
AcDbEntity
  8
0
  6
Continuous
 62
     7
370
    30
100
AcDbLine
 10
59.7667177897
 20
178.4744133554
 30
0.0
 11
61.0552605476
 21
178.4744133554
 31
0.0
  0
LINE
  5
2F5
330
1F
100
AcDbEntity
  8
0
  6
Continuous
 62
     7
370
    30
100
AcDbLine
 10
60.8521812264
 20
180.4744134504
 30
0.0
 11
61.2052608522
 21
180.4744134504
 31
0.0
  0
LINE
  5
2F6
330
1F
100
AcDbEntity
  8
0
  6
Continuous
 62
     7
370
    30
100
AcDbLine
 10
61.7052607698
 20
180.4744134504
 30
0.0
 11
61.7052607698
 21
178.5312810759
 31
0.0
  0
LWPOLYLINE
  5
2F7
330
1F
100
AcDbEntity
  8
0
  6
Continuous
 62
     7
370
    30
100
AcDbPolyline
 90
       10
 70
   128
 43
0.0
 10
61.7052607698
 20
178.5312810759
 10
61.6976641297
 20
178.5306164609
 10
61.6751070046
 20
178.5286429883
 10
61.6382732932
 20
178.5254204958
 10
61.5882831796
 20
178.5210467722
 10
61.5266546089
 20
178.515655113
 10
61.4552604817
 20
178.5094089653
 10
61.3762707022
 20
178.5024980861
 10
61.2920843479
 20
178.4951329544
 10
61.2052608522
 20
178.4875368546
  0
LINE
  5
2F8
330
1F
100
AcDbEntity
  8
0
  6
Continuous
 62
     7
370
    30
100
AcDbLine
 10
61.2052608522
 20
180.4744134504
 30
0.0
 11
61.7052607698
 21
180.4744134504
 31
0.0
  0
LINE
  5
2F9
330
1F
100
AcDbEntity
  8
0
  6
Continuous
 62
     7
370
    30
100
AcDbLine
 10
40.2052603581
 20
178.4875368546
 30
0.0
 11
40.3552606627
 21
178.4744133554
 31
0.0
  0
LINE
  5
2FA
330
1F
100
AcDbEntity
  8
0
  6
Continuous
 62
     7
370
    30
100
AcDbLine
 10
40.2052603581
 20
180.4744134504
 30
0.0
 11
40.2052603581
 21
178.4875368546
 31
0.0
  0
LINE
  5
2FB
330
1F
100
AcDbEntity
  8
0
  6
Continuous
 62
     7
370
    30
100
AcDbLine
 10
41.6438034206
 20
178.4744133554
 30
0.0
 11
40.3552606627
 21
178.4744133554
 31
0.0
  0
LINE
  5
2FC
330
1F
100
AcDbEntity
  8
0
  6
Continuous
 62
     7
370
    30
100
AcDbLine
 10
40.5583399839
 20
180.4744134504
 30
0.0
 11
40.2052603581
 21
180.4744134504
 31
0.0
  0
LINE
  5
2FD
330
1F
100
AcDbEntity
  8
0
  6
Continuous
 62
     7
370
    30
100
AcDbLine
 10
39.7052604404
 20
178.5312810759
 30
0.0
 11
39.7052604404
 21
180.4744134504
 31
0.0
  0
LWPOLYLINE
  5
2FE
330
1F
100
AcDbEntity
  8
0
  6
Continuous
 62
     7
370
    30
100
AcDbPolyline
 90
       10
 70
   128
 43
0.0
 10
40.2052603581
 20
178.4875368546
 10
40.1184368623
 20
178.4951329544
 10
40.0342505081
 20
178.5024980861
 10
39.9552607285
 20
178.5094089653
 10
39.8838666013
 20
178.515655113
 10
39.8222380306
 20
178.5210467722
 10
39.772247917
 20
178.5254204958
 10
39.7354142056
 20
178.5286429883
 10
39.7128570806
 20
178.5306164609
 10
39.7052604404
 20
178.5312810759
  0
LINE
  5
2FF
330
1F
100
AcDbEntity
  8
0
  6
Continuous
 62
     7
370
    30
100
AcDbLine
 10
39.7052604404
 20
180.4744134504
 30
0.0
 11
40.2052603581
 21
180.4744134504
 31
0.0
  0
SPLINE
  5
300
330
1F
100
AcDbEntity
  8
0
  6
Continuous
 62
     7
370
    30
100
AcDbSpline
210
0.0
220
0.0
230
1.0
 70
     8
 71
     3
 72
    14
 73
    10
 74
     0
 42
0.000000001
 43
0.00000001
 40
0.0
 40
0.0
 40
0.0
 40
0.0
 40
0.0160486910212037
 40
0.0386781192227465
 40
0.0792187211243768
 40
0.2145965462785739
 40
0.5334041864584491
 40
0.8557715596577946
 40
1.0
 40
1.0
 40
1.0
 40
1.0
 10
60.99107583637772
 20
181.1515640663325
 30
0.0
 10
60.99108137405789
 20
181.1512375438695
 30
0.0
 10
60.99109472013413
 20
181.1504506089887
 30
0.0
 10
60.99127304575411
 20
181.1403007145865
 30
0.0
 10
60.99190163460123
 20
181.1041928403138
 30
0.0
 10
60.99386726254522
 20
180.9917085943111
 30
0.0
 10
60.99705271382307
 20
180.8091110849699
 30
0.0
 10
61.00033412700852
 20
180.6211367437753
 30
0.0
 10
61.00229062444289
 20
180.5090579027411
 30
0.0
 10
61.00289539320699
 20
180.4744134503723
 30
0.0
  0
SPLINE
  5
301
330
1F
100
AcDbEntity
  8
0
  6
Continuous
 62
     7
370
    30
100
AcDbSpline
210
0.0
220
0.0
230
1.0
 70
     8
 71
     3
 72
    14
 73
    10
 74
     0
 42
0.000000001
 43
0.00000001
 40
0.0
 40
0.0
 40
0.0
 40
0.0
 40
0.0160486910078728
 40
0.0386781191906182
 40
0.0792187210585732
 40
0.2145965461003179
 40
0.533404147755431
 40
0.8557715499725447
 40
1.0
 40
1.0
 40
1.0
 40
1.0
 10
40.41944537385633
 20
181.1515640663325
 30
0.0
 10
40.41943983617615
 20
181.1512375438695
 30
0.0
 10
40.41942649009989
 20
181.1504506089888
 30
0.0
 10
40.41924816448021
 20
181.1403007145855
 30
0.0
 10
40.4186195756289
 20
181.1041928403286
 30
0.0
 10
40.41665394792776
 20
180.9917086026809
 30
0.0
 10
40.41346849581316
 20
180.8091110993001
 30
0.0
 10
40.41018708329654
 20
180.6211367556488
 30
0.0
 10
40.40823058580063
 20
180.509057905132
 30
0.0
 10
40.40762581702705
 20
180.4744134503792
 30
0.0
  0
LINE
  5
302
330
1F
100
AcDbEntity
  8
0
  6
Continuous
 62
     7
370
    30
100
AcDbLine
 10
41.2374202145
 20
178.4744133554
 30
0.0
 11
41.2374202145
 21
177.4744134243
 31
0.0
  0
LINE
  5
303
330
1F
100
AcDbEntity
  8
0
  6
Continuous
 62
     7
370
    30
100
AcDbLine
 10
60.1731009957
 20
178.4744133554
 30
0.0
 11
60.1731009957
 21
177.4744134243
 31
0.0
  0
LINE
  5
304
330
1F
100
AcDbEntity
  8
0
  6
Continuous
 62
     7
370
    30
100
AcDbLine
 10
40.0227131376
 20
178.4742610841
 30
0.0
 11
40.3720723161
 21
178.4375420618
 31
0.0
  0
LINE
  5
305
330
1F
100
AcDbEntity
  8
0
  6
Continuous
 62
     7
370
    30
100
AcDbLine
 10
40.3720723161
 20
178.4375420618
 30
0.0
 11
40.3727153848
 21
178.4744133554
 31
0.0
  0
LINE
  5
306
330
1F
100
AcDbEntity
  8
0
  6
Continuous
 62
     7
370
    30
100
AcDbLine
 10
41.2374202145
 20
177.4744134243
 30
0.0
 11
40.6552609425
 21
177.4744134243
 31
0.0
  0
LINE
  5
307
330
1F
100
AcDbEntity
  8
0
  6
Continuous
 62
     7
370
    30
100
AcDbLine
 10
40.0164121837
 20
178.1132622934
 30
0.0
 11
40.6552609425
 21
177.4744134243
 31
0.0
  0
LINE
  5
308
330
1F
100
AcDbEntity
  8
0
  6
Continuous
 62
     7
370
    30
100
AcDbLine
 10
40.0164121837
 20
178.1132622934
 30
0.0
 11
40.0227131376
 21
178.4742610841
 31
0.0
  0
LINE
  5
309
330
1F
100
AcDbEntity
  8
0
  6
Continuous
 62
     7
370
    30
100
AcDbLine
 10
61.0384488941
 20
178.4375420618
 30
0.0
 11
61.0378058254
 21
178.4744133554
 31
0.0
  0
LINE
  5
30A
330
1F
100
AcDbEntity
  8
0
  6
Continuous
 62
     7
370
    30
100
AcDbLine
 10
61.3878080727
 20
178.4742610841
 30
0.0
 11
61.0384488941
 21
178.4375420618
 31
0.0
  0
LINE
  5
30B
330
1F
100
AcDbEntity
  8
0
  6
Continuous
 62
     7
370
    30
100
AcDbLine
 10
61.3878080727
 20
178.4742610841
 30
0.0
 11
61.3939164023
 21
178.1243145313
 31
0.0
  0
LINE
  5
30C
330
1F
100
AcDbEntity
  8
0
  6
Continuous
 62
     7
370
    30
100
AcDbLine
 10
60.7552602677
 20
177.4744134243
 30
0.0
 11
61.3939164023
 21
178.1243145313
 31
0.0
  0
LINE
  5
30D
330
1F
100
AcDbEntity
  8
0
  6
Continuous
 62
     7
370
    30
100
AcDbLine
 10
60.7552602677
 20
177.4744134243
 30
0.0
 11
60.1731009957
 21
177.4744134243
 31
0.0
  0
LINE
  5
30E
330
1F
100
AcDbEntity
  8
0
  6
Continuous
 62
     7
370
    30
100
AcDbLine
 10
40.1052606051
 20
182.8244134504
 30
0.0
 11
36.1052606051
 21
182.8244134504
 31
0.0
  0
LINE
  5
30F
330
1F
100
AcDbEntity
  8
0
  6
Continuous
 62
     7
370
    30
100
AcDbLine
 10
40.1052606051
 20
184.8244134504
 30
0.0
 11
40.1052606051
 21
182.8244134504
 31
0.0
  0
LINE
  5
310
330
1F
100
AcDbEntity
  8
0
  6
Continuous
 62
     7
370
    30
100
AcDbLine
 10
61.3052606051
 20
184.8244134504
 30
0.0
 11
65.3052606051
 21
184.8244134504
 31
0.0
  0
LINE
  5
311
330
1F
100
AcDbEntity
  8
0
  6
Continuous
 62
     7
370
    30
100
AcDbLine
 10
61.3052606051
 20
184.8244134504
 30
0.0
 11
61.3052606051
 21
182.8244134504
 31
0.0
  0
LINE
  5
312
330
1F
100
AcDbEntity
  8
0
  6
Continuous
 62
     7
370
    30
100
AcDbLine
 10
61.3052606051
 20
182.8244134504
 30
0.0
 11
65.3052606051
 21
182.8244134504
 31
0.0
  0
LINE
  5
313
330
1F
100
AcDbEntity
  8
0
  6
Continuous
 62
     7
370
    30
100
AcDbLine
 10
40.1052606051
 20
184.8244134504
 30
0.0
 11
36.1052606051
 21
184.8244134504
 31
0.0
  0
LINE
  5
314
330
1F
100
AcDbEntity
  8
0
  6
CENTERX2
 62
     7
370
     0
100
AcDbLine
 10
50.7052606051
 20
164.6327281258
 30
0.0
 11
50.7052606051
 21
194.6934554335
 31
0.0
  0
LINE
  5
315
330
1F
100
AcDbEntity
  8
0
  6
Continuous
 62
     7
370
    30
100
AcDbLine
 10
40.4963801156
 20
184.8244134504
 30
0.0
 11
40.6539895627
 21
184.8244134504
 31
0.0
  0
LINE
  5
316
330
1F
100
AcDbEntity
  8
0
  6
Continuous
 62
     7
370
    30
100
AcDbLine
 10
60.7541411398
 20
184.8244134504
 30
0.0
 11
60.9141410946
 21
184.8244134504
 31
0.0
  0
SPLINE
  5
317
330
1F
100
AcDbEntity
  8
0
  6
Continuous
 62
     7
370
    30
100
AcDbSpline
210
0.0
220
0.0
230
1.0
 70
     8
 71
     3
 72
     8
 73
     4
 74
     0
 42
0.000000001
 43
0.00000001
 40
0.0
 40
0.0
 40
0.0
 40
0.0
 40
1.0
 40
1.0
 40
1.0
 40
1.0
 10
65.30526060511616
 20
184.8244134503777
 30
0.0
 10
64.35378657713119
 20
183.9971594280524
 30
0.0
 10
65.57179731802611
 20
183.5668711058516
 30
0.0
 10
65.30526060511616
 20
182.8244134503777
 30
0.0
  0
SPLINE
  5
318
330
1F
100
AcDbEntity
  8
0
  6
Continuous
 62
     7
370
    30
100
AcDbSpline
210
0.0
220
0.0
230
1.0
 70
     8
 71
     3
 72
     8
 73
     4
 74
     0
 42
0.000000001
 43
0.00000001
 40
0.0
 40
0.0
 40
0.0
 40
0.0
 40
1.0
 40
1.0
 40
1.0
 40
1.0
 10
36.10526060511173
 20
184.8244134503777
 30
0.0
 10
37.05673463309671
 20
183.9971594280524
 30
0.0
 10
35.83872389220177
 20
183.5668711058516
 30
0.0
 10
36.10526060511174
 20
182.8244134503777
 30
0.0
  0
HATCH
  5
319
330
1F
100
AcDbEntity
  8
0
  6
Continuous
 62
     7
100
AcDbHatch
 10
0.0
 20
0.0
 30
0.0
210
0.0
220
0.0
230
1.0
  2
ANSI31
 70
     0
 71
     0
 91
        1
 92
        0
 93
        4
 72
     1
 10
40.10526060511174
 20
184.8244134503777
 11
36.10526060511173
 21
184.8244134503777
 72
     4
 94
        3
 73
     1
 74
     0
 95
        8
 96
        4
 40
0.0
 40
0.0
 40
0.0
 40
0.0
 40
1.0
 40
1.0
 40
1.0
 40
1.0
 10
36.10526060511173
 20
184.8244134503777
 42
1.0
 10
37.05673463309671
 20
183.9971594280524
 42
1.0
 10
35.83872389220177
 20
183.5668711058516
 42
1.0
 10
36.10526060511174
 20
182.8244134503777
 42
1.0
 72
     1
 10
36.10526060511174
 20
182.8244134503777
 11
40.10526060511174
 21
182.8244134503777
 72
     1
 10
40.10526060511174
 20
182.8244134503777
 11
40.10526060511174
 21
184.8244134503777
 97
        0
 75
     0
 76
     1
 52
0.0
 41
0.25
 77
     0
 78
     1
 53
45.0
 43
0.0
 44
0.0
 45
-0.561266007566822
 46
0.5612660075668221
 79
     0
 98
        1
 10
0.0
 20
0.0
  0
HATCH
  5
31A
330
1F
100
AcDbEntity
  8
0
  6
Continuous
 62
     7
100
AcDbHatch
 10
0.0
 20
0.0
 30
0.0
210
0.0
220
0.0
230
1.0
  2
ANSI31
 70
     0
 71
     0
 91
        1
 92
        0
 93
        4
 72
     4
 94
        3
 73
     1
 74
     0
 95
        8
 96
        4
 40
0.0
 40
0.0
 40
0.0
 40
0.0
 40
1.0
 40
1.0
 40
1.0
 40
1.0
 10
65.30526060511616
 20
182.8244134503777
 42
1.0
 10
65.57179731802611
 20
183.5668711058516
 42
1.0
 10
64.35378657713119
 20
183.9971594280524
 42
1.0
 10
65.30526060511616
 20
184.8244134503777
 42
1.0
 72
     1
 10
65.30526060511616
 20
184.8244134503777
 11
61.30526060511615
 21
184.8244134503777
 72
     1
 10
61.30526060511615
 20
184.8244134503777
 11
61.30526060511615
 21
182.8244134503777
 72
     1
 10
61.30526060511615
 20
182.8244134503777
 11
65.30526060511616
 21
182.8244134503777
 97
        0
 75
     0
 76
     1
 52
0.0
 41
0.25
 77
     0
 78
     1
 53
45.0
 43
0.0
 44
0.0
 45
-0.561266007566822
 46
0.5612660075668221
 79
     0
 98
        1
 10
0.0
 20
0.0
  0
DIMENSION
  5
31B
330
1F
100
AcDbEntity
  8
0
  6
Continuous
 62
     7
370
     0
100
AcDbDimension
  2
_D_16
 10
71.4472579804
 20
184.8244134504
 30
0.0
 11
71.4472579804
 21
177.9415732736
 31
0.0
 70
   160
  1
<>
 71
     2
 42
-1.0
  3
SLDDIMSTYLE5
100
AcDbAlignedDimension
 13
56.2202606051
 23
171.1744134504
 33
0.0
 14
65.3052606051
 24
184.8244134504
 34
0.0
 50
90.0
100
AcDbRotatedDimension
  0
DIMENSION
  5
325
330
1F
100
AcDbEntity
  8
0
  6
Continuous
 62
     7
370
     0
100
AcDbDimension
  2
_D_17
 10
61.3052606051
 20
197.3778655929
 30
0.0
 11
27.8742407579
 21
197.3778655929
 31
0.0
 70
   160
  1
%%c<>
 71
     2
 42
-1.0
  3
SLDDIMSTYLE12
100
AcDbAlignedDimension
 13
40.1052606051
 23
184.8244134504
 33
0.0
 14
61.3052606051
 24
184.8244134504
 34
0.0
100
AcDbRotatedDimension
  0
MTEXT
  5
337
330
1F
100
AcDbEntity
  8
0
  6
Continuous
 62
     7
370
     0
100
AcDbMText
 10
21.5819830137
 20
196.7778253924
 30
0.0
 40
2.38125
 41
0.0
 71
     1
 72
     1
  1
(0.835 dia.)
  7
SLDTEXTSTYLE0
 73
     1
 44
1.0
  0
LINE
  5
338
330
1F
100
AcDbEntity
  8
0
  6
Continuous
 62
     7
370
    30
100
AcDbLine
 10
51.8008860179
 20
233.0615197367
 30
0.0
 11
51.8008860179
 21
237.6615193731
 31
0.0
  0
LINE
  5
339
330
1F
100
AcDbEntity
  8
0
  6
Continuous
 62
     7
370
    30
100
AcDbLine
 10
51.3508860509
 20
237.6615193731
 30
0.0
 11
51.3508860509
 21
233.0615197367
 31
0.0
  0
LINE
  5
33A
330
1F
100
AcDbEntity
  8
0
  6
Continuous
 62
     7
370
    30
100
AcDbLine
 10
48.2087835471
 20
233.0615197367
 30
0.0
 11
48.2087835471
 21
237.6615193731
 31
0.0
  0
LINE
  5
33B
330
1F
100
AcDbEntity
  8
0
  6
Continuous
 62
     7
370
    30
100
AcDbLine
 10
47.75878358
 20
237.6615193731
 30
0.0
 11
47.75878358
 21
233.0615197367
 31
0.0
  0
LINE
  5
33C
330
1F
100
AcDbEntity
  8
0
  6
Continuous
 62
     7
370
    30
100
AcDbLine
 10
55.2948348788
 20
237.6615193731
 30
0.0
 11
54.7855323614
 21
244.9615193124
 31
0.0
  0
LINE
  5
33D
330
1F
100
AcDbEntity
  8
0
  6
Continuous
 62
     7
370
    30
100
AcDbLine
 10
44.7741372365
 20
244.9615193124
 30
0.0
 11
44.2648347191
 21
237.6615193731
 31
0.0
  0
LINE
  5
33E
330
1F
100
AcDbEntity
  8
0
  6
Continuous
 62
     7
370
    30
100
AcDbLine
 10
60.0656506888
 20
247.6386700234
 30
0.0
 11
59.9887155681
 21
251.3115194685
 31
0.0
  0
LINE
  5
33F
330
1F
100
AcDbEntity
  8
0
  6
Continuous
 62
     7
370
    30
100
AcDbLine
 10
39.5709540298
 20
251.3115194685
 30
0.0
 11
39.4940189091
 21
247.6386700234
 31
0.0
  0
ARC
  5
340
330
1F
100
AcDbEntity
  8
0
  6
Continuous
 62
     7
370
    30
100
AcDbCircle
 10
49.779834799
 20
246.9615194074
 30
0.0
 40
10.95000000000001
100
AcDbArc
 50
23.4070163216
 51
156.5929836784
  0
LINE
  5
341
330
1F
100
AcDbEntity
  8
0
  6
Continuous
 62
     7
370
    30
100
AcDbLine
 10
49.9298347743
 20
239.2615194491
 30
0.0
 11
49.6298348236
 21
239.2615194491
 31
0.0
  0
LINE
  5
342
330
1F
100
AcDbEntity
  8
0
  6
Continuous
 62
     7
370
    30
100
AcDbLine
 10
49.6298348236
 20
239.5115194901
 30
0.0
 11
49.6298348236
 21
239.2615194491
 31
0.0
  0
LINE
  5
343
330
1F
100
AcDbEntity
  8
0
  6
Continuous
 62
     7
370
    30
100
AcDbLine
 10
49.9298347743
 20
239.5115194901
 30
0.0
 11
49.9298347743
 21
239.2615194491
 31
0.0
  0
LINE
  5
344
330
1F
100
AcDbEntity
  8
0
  6
Continuous
 62
     7
370
    30
100
AcDbLine
 10
50.1798348977
 20
239.2615194491
 30
0.0
 11
49.9298347743
 21
239.2615194491
 31
0.0
  0
LINE
  5
345
330
1F
100
AcDbEntity
  8
0
  6
Continuous
 62
     7
370
    30
100
AcDbLine
 10
50.1798348977
 20
239.5115194901
 30
0.0
 11
50.1798348977
 21
239.2615194491
 31
0.0
  0
LINE
  5
346
330
1F
100
AcDbEntity
  8
0
  6
Continuous
 62
     7
370
    30
100
AcDbLine
 10
49.6298348236
 20
239.2615194491
 30
0.0
 11
49.3798347002
 21
239.2615194491
 31
0.0
  0
LINE
  5
347
330
1F
100
AcDbEntity
  8
0
  6
Continuous
 62
     7
370
    30
100
AcDbLine
 10
49.3798347002
 20
239.5115194901
 30
0.0
 11
49.3798347002
 21
239.2615194491
 31
0.0
  0
LINE
  5
348
330
1F
100
AcDbEntity
  8
0
  6
Continuous
 62
     7
370
    30
100
AcDbLine
 10
51.7349851192
 20
233.0615197367
 30
0.0
 11
51.8008860179
 21
233.0615197367
 31
0.0
  0
LINE
  5
349
330
1F
100
AcDbEntity
  8
0
  6
Continuous
 62
     7
370
    30
100
AcDbLine
 10
51.3508860509
 20
233.0615197367
 30
0.0
 11
51.7349851192
 21
233.0615197367
 31
0.0
  0
LINE
  5
34A
330
1F
100
AcDbEntity
  8
0
  6
Continuous
 62
     7
370
    30
100
AcDbLine
 10
49.8798347825
 20
238.5615197069
 30
0.0
 11
49.8798347825
 21
239.2615194491
 31
0.0
  0
LINE
  5
34B
330
1F
100
AcDbEntity
  8
0
  6
Continuous
 62
     7
370
    30
100
AcDbLine
 10
49.6798348154
 20
239.2615194491
 30
0.0
 11
49.6798348154
 21
238.5615197069
 31
0.0
  0
LINE
  5
34C
330
1F
100
AcDbEntity
  8
0
  6
Continuous
 62
     7
370
    30
100
AcDbLine
 10
49.8798347825
 20
238.5615197069
 30
0.0
 11
49.6798348154
 21
238.5615197069
 31
0.0
  0
LINE
  5
34D
330
1F
100
AcDbEntity
  8
0
  6
Continuous
 62
     7
370
    30
100
AcDbLine
 10
49.3798348648
 20
238.5615197069
 30
0.0
 11
49.3798348648
 21
239.2615194491
 31
0.0
  0
LINE
  5
34E
330
1F
100
AcDbEntity
  8
0
  6
Continuous
 62
     7
370
    30
100
AcDbLine
 10
49.6798348154
 20
238.5615197069
 30
0.0
 11
49.3798348648
 21
238.5615197069
 31
0.0
  0
LINE
  5
34F
330
1F
100
AcDbEntity
  8
0
  6
Continuous
 62
     7
370
    30
100
AcDbLine
 10
50.1798347331
 20
239.2615194491
 30
0.0
 11
50.1798347331
 21
238.5615197069
 31
0.0
  0
LINE
  5
350
330
1F
100
AcDbEntity
  8
0
  6
Continuous
 62
     7
370
    30
100
AcDbLine
 10
50.1798347331
 20
238.5615197069
 30
0.0
 11
49.8798347825
 21
238.5615197069
 31
0.0
  0
LINE
  5
351
330
1F
100
AcDbEntity
  8
0
  6
Continuous
 62
     7
370
    30
100
AcDbLine
 10
49.3798347002
 20
238.5615197069
 30
0.0
 11
49.2820214137
 21
238.5615197069
 31
0.0
  0
LINE
  5
352
330
1F
100
AcDbEntity
  8
0
  6
Continuous
 62
     7
370
    30
100
AcDbLine
 10
49.3181295737
 20
239.2615194491
 30
0.0
 11
49.3798347002
 21
239.2615194491
 31
0.0
  0
LINE
  5
353
330
1F
100
AcDbEntity
  8
0
  6
Continuous
 62
     7
370
    30
100
AcDbLine
 10
50.2745418298
 20
238.5615197069
 30
0.0
 11
50.1798348977
 21
238.5615197069
 31
0.0
  0
LINE
  5
354
330
1F
100
AcDbEntity
  8
0
  6
Continuous
 62
     7
370
    30
100
AcDbLine
 10
50.1798348977
 20
239.2615194491
 30
0.0
 11
50.2378821388
 21
239.2615194491
 31
0.0
  0
LINE
  5
355
330
1F
100
AcDbEntity
  8
0
  6
Continuous
 62
     7
370
    30
100
AcDbLine
 10
48.1428826483
 20
233.0615197367
 30
0.0
 11
48.2087835471
 21
233.0615197367
 31
0.0
  0
LINE
  5
356
330
1F
100
AcDbEntity
  8
0
  6
Continuous
 62
     7
370
    30
100
AcDbLine
 10
47.75878358
 20
233.0615197367
 30
0.0
 11
48.1428826483
 21
233.0615197367
 31
0.0
  0
LINE
  5
357
330
1F
100
AcDbEntity
  8
0
  6
Continuous
 62
     7
370
    30
100
AcDbLine
 10
39.826188759
 20
245.9615193599
 30
0.0
 11
39.826188759
 21
246.9615194074
 31
0.0
  0
LINE
  5
358
330
1F
100
AcDbEntity
  8
0
  6
Continuous
 62
     7
370
    30
100
AcDbLine
 10
39.826188759
 20
246.9615194074
 30
0.0
 11
59.7334808389
 21
246.9615194074
 31
0.0
  0
LINE
  5
359
330
1F
100
AcDbEntity
  8
0
  6
Continuous
 62
     7
370
    30
100
AcDbLine
 10
59.7334808389
 20
245.9615193599
 30
0.0
 11
59.7334808389
 21
246.9615194074
 31
0.0
  0
LINE
  5
35A
330
1F
100
AcDbEntity
  8
0
  6
Continuous
 62
     7
370
    30
100
AcDbLine
 10
39.826188759
 20
245.9615193599
 30
0.0
 11
59.7334808389
 21
245.9615193599
 31
0.0
  0
LINE
  5
35B
330
1F
100
AcDbEntity
  8
0
  6
Continuous
 62
     7
370
    30
100
AcDbLine
 10
40.7183776144
 20
244.9615193124
 30
0.0
 11
58.8412919835
 21
244.9615193124
 31
0.0
  0
LINE
  5
35C
330
1F
100
AcDbEntity
  8
0
  6
Continuous
 62
     7
370
    30
100
AcDbLine
 10
40.7183776144
 20
244.9615193124
 30
0.0
 11
40.7183776144
 21
245.9615193599
 31
0.0
  0
LINE
  5
35D
330
1F
100
AcDbEntity
  8
0
  6
Continuous
 62
     7
370
    30
100
AcDbLine
 10
58.8412919835
 20
244.9615193124
 30
0.0
 11
58.8412919835
 21
245.9615193599
 31
0.0
  0
LINE
  5
35E
330
1F
100
AcDbEntity
  8
0
  6
Continuous
 62
     7
370
    30
100
AcDbLine
 10
50.2298347249
 20
239.5115194901
 30
0.0
 11
50.3248348739
 21
237.6615193731
 31
0.0
  0
LINE
  5
35F
330
1F
100
AcDbEntity
  8
0
  6
Continuous
 62
     7
370
    30
100
AcDbLine
 10
49.329834873
 20
239.5115194901
 30
0.0
 11
50.2298347249
 21
239.5115194901
 31
0.0
  0
LINE
  5
360
330
1F
100
AcDbEntity
  8
0
  6
Continuous
 62
     7
370
    30
100
AcDbLine
 10
49.234834724
 20
237.6615193731
 30
0.0
 11
49.329834873
 21
239.5115194901
 31
0.0
  0
LINE
  5
361
330
1F
100
AcDbEntity
  8
0
  6
Continuous
 62
     7
370
    30
100
AcDbLine
 10
50.3248348739
 20
237.6615193731
 30
0.0
 11
55.2948348788
 21
237.6615193731
 31
0.0
  0
LINE
  5
362
330
1F
100
AcDbEntity
  8
0
  6
Continuous
 62
     7
370
    30
100
AcDbLine
 10
44.2648347191
 20
237.6615193731
 30
0.0
 11
49.234834724
 21
237.6615193731
 31
0.0
  0
LINE
  5
363
330
1F
100
AcDbEntity
  8
0
  6
Continuous
 62
     7
370
    30
100
AcDbLine
 10
50.3248348739
 20
237.6615193731
 30
0.0
 11
49.2323860909
 21
237.6615193731
 31
0.0
  0
LINE
  5
364
330
1F
100
AcDbEntity
  8
0
  6
Continuous
 62
     7
370
    30
100
AcDbLine
 10
59.9267554202
 20
246.9615194074
 30
0.0
 11
59.9267554202
 21
245.9615193599
 31
0.0
  0
LINE
  5
365
330
1F
100
AcDbEntity
  8
0
  6
Continuous
 62
     7
370
    30
100
AcDbLine
 10
59.9267554202
 20
245.9615193599
 30
0.0
 11
59.7334808389
 21
245.9615193599
 31
0.0
  0
LINE
  5
366
330
1F
100
AcDbEntity
  8
0
  6
Continuous
 62
     7
370
    30
100
AcDbLine
 10
59.7334808389
 20
246.9615194074
 30
0.0
 11
59.9267554202
 21
246.9615194074
 31
0.0
  0
LINE
  5
367
330
1F
100
AcDbEntity
  8
0
  6
Continuous
 62
     7
370
    30
100
AcDbLine
 10
39.6329141777
 20
246.9615194074
 30
0.0
 11
39.6329141777
 21
245.9615193599
 31
0.0
  0
LINE
  5
368
330
1F
100
AcDbEntity
  8
0
  6
Continuous
 62
     7
370
    30
100
AcDbLine
 10
39.6329141777
 20
245.9615193599
 30
0.0
 11
39.826188759
 21
245.9615193599
 31
0.0
  0
LINE
  5
369
330
1F
100
AcDbEntity
  8
0
  6
Continuous
 62
     7
370
    30
100
AcDbLine
 10
39.826188759
 20
246.9615194074
 30
0.0
 11
39.6329141777
 21
246.9615194074
 31
0.0
  0
LINE
  5
36A
330
1F
100
AcDbEntity
  8
0
  6
Continuous
 62
     7
370
    30
100
AcDbLine
 10
60.279835046
 20
244.9746428116
 30
0.0
 11
60.279835046
 21
246.9615194074
 31
0.0
  0
LINE
  5
36B
330
1F
100
AcDbEntity
  8
0
  6
Continuous
 62
     7
370
    30
100
AcDbLine
 10
60.279835046
 20
244.9746428116
 30
0.0
 11
60.1298347414
 21
244.9615193124
 31
0.0
  0
LINE
  5
36C
330
1F
100
AcDbEntity
  8
0
  6
Continuous
 62
     7
370
    30
100
AcDbLine
 10
58.8412919835
 20
244.9615193124
 30
0.0
 11
60.1298347414
 21
244.9615193124
 31
0.0
  0
LINE
  5
36D
330
1F
100
AcDbEntity
  8
0
  6
Continuous
 62
     7
370
    30
100
AcDbLine
 10
59.9267554202
 20
246.9615194074
 30
0.0
 11
60.279835046
 21
246.9615194074
 31
0.0
  0
LINE
  5
36E
330
1F
100
AcDbEntity
  8
0
  6
Continuous
 62
     7
370
    30
100
AcDbLine
 10
60.7798349637
 20
246.9615194074
 30
0.0
 11
60.7798349637
 21
245.018387033
 31
0.0
  0
LWPOLYLINE
  5
36F
330
1F
100
AcDbEntity
  8
0
  6
Continuous
 62
     7
370
    30
100
AcDbPolyline
 90
       10
 70
   128
 43
0.0
 10
60.7798349637
 20
245.018387033
 10
60.7722383235
 20
245.0177224179
 10
60.7496811985
 20
245.0157489454
 10
60.7128474871
 20
245.0125264528
 10
60.6628573735
 20
245.0081527292
 10
60.6012288028
 20
245.00276107
 10
60.5298346756
 20
244.9965149223
 10
60.450844896
 20
244.9896040431
 10
60.3666585417
 20
244.9822389114
 10
60.279835046
 20
244.9746428116
  0
LINE
  5
370
330
1F
100
AcDbEntity
  8
0
  6
Continuous
 62
     7
370
    30
100
AcDbLine
 10
60.279835046
 20
246.9615194074
 30
0.0
 11
60.7798349637
 21
246.9615194074
 31
0.0
  0
LINE
  5
371
330
1F
100
AcDbEntity
  8
0
  6
Continuous
 62
     7
370
    30
100
AcDbLine
 10
39.2798345519
 20
244.9746428116
 30
0.0
 11
39.4298348565
 21
244.9615193124
 31
0.0
  0
LINE
  5
372
330
1F
100
AcDbEntity
  8
0
  6
Continuous
 62
     7
370
    30
100
AcDbLine
 10
39.2798345519
 20
246.9615194074
 30
0.0
 11
39.2798345519
 21
244.9746428116
 31
0.0
  0
LINE
  5
373
330
1F
100
AcDbEntity
  8
0
  6
Continuous
 62
     7
370
    30
100
AcDbLine
 10
40.7183776144
 20
244.9615193124
 30
0.0
 11
39.4298348565
 21
244.9615193124
 31
0.0
  0
LINE
  5
374
330
1F
100
AcDbEntity
  8
0
  6
Continuous
 62
     7
370
    30
100
AcDbLine
 10
39.6329141777
 20
246.9615194074
 30
0.0
 11
39.2798345519
 21
246.9615194074
 31
0.0
  0
LINE
  5
375
330
1F
100
AcDbEntity
  8
0
  6
Continuous
 62
     7
370
    30
100
AcDbLine
 10
38.7798346342
 20
245.018387033
 30
0.0
 11
38.7798346342
 21
246.9615194074
 31
0.0
  0
LWPOLYLINE
  5
376
330
1F
100
AcDbEntity
  8
0
  6
Continuous
 62
     7
370
    30
100
AcDbPolyline
 90
       10
 70
   128
 43
0.0
 10
39.2798345519
 20
244.9746428116
 10
39.1930110562
 20
244.9822389114
 10
39.1088247019
 20
244.9896040431
 10
39.0298349223
 20
244.9965149223
 10
38.9584407951
 20
245.00276107
 10
38.8968122245
 20
245.0081527292
 10
38.8468221109
 20
245.0125264528
 10
38.8099883994
 20
245.0157489454
 10
38.7874312744
 20
245.0177224179
 10
38.7798346342
 20
245.018387033
  0
LINE
  5
377
330
1F
100
AcDbEntity
  8
0
  6
Continuous
 62
     7
370
    30
100
AcDbLine
 10
38.7798346342
 20
246.9615194074
 30
0.0
 11
39.2798345519
 21
246.9615194074
 31
0.0
  0
SPLINE
  5
378
330
1F
100
AcDbEntity
  8
0
  6
Continuous
 62
     7
370
    30
100
AcDbSpline
210
0.0
220
0.0
230
1.0
 70
     8
 71
     3
 72
    14
 73
    10
 74
     0
 42
0.000000001
 43
0.00000001
 40
0.0
 40
0.0
 40
0.0
 40
0.0
 40
0.0160486910212037
 40
0.0386781192227465
 40
0.0792187211243768
 40
0.2145965462785739
 40
0.5334041864584491
 40
0.8557715596577946
 40
1.0
 40
1.0
 40
1.0
 40
1.0
 10
60.06565003021435
 20
247.6386700233698
 30
0.0
 10
60.06565556789452
 20
247.6383435009067
 30
0.0
 10
60.06566891397076
 20
247.637556566026
 30
0.0
 10
60.06584723959075
 20
247.6274066716237
 30
0.0
 10
60.06647582843787
 20
247.5912987973511
 30
0.0
 10
60.06844145638185
 20
247.4788145513484
 30
0.0
 10
60.0716269076597
 20
247.2962170420071
 30
0.0
 10
60.07490832084515
 20
247.1082427008126
 30
0.0
 10
60.07686481827952
 20
246.9961638597784
 30
0.0
 10
60.07746958704362
 20
246.9615194074096
 30
0.0
  0
SPLINE
  5
379
330
1F
100
AcDbEntity
  8
0
  6
Continuous
 62
     7
370
    30
100
AcDbSpline
210
0.0
220
0.0
230
1.0
 70
     8
 71
     3
 72
    14
 73
    10
 74
     0
 42
0.000000001
 43
0.00000001
 40
0.0
 40
0.0
 40
0.0
 40
0.0
 40
0.0160486910078728
 40
0.0386781191906182
 40
0.0792187210585732
 40
0.2145965461003179
 40
0.533404147755431
 40
0.8557715499725447
 40
1.0
 40
1.0
 40
1.0
 40
1.0
 10
39.49401956769296
 20
247.6386700233698
 30
0.0
 10
39.49401403001279
 20
247.6383435009068
 30
0.0
 10
39.49400068393652
 20
247.6375565660261
 30
0.0
 10
39.49382235831685
 20
247.6274066716227
 30
0.0
 10
39.49319376946553
 20
247.5912987973659
 30
0.0
 10
39.4912281417644
 20
247.4788145597181
 30
0.0
 10
39.4880426896498
 20
247.2962170563374
 30
0.0
 10
39.48476127713318
 20
247.108242712686
 30
0.0
 10
39.48280477963727
 20
246.9961638621692
 30
0.0
 10
39.48220001086369
 20
246.9615194074165
 30
0.0
  0
LINE
  5
37A
330
1F
100
AcDbEntity
  8
0
  6
Continuous
 62
     7
370
    30
100
AcDbLine
 10
40.3119944083
 20
244.9615193124
 30
0.0
 11
40.3119944083
 21
243.9615193813
 31
0.0
  0
LINE
  5
37B
330
1F
100
AcDbEntity
  8
0
  6
Continuous
 62
     7
370
    30
100
AcDbLine
 10
59.2476751896
 20
244.9615193124
 30
0.0
 11
59.2476751896
 21
243.9615193813
 31
0.0
  0
LINE
  5
37C
330
1F
100
AcDbEntity
  8
0
  6
Continuous
 62
     7
370
    30
100
AcDbLine
 10
39.0972873314
 20
244.9613670412
 30
0.0
 11
39.44664651
 21
244.9246480189
 31
0.0
  0
LINE
  5
37D
330
1F
100
AcDbEntity
  8
0
  6
Continuous
 62
     7
370
    30
100
AcDbLine
 10
39.44664651
 20
244.9246480189
 30
0.0
 11
39.4472895787
 21
244.9615193124
 31
0.0
  0
LINE
  5
37E
330
1F
100
AcDbEntity
  8
0
  6
Continuous
 62
     7
370
    30
100
AcDbLine
 10
40.3119944083
 20
243.9615193813
 30
0.0
 11
39.7298351364
 21
243.9615193813
 31
0.0
  0
LINE
  5
37F
330
1F
100
AcDbEntity
  8
0
  6
Continuous
 62
     7
370
    30
100
AcDbLine
 10
39.0909863775
 20
244.6003682505
 30
0.0
 11
39.7298351364
 21
243.9615193813
 31
0.0
  0
LINE
  5
380
330
1F
100
AcDbEntity
  8
0
  6
Continuous
 62
     7
370
    30
100
AcDbLine
 10
39.0909863775
 20
244.6003682505
 30
0.0
 11
39.0972873314
 21
244.9613670412
 31
0.0
  0
LINE
  5
381
330
1F
100
AcDbEntity
  8
0
  6
Continuous
 62
     7
370
    30
100
AcDbLine
 10
60.1130230879
 20
244.9246480189
 30
0.0
 11
60.1123800192
 21
244.9615193124
 31
0.0
  0
LINE
  5
382
330
1F
100
AcDbEntity
  8
0
  6
Continuous
 62
     7
370
    30
100
AcDbLine
 10
60.4623822665
 20
244.9613670412
 30
0.0
 11
60.1130230879
 21
244.9246480189
 31
0.0
  0
LINE
  5
383
330
1F
100
AcDbEntity
  8
0
  6
Continuous
 62
     7
370
    30
100
AcDbLine
 10
60.4623822665
 20
244.9613670412
 30
0.0
 11
60.4684905961
 21
244.6114204883
 31
0.0
  0
LINE
  5
384
330
1F
100
AcDbEntity
  8
0
  6
Continuous
 62
     7
370
    30
100
AcDbLine
 10
59.8298344615
 20
243.9615193813
 30
0.0
 11
60.4684905961
 21
244.6114204883
 31
0.0
  0
LINE
  5
385
330
1F
100
AcDbEntity
  8
0
  6
Continuous
 62
     7
370
    30
100
AcDbLine
 10
59.8298344615
 20
243.9615193813
 30
0.0
 11
59.2476751896
 21
243.9615193813
 31
0.0
  0
LINE
  5
386
330
1F
100
AcDbEntity
  8
0
  6
CENTERX2
 62
     7
370
     0
100
AcDbLine
 10
49.779834799
 20
260.8554943876
 30
0.0
 11
49.779834799
 21
230.5136994418
 31
0.0
  0
LINE
  5
387
330
1F
100
AcDbEntity
  8
0
  6
Continuous
 62
     7
370
     0
100
AcDbLine
 10
59.9887152884
 20
251.3115194074
 30
0.0
 11
69.779834799
 21
254.8751954694
 31
0.0
  0
LINE
  5
388
330
1F
100
AcDbEntity
  8
0
  6
Continuous
 62
     7
370
     0
100
AcDbLine
 10
69.779834799
 20
254.8751954694
 30
0.0
 11
69.779834799
 21
265.8751954694
 31
0.0
  0
LINE
  5
389
330
1F
100
AcDbEntity
  8
0
  6
Continuous
 62
     7
370
     0
100
AcDbLine
 10
69.779834799
 20
265.8751954694
 30
0.0
 11
29.779834799
 21
265.8751954694
 31
0.0
  0
LINE
  5
38A
330
1F
100
AcDbEntity
  8
0
  6
Continuous
 62
     7
370
     0
100
AcDbLine
 10
29.779834799
 20
265.8751954694
 30
0.0
 11
29.779834799
 21
254.8751954694
 31
0.0
  0
LINE
  5
38B
330
1F
100
AcDbEntity
  8
0
  6
Continuous
 62
     7
370
     0
100
AcDbLine
 10
29.779834799
 20
254.8751954694
 30
0.0
 11
39.5709543095
 21
251.3115194074
 31
0.0
  0
LINE
  5
38C
330
1F
100
AcDbEntity
  8
0
  6
Continuous
 62
     7
370
    30
100
AcDbLine
 10
39.5709543095
 20
251.3115194074
 30
0.0
 11
39.7309542643
 21
251.3115194074
 31
0.0
  0
LINE
  5
38D
330
1F
100
AcDbEntity
  8
0
  6
Continuous
 62
     7
370
    30
100
AcDbLine
 10
59.8287153336
 20
251.3115194074
 30
0.0
 11
59.9887152884
 21
251.3115194074
 31
0.0
  0
ARC
  5
38E
330
1F
100
AcDbEntity
  8
0
  6
Continuous
 62
     7
370
     0
100
AcDbCircle
 10
49.779834799
 20
246.9615194074
 30
0.0
 40
10.94999999999782
100
AcDbArc
 50
23.4070163216
 51
156.5929836785
  0
CIRCLE
  5
38F
330
1F
100
AcDbEntity
  8
0
  6
Continuous
 62
     7
370
     0
100
AcDbCircle
 10
49.779834799
 20
257.9115194074
 30
0.0
 40
0.0000999999999962
  0
HATCH
  5
390
330
1F
100
AcDbEntity
  8
0
  6
Continuous
 62
     7
100
AcDbHatch
 10
0.0
 20
0.0
 30
0.0
210
0.0
220
0.0
230
1.0
  2
ANSI31
 70
     0
 71
     0
 91
        1
 92
        0
 93
        8
 72
     2
 10
49.77983479895627
 20
246.9615194074155
 40
10.94999999999429
 50
203.4070163215439
 51
336.5929836784417
 73
     0
 72
     1
 10
59.82871533361519
 20
251.3115194074099
 11
59.98871528844672
 21
251.3115194074098
 72
     1
 10
59.98871528844672
 20
251.3115194074098
 11
69.77983479895626
 21
254.8751954693784
 72
     1
 10
69.77983479895626
 20
254.8751954693784
 11
69.77983479895626
 21
265.8751954693784
 72
     1
 10
69.77983479895626
 20
265.8751954693784
 11
29.77983479895626
 21
265.8751954693784
 72
     1
 10
29.77983479895626
 20
265.8751954693784
 11
29.77983479895626
 21
254.8751954693784
 72
     1
 10
29.77983479895626
 20
254.8751954693784
 11
39.57095430946064
 21
251.3115194074099
 72
     1
 10
39.57095430946064
 20
251.3115194074099
 11
39.73095426428967
 21
251.3115194074099
 97
        0
 75
     0
 76
     1
 52
0.0
 41
0.5
 77
     0
 78
     1
 53
45.0
 43
0.0
 44
0.0
 45
-1.122532015133644
 46
1.122532015133644
 79
     0
 98
        1
 10
0.0
 20
0.0
  0
DIMENSION
  5
391
330
1F
100
AcDbEntity
  8
0
  6
Continuous
 62
     7
370
     0
100
AcDbDimension
  2
_D_18
 10
74.5260049628
 20
251.3115194074
 30
0.0
 11
74.5260049628
 21
246.8727457804
 31
0.0
 70
   160
  1
<>
 71
     2
 42
-1.0
  3
SLDDIMSTYLE4
100
AcDbAlignedDimension
 13
49.779834799
 23
257.9115194074
 33
0.0
 14
59.9887152884
 24
251.3115194074
 34
0.0
 50
90.0
100
AcDbRotatedDimension
  0
MTEXT
  5
39C
330
1F
100
AcDbEntity
  8
0
  6
Continuous
 62
     7
370
     0
100
AcDbMText
 10
74.8612522283
 20
242.0463741368
 30
0.0
 40
2.38125
 41
0.0
 71
     1
 72
     1
  1
(0.260)
  7
SLDTEXTSTYLE0
 11
-3.269436733918102E-15
 21
1.0
 31
0.0
 73
     1
 44
1.0
  0
MTEXT
  5
39D
330
1F
100
AcDbEntity
  8
0
  6
Continuous
 62
     7
370
     0
100
AcDbMText
 10
56.2801433566
 20
240.8824396618
 30
0.0
 40
3.5
 41
0.0
 71
     1
 72
     1
  1
Note1
  7
SLDTEXTSTYLE0
 73
     1
 44
1.0
  0
LEADER
  5
39E
330
1F
100
AcDbEntity
  8
0
  6
Continuous
 62
     7
370
     0
100
AcDbLeader
  3
SLDDIMSTYLE11
 76
     3
 10
69.3363378636
 20
244.9399318228
 30
0.0
 10
66.9480322906
 20
236.3269424823
 30
0.0
 10
56.2563067608
 20
236.3269424823
 30
0.0
  0
SPLINE
  5
39F
330
1F
100
AcDbEntity
  8
0
  6
Continuous
 62
     7
370
    30
100
AcDbSpline
210
0.0
220
0.0
230
1.0
 70
     8
 71
     3
 72
     8
 73
     4
 74
     0
 42
0.000000001
 43
0.00000001
 40
0.0
 40
0.0
 40
0.0
 40
0.0
 40
1.0
 40
1.0
 40
1.0
 40
1.0
 10
137.9023110232945
 20
129.0150944103386
 30
0.0
 10
138.0786627386426
 20
128.4730455515157
 30
0.0
 10
138.232786413384
 20
127.9541774608851
 30
0.0
 10
138.3575358170621
 20
127.4839776889223
 30
0.0
  0
SPLINE
  5
3A0
330
1F
100
AcDbEntity
  8
0
  6
Continuous
 62
     7
370
    30
100
AcDbSpline
210
0.0
220
0.0
230
1.0
 70
     8
 71
     3
 72
    11
 73
     7
 74
     0
 42
0.000000001
 43
0.00000001
 40
0.0
 40
0.0
 40
0.0
 40
0.0
 40
0.2461559900642939
 40
0.5001331702962835
 40
0.7399022436306786
 40
1.0
 40
1.0
 40
1.0
 40
1.0
 10
138.3575358175885
 20
127.4839776851921
 30
0.0
 10
138.3733301703614
 20
127.42449260898
 30
0.0
 10
138.4054207147474
 20
127.3036324188887
 30
0.0
 10
138.4480668585197
 20
127.1305544965007
 30
0.0
 10
138.4896389011404
 20
126.9583515820898
 30
0.0
 10
138.5145494025076
 20
126.8479685989573
 30
0.0
 10
138.5275111857879
 20
126.7905325689028
 30
0.0
  0
SPLINE
  5
3A1
330
1F
100
AcDbEntity
  8
0
  6
Continuous
 62
     7
370
    30
100
AcDbSpline
210
0.0
220
0.0
230
1.0
 70
     8
 71
     3
 72
    16
 73
    12
 74
     0
 42
0.000000001
 43
0.00000001
 40
0.0
 40
0.0
 40
0.0
 40
0.0
 40
0.0910244499167842
 40
0.1739050307361379
 40
0.2497871288636596
 40
0.4996156484621493
 40
0.6246972224743284
 40
0.7498179383322688
 40
0.8749236377113366
 40
0.9363493779870123
 40
1.0
 40
1.0
 40
1.0
 40
1.0
 10
136.091993365271
 20
124.5282040355778
 30
0.0
 10
136.1703928693505
 20
124.5896299539089
 30
0.0
 10
136.3201775500501
 20
124.7069860733376
 30
0.0
 10
136.5333856849756
 20
124.8796093441683
 30
0.0
 10
136.8795636486554
 20
125.166819137594
 30
0.0
 10
137.2551610401631
 20
125.4962087045698
 30
0.0
 10
137.6597237132411
 20
125.8788164082836
 30
0.0
 10
137.9567459741334
 20
126.174531882214
 30
0.0
 10
138.1973183893754
 20
126.4268790265403
 30
0.0
 10
138.3868718873307
 20
126.6329444325297
 30
0.0
 10
138.4800850157281
 20
126.7373852977548
 30
0.0
 10
138.527520626212
 20
126.7905346371945
 30
0.0
  0
SPLINE
  5
3A2
330
1F
100
AcDbEntity
  8
0
  6
Continuous
 62
     7
370
    30
100
AcDbSpline
210
0.0
220
0.0
230
1.0
 70
     8
 71
     3
 72
    10
 73
     6
 74
     0
 42
0.000000001
 43
0.00000001
 40
0.0
 40
0.0
 40
0.0
 40
0.0
 40
0.5
 40
0.5
 40
1.0
 40
1.0
 40
1.0
 40
1.0
 10
134.8757146925527
 20
125.0638286031179
 30
0.0
 10
134.9945839380922
 20
124.8836095200896
 30
0.0
 10
135.1638850243725
 20
124.7426599049763
 30
0.0
 10
135.5782563126905
 20
124.5601553680953
 30
0.0
 10
135.8247055063823
 20
124.5180317732179
 30
0.0
 10
136.0919925022424
 20
124.5282054135694
 30
0.0
  0
SPLINE
  5
3A3
330
1F
100
AcDbEntity
  8
0
  6
Continuous
 62
     7
370
    30
100
AcDbSpline
210
0.0
220
0.0
230
1.0
 70
     8
 71
     3
 72
    10
 73
     6
 74
     0
 42
0.000000001
 43
0.00000001
 40
0.0
 40
0.0
 40
0.0
 40
0.0
 40
0.5000000000000001
 40
0.5000000000000001
 40
1.0
 40
1.0
 40
1.0
 40
1.0
 10
134.8482132339614
 20
126.6539354092911
 30
0.0
 10
134.7269712468237
 20
126.3508612979322
 30
0.0
 10
134.6660338216448
 20
126.0500685705033
 30
0.0
 10
134.6754637652637
 20
125.505921674584
 30
0.0
 10
134.7458072597223
 20
125.2607828137465
 30
0.0
 10
134.8757146925527
 20
125.0638286031179
 30
0.0
  0
SPLINE
  5
3A4
330
1F
100
AcDbEntity
  8
0
  6
Continuous
 62
     7
370
    30
100
AcDbSpline
210
0.0
220
0.0
230
1.0
 70
     8
 71
     3
 72
    10
 73
     6
 74
     0
 42
0.000000001
 43
0.00000001
 40
0.0
 40
0.0
 40
0.0
 40
0.0
 40
0.5
 40
0.5
 40
1.0
 40
1.0
 40
1.0
 40
1.0
 10
137.9023230969754
 20
129.0150977546923
 30
0.0
 10
137.8181857282928
 20
129.0097558128836
 30
0.0
 10
137.7320093482192
 20
128.9994140109975
 30
0.0
 10
137.5564001203434
 20
128.9687242866147
 30
0.0
 10
137.4672510663816
 20
128.9484150355351
 30
0.0
 10
137.3775256280336
 20
128.92335731775
 30
0.0
  0
SPLINE
  5
3A5
330
1F
100
AcDbEntity
  8
0
  6
Continuous
 62
     7
370
    30
100
AcDbSpline
210
0.0
220
0.0
230
1.0
 70
     8
 71
     3
 72
    15
 73
    11
 74
     0
 42
0.000000001
 43
0.00000001
 40
0.0
 40
0.0
 40
0.0
 40
0.0
 40
0.0630815680712473
 40
0.1243349132237411
 40
0.2487052414950545
 40
0.3730774289156478
 40
0.497409430214816
 40
0.7459538947461375
 40
0.8644265772355219
 40
1.0
 40
1.0
 40
1.0
 40
1.0
 10
148.3067224341508
 20
116.8621808499005
 30
0.0
 10
148.2559725468478
 20
116.8163507776994
 30
0.0
 10
148.155943599774
 20
116.7260188753008
 30
0.0
 10
147.958567357579
 20
116.5424534923284
 30
0.0
 10
147.7166895973192
 20
116.3095328188272
 30
0.0
 10
147.4332779378495
 20
116.0225110782427
 30
0.0
 10
147.0660838287669
 20
115.6318992912797
 30
0.0
 10
146.7192822189639
 20
115.2349419258861
 30
0.0
 10
146.3784987850682
 20
114.8217273056272
 30
0.0
 10
146.212070844166
 20
114.6099515124413
 30
0.0
 10
146.1232554475701
 20
114.4969359276828
 30
0.0
  0
SPLINE
  5
3A6
330
1F
100
AcDbEntity
  8
0
  6
Continuous
 62
     7
370
    30
100
AcDbSpline
210
0.0
220
0.0
230
1.0
 70
     8
 71
     3
 72
     8
 73
     4
 74
     0
 42
0.000000001
 43
0.00000001
 40
0.0
 40
0.0
 40
0.0
 40
0.0
 40
1.0
 40
1.0
 40
1.0
 40
1.0
 10
148.3067226647439
 20
116.8621801738261
 30
0.0
 10
148.641524895642
 20
116.7904223129475
 30
0.0
 10
149.0041342581145
 20
116.6985381581967
 30
0.0
 10
149.3949341654351
 20
116.5876664970411
 30
0.0
  0
SPLINE
  5
3A7
330
1F
100
AcDbEntity
  8
0
  6
Continuous
 62
     7
370
    30
100
AcDbSpline
210
0.0
220
0.0
230
1.0
 70
     8
 71
     3
 72
    12
 73
     8
 74
     0
 42
0.000000001
 43
0.00000001
 40
0.0
 40
0.0
 40
0.0
 40
0.0
 40
0.1555205883066677
 40
0.3196441637564845
 40
0.4975459299916433
 40
0.7293949608331268
 40
1.0
 40
1.0
 40
1.0
 40
1.0
 10
149.3949341156062
 20
116.5876665068904
 30
0.0
 10
149.4546065456615
 20
116.570625394249
 30
0.0
 10
149.5772523265967
 20
116.5356004997379
 30
0.0
 10
149.7728659463666
 20
116.4774139340924
 30
0.0
 10
150.002474375045
 20
116.4074744125932
 30
0.0
 10
150.2796656276028
 20
116.3200140778763
 30
0.0
 10
150.4893403798249
 20
116.2512031003326
 30
0.0
 10
150.6022642228668
 20
116.2141437980306
 30
0.0
  0
SPLINE
  5
3A8
330
1F
100
AcDbEntity
  8
0
  6
Continuous
 62
     7
370
    30
100
AcDbSpline
210
0.0
220
0.0
230
1.0
 70
     8
 71
     3
 72
     9
 73
     5
 74
     0
 42
0.000000001
 43
0.00000001
 40
0.0
 40
0.0
 40
0.0
 40
0.0
 40
0.5
 40
1.0
 40
1.0
 40
1.0
 40
1.0
 10
150.5183974778223
 20
115.7824851788093
 30
0.0
 10
150.5389146332155
 20
115.8559535229449
 30
0.0
 10
150.5734780702573
 20
116.0016940667094
 30
0.0
 10
150.5948970799648
 20
116.1440650811742
 30
0.0
 10
150.6022698080238
 20
116.21416389601
 30
0.0
  0
SPLINE
  5
3A9
330
1F
100
AcDbEntity
  8
0
  6
Continuous
 62
     7
370
    30
100
AcDbSpline
210
0.0
220
0.0
230
1.0
 70
     8
 71
     3
 72
    14
 73
    10
 74
     0
 42
0.000000001
 43
0.00000001
 40
0.0
 40
0.0
 40
0.0
 40
0.0
 40
0.25
 40
0.25
 40
0.5
 40
0.5
 40
0.75
 40
0.75
 40
1.0
 40
1.0
 40
1.0
 40
1.0
 10
146.1232450619913
 20
114.4969519336836
 30
0.0
 10
146.1125605551308
 20
114.2162633141538
 30
0.0
 10
146.1589506373433
 20
113.9612211887158
 30
0.0
 10
146.3599292458389
 20
113.5337494359122
 30
0.0
 10
146.5134006756469
 20
113.3639507451337
 30
0.0
 10
146.9065557101331
 20
113.1338462875569
 30
0.0
 10
147.1443688867153
 20
113.0747392072946
 30
0.0
 10
147.6711585308687
 20
113.0761717746384
 30
0.0
 10
147.9579625917659
 20
113.1367560500982
 30
0.0
 10
148.2489738104017
 20
113.2531715109941
 30
0.0
  0
CIRCLE
  5
3AA
330
1F
100
AcDbEntity
  8
0
  6
Continuous
 62
     7
370
    30
100
AcDbCircle
 10
142.3889166978
 20
120.7938764274
 30
0.0
 40
10.04888053466652
  0
LINE
  5
3AB
330
1F
100
AcDbEntity
  8
0
  6
Continuous
 62
     7
370
    30
100
AcDbLine
 10
142.7239166978
 20
130.3379989644
 30
0.0
 11
142.7239166978
 21
129.8138764274
 31
0.0
  0
ARC
  5
3AC
330
1F
100
AcDbEntity
  8
0
  6
Continuous
 62
     7
370
    30
100
AcDbCircle
 10
142.5239166978
 20
129.8138764274
 30
0.0
 40
0.2000000000000171
100
AcDbArc
 50
270.0
 51
359.9999999999
  0
LINE
  5
3AD
330
1F
100
AcDbEntity
  8
0
  6
Continuous
 62
     7
370
    30
100
AcDbLine
 10
142.5239166978
 20
129.6138764274
 30
0.0
 11
142.2539166978
 21
129.6138764274
 31
0.0
  0
ARC
  5
3AE
330
1F
100
AcDbEntity
  8
0
  6
Continuous
 62
     7
370
    30
100
AcDbCircle
 10
142.2539166978
 20
129.8138764274
 30
0.0
 40
0.1999999999999886
100
AcDbArc
 50
180.0
 51
270.0
  0
LINE
  5
3AF
330
1F
100
AcDbEntity
  8
0
  6
Continuous
 62
     7
370
    30
100
AcDbLine
 10
142.0539166978
 20
130.3379989644
 30
0.0
 11
142.0539166978
 21
129.8138764274
 31
0.0
  0
LINE
  5
3B0
330
1F
100
AcDbEntity
  8
0
  6
Continuous
 62
     7
370
    30
100
AcDbLine
 10
134.129637535
 20
125.5883323623
 30
0.0
 11
134.165068417
 21
125.5529014804
 31
0.0
  0
ARC
  5
3B1
330
1F
100
AcDbEntity
  8
0
  6
Continuous
 62
     7
370
    30
100
AcDbCircle
 10
142.3889166978
 20
120.7938764274
 30
0.0
 40
9.501578816175755
100
AcDbArc
 50
149.9426386398
 51
206.9835404629
  0
LINE
  5
3B2
330
1F
100
AcDbEntity
  8
0
  6
Continuous
 62
     7
370
    30
100
AcDbLine
 10
134.3013867935
 20
116.7018891293
 30
0.0
 11
133.9217091429
 21
116.4826821355
 31
0.0
  0
ARC
  5
3B3
330
1F
100
AcDbEntity
  8
0
  6
Continuous
 62
     7
370
    30
100
AcDbCircle
 10
134.4513867935
 20
116.4420815082
 30
0.0
 40
0.3000000000000078
100
AcDbArc
 50
30.0
 51
120.0
  0
LINE
  5
3B4
330
1F
100
AcDbEntity
  8
0
  6
Continuous
 62
     7
370
    30
100
AcDbLine
 10
134.7111944147
 20
116.5920815082
 30
0.0
 11
134.9111944147
 21
116.2456713467
 31
0.0
  0
ARC
  5
3B5
330
1F
100
AcDbEntity
  8
0
  6
Continuous
 62
     7
370
    30
100
AcDbCircle
 10
134.6513867935
 20
116.0956713467
 30
0.0
 40
0.3000000000000324
100
AcDbArc
 50
300.0
 51
30.0
  0
LINE
  5
3B6
330
1F
100
AcDbEntity
  8
0
  6
Continuous
 62
     7
370
    30
100
AcDbLine
 10
134.8013867935
 20
115.8358637255
 30
0.0
 11
134.4217091429
 21
115.6166567317
 31
0.0
  0
ARC
  5
3B7
330
1F
100
AcDbEntity
  8
0
  6
Continuous
 62
     7
370
    30
100
AcDbCircle
 10
142.3889166978
 20
120.7938764274
 30
0.0
 40
9.501578816175758
100
AcDbArc
 50
213.0164595371
 51
267.9794868457
  0
LINE
  5
3B8
330
1F
100
AcDbEntity
  8
0
  6
Continuous
 62
     7
370
    30
100
AcDbLine
 10
142.0539166978
 20
111.7738764274
 30
0.0
 11
142.0539166978
 21
111.2982050452
 31
0.0
  0
ARC
  5
3B9
330
1F
100
AcDbEntity
  8
0
  6
Continuous
 62
     7
370
    30
100
AcDbCircle
 10
142.2539166978
 20
111.7738764274
 30
0.0
 40
0.2000000000000028
100
AcDbArc
 50
90.0
 51
180.0
  0
LINE
  5
3BA
330
1F
100
AcDbEntity
  8
0
  6
Continuous
 62
     7
370
    30
100
AcDbLine
 10
142.5239166978
 20
111.9738764274
 30
0.0
 11
142.2539166978
 21
111.9738764274
 31
0.0
  0
ARC
  5
3BB
330
1F
100
AcDbEntity
  8
0
  6
Continuous
 62
     7
370
    30
100
AcDbCircle
 10
142.5239166978
 20
111.7738764274
 30
0.0
 40
0.2000000000000028
100
AcDbArc
 50
0.0
 51
90.0
  0
LINE
  5
3BC
330
1F
100
AcDbEntity
  8
0
  6
Continuous
 62
     7
370
    30
100
AcDbLine
 10
142.7239166978
 20
111.7738764274
 30
0.0
 11
142.7239166978
 21
111.2982050452
 31
0.0
  0
ARC
  5
3BD
330
1F
100
AcDbEntity
  8
0
  6
Continuous
 62
     7
370
    30
100
AcDbCircle
 10
142.3889166978
 20
120.7938764274
 30
0.0
 40
9.501578816175783
100
AcDbArc
 50
272.0205131543
 51
300.0573613602
  0
LINE
  5
3BE
330
1F
100
AcDbEntity
  8
0
  6
Continuous
 62
     7
370
    30
100
AcDbLine
 10
147.1479417507
 20
112.5700281466
 30
0.0
 11
147.1833724203
 21
112.5345971414
 31
0.0
  0
ARC
  5
3BF
330
1F
100
AcDbEntity
  8
0
  6
Continuous
 62
     7
370
    30
100
AcDbCircle
 10
142.3889166978
 20
120.7938764274
 30
0.0
 40
9.549999999999995
100
AcDbArc
 50
92.0102643682
 51
149.865123477
  0
ARC
  5
3C0
330
1F
100
AcDbEntity
  8
0
  6
Continuous
 62
     7
370
    30
100
AcDbCircle
 10
142.3889166978
 20
120.7938764274
 30
0.0
 40
9.55000000000002
100
AcDbArc
 50
300.1348750494
 51
87.9897356318
  0
LINE
  5
3C1
330
1F
100
AcDbEntity
  8
0
  6
Continuous
 62
     7
370
    30
100
AcDbLine
 10
147.1479417507
 20
112.5700281466
 30
0.0
 11
134.165068417
 21
125.5529014804
 31
0.0
  0
SPLINE
  5
3C2
330
1F
100
AcDbEntity
  8
0
  6
Continuous
 62
     7
370
    30
100
AcDbSpline
210
0.0
220
0.0
230
1.0
 70
     8
 71
     3
 72
    11
 73
     7
 74
     0
 42
0.000000001
 43
0.00000001
 40
0.0
 40
0.0
 40
0.0
 40
0.0
 40
0.2445400472273322
 40
0.4977816334977799
 40
0.738397165459184
 40
1.0
 40
1.0
 40
1.0
 40
1.0
 10
150.3748001357858
 20
119.910700687201
 30
0.0
 10
150.4509991157446
 20
119.8917426932248
 30
0.0
 10
150.6061084859471
 20
119.8531521175039
 30
0.0
 10
150.8452239961531
 20
119.7942085562728
 30
0.0
 10
151.0954033336849
 20
119.7340571839482
 30
0.0
 10
151.2667159153149
 20
119.6935834750897
 30
0.0
 10
151.3559517137964
 20
119.672500938751
 30
0.0
  0
SPLINE
  5
3C3
330
1F
100
AcDbEntity
  8
0
  6
Continuous
 62
     7
370
    30
100
AcDbSpline
210
0.0
220
0.0
230
1.0
 70
     8
 71
     3
 72
     8
 73
     4
 74
     0
 42
0.000000001
 43
0.00000001
 40
0.0
 40
0.0
 40
0.0
 40
0.0
 40
1.0
 40
1.0
 40
1.0
 40
1.0
 10
149.3964222574554
 20
120.1693087295338
 30
0.0
 10
149.6964381453031
 20
120.0861962285133
 30
0.0
 10
150.0218968615208
 20
119.9996458843738
 30
0.0
 10
150.3748001374274
 20
119.9107006877123
 30
0.0
  0
SPLINE
  5
3C4
330
1F
100
AcDbEntity
  8
0
  6
Continuous
 62
     7
370
    30
100
AcDbSpline
210
0.0
220
0.0
230
1.0
 70
     8
 71
     3
 72
    14
 73
    10
 74
     0
 42
0.000000001
 43
0.00000001
 40
0.0
 40
0.0
 40
0.0
 40
0.0
 40
0.1783778146710528
 40
0.3433405283564985
 40
0.501002953497039
 40
0.6263723093602771
 40
0.750502490314265
 40
0.8744528803133073
 40
1.0
 40
1.0
 40
1.0
 40
1.0
 10
148.6783373380286
 20
122.1253016833786
 30
0.0
 10
148.7149017230892
 20
122.0103125328388
 30
0.0
 10
148.7852806281614
 20
121.7889821180987
 30
0.0
 10
148.8957138039301
 20
121.4636786326548
 30
0.0
 10
148.9994814205646
 20
121.1713526299107
 30
0.0
 10
149.0989710822743
 20
120.9052672978069
 30
0.0
 10
149.1938843641544
 20
120.6604773484755
 30
0.0
 10
149.2926954636405
 20
120.4155271578501
 30
0.0
 10
149.361699121191
 20
120.2517310713656
 30
0.0
 10
149.3964217541512
 20
120.1693088984952
 30
0.0
  0
SPLINE
  5
3C5
330
1F
100
AcDbEntity
  8
0
  6
Continuous
 62
     7
370
    30
100
AcDbSpline
210
0.0
220
0.0
230
1.0
 70
     8
 71
     3
 72
    10
 73
     6
 74
     0
 42
0.000000001
 43
0.00000001
 40
0.0
 40
0.0
 40
0.0
 40
0.0
 40
0.5
 40
0.5
 40
1.0
 40
1.0
 40
1.0
 40
1.0
 10
148.6783355683855
 20
122.1253109808166
 30
0.0
 10
148.8896189706858
 20
122.4128097591491
 30
0.0
 10
149.1170009921354
 20
122.7101774979163
 30
0.0
 10
149.621977801838
 20
123.328410421818
 30
0.0
 10
149.8992783893143
 20
123.6483141477541
 30
0.0
 10
150.193009388423
 20
123.9738067896403
 30
0.0
  0
SPLINE
  5
3C6
330
1F
100
AcDbEntity
  8
0
  6
Continuous
 62
     7
370
    30
100
AcDbSpline
210
0.0
220
0.0
230
1.0
 70
     8
 71
     3
 72
     8
 73
     4
 74
     0
 42
0.000000001
 43
0.00000001
 40
-3.245179931806578
 40
-3.245179931806578
 40
-3.245179931806578
 40
-3.245179931806578
 40
-3.099000707003925
 40
-3.099000707003925
 40
-3.099000707003925
 40
-3.099000707003925
 10
150.193009388423
 20
123.9738067896403
 30
0.0
 10
150.2208800274203
 20
124.0046911292089
 30
0.0
 10
150.248893555395
 20
124.0356294820749
 30
0.0
 10
150.2770450449359
 20
124.0666240801807
 30
0.0
  0
SPLINE
  5
3C7
330
1F
100
AcDbEntity
  8
0
  6
Continuous
 62
     7
370
    30
100
AcDbSpline
210
0.0
220
0.0
230
1.0
 70
     8
 71
     3
 72
    14
 73
    10
 74
     0
 42
0.000000001
 43
0.00000001
 40
0.0
 40
0.0
 40
0.0
 40
0.0
 40
0.2499999999999999
 40
0.2499999999999999
 40
0.4999999999999999
 40
0.4999999999999999
 40
0.7499999999999998
 40
0.7499999999999998
 40
1.0
 40
1.0
 40
1.0
 40
1.0
 10
151.3559517884588
 20
119.6724775882971
 30
0.0
 10
151.5905710401189
 20
119.9696164897847
 30
0.0
 10
151.7584434888027
 20
120.384047221823
 30
0.0
 10
151.9035448502521
 20
121.3107828182666
 30
0.0
 10
151.8798721050136
 20
121.8224209668529
 30
0.0
 10
151.6491468517061
 20
122.7605056906528
 30
0.0
 10
151.4426511073567
 20
123.1877219098646
 30
0.0
 10
150.9164782804462
 20
123.8157609314065
 30
0.0
 10
150.5973061366149
 20
124.0153431590156
 30
0.0
 10
150.277041399362
 20
124.0666230705609
 30
0.0
  0
SPLINE
  5
3C8
330
1F
100
AcDbEntity
  8
0
  6
Continuous
 62
     7
370
    30
100
AcDbSpline
210
0.0
220
0.0
230
1.0
 70
     8
 71
     3
 72
    16
 73
    12
 74
     0
 42
0.000000001
 43
0.00000001
 40
-4.293207004863284
 40
-4.293207004863284
 40
-4.293207004863284
 40
-4.293207004863284
 40
-3.870850993001325
 40
-3.870850993001325
 40
-2.895095162689235
 40
-2.895095162689235
 40
-1.927313665233105
 40
-1.927313665233105
 40
-0.963145464695039
 40
-0.963145464695039
 40
-0.1657612085289717
 40
-0.1657612085289717
 40
-0.1657612085289717
 40
-0.1657612085289717
 10
145.6616628712108
 20
128.6820010567227
 30
0.0
 10
145.6469661505039
 20
128.7737873206847
 30
0.0
 10
145.6204596836832
 20
128.8655169588607
 30
0.0
 10
145.4940057385256
 20
129.1656592437977
 30
0.0
 10
145.3450574729392
 20
129.3653924512573
 30
0.0
 10
144.9444120397819
 20
129.7209300106759
 30
0.0
 10
144.6974168542199
 20
129.8736606588362
 30
0.0
 10
144.1373599171474
 20
130.1127006886898
 30
0.0
 10
143.8299417856509
 20
130.1969533370448
 30
0.0
 10
143.2488758476202
 20
130.2781592236288
 30
0.0
 10
142.9827913594695
 20
130.2871047107162
 30
0.0
 10
142.7239167057954
 20
130.2681223630452
 30
0.0
  0
SPLINE
  5
3C9
330
1F
100
AcDbEntity
  8
0
  6
Continuous
 62
     7
370
    30
100
AcDbSpline
210
0.0
220
0.0
230
1.0
 70
     8
 71
     3
 72
     8
 73
     4
 74
     0
 42
0.000000001
 43
0.00000001
 40
0.0
 40
0.0
 40
0.0
 40
0.0
 40
1.0
 40
1.0
 40
1.0
 40
1.0
 10
145.6616640734349
 20
128.6820012827102
 30
0.0
 10
145.267859611806
 20
128.3243183610904
 30
0.0
 10
144.8840586278718
 20
127.9914851231059
 30
0.0
 10
144.5153362760734
 20
127.6940952639594
 30
0.0
  0
SPLINE
  5
3CA
330
1F
100
AcDbEntity
  8
0
  6
Continuous
 62
     7
370
    30
100
AcDbSpline
210
0.0
220
0.0
230
1.0
 70
     8
 71
     3
 72
    11
 73
     7
 74
     0
 42
0.000000001
 43
0.00000001
 40
0.0
 40
0.0
 40
0.0
 40
0.0
 40
0.2409597074104647
 40
0.4976668336075781
 40
0.7352804471059374
 40
1.0
 40
1.0
 40
1.0
 40
1.0
 10
144.5153362701631
 20
127.694095243901
 30
0.0
 10
144.4496537786797
 20
127.641440655695
 30
0.0
 10
144.3139962535638
 20
127.5326903485627
 30
0.0
 10
144.1174594855129
 20
127.3806756487704
 30
0.0
 10
143.9175732528654
 20
127.229125825451
 30
0.0
 10
143.7884231647114
 20
127.1336096841489
 30
0.0
 10
143.7203636458907
 20
127.0832745840374
 30
0.0
  0
SPLINE
  5
3CB
330
1F
100
AcDbEntity
  8
0
  6
Continuous
 62
     7
370
    30
100
AcDbSpline
210
0.0
220
0.0
230
1.0
 70
     8
 71
     3
 72
    10
 73
     6
 74
     0
 42
0.000000001
 43
0.00000001
 40
0.0
 40
0.0
 40
0.0
 40
0.0
 40
0.5
 40
0.5
 40
1.0
 40
1.0
 40
1.0
 40
1.0
 10
141.6783774627992
 20
127.8382189182109
 30
0.0
 10
142.0208030065355
 20
127.6906346916619
 30
0.0
 10
142.3637483719817
 20
127.5534217119548
 30
0.0
 10
143.0456832739939
 20
127.3023868598148
 30
0.0
 10
143.3845817351288
 20
127.1884235424075
 30
0.0
 10
143.7203416303378
 20
127.0832971424736
 30
0.0
  0
SPLINE
  5
3CC
330
1F
100
AcDbEntity
  8
0
  6
Continuous
 62
     7
370
    30
100
AcDbSpline
210
0.0
220
0.0
230
1.0
 70
     8
 71
     3
 72
    16
 73
    12
 74
     0
 42
0.000000001
 43
0.00000001
 40
-4.865904934837491
 40
-4.865904934837491
 40
-4.865904934837491
 40
-4.865904934837491
 40
-4.62248294600542
 40
-4.62248294600542
 40
-4.35278888088075
 40
-4.35278888088075
 40
-4.059376046899725
 40
-4.059376046899725
 40
-3.624974484889405
 40
-3.624974484889405
 40
-3.151238570955782
 40
-3.151238570955782
 40
-3.151238570955782
 40
-3.151238570955782
 10
141.3837745598196
 20
128.9727027435989
 30
0.0
 10
141.3983357664195
 20
128.9141923180986
 30
0.0
 10
141.4128111501899
 20
128.8563643404482
 30
0.0
 10
141.4431874575247
 20
128.7357473719439
 30
0.0
 10
141.4590332638039
 20
128.6732566399272
 30
0.0
 10
141.4919330528839
 20
128.544410588857
 30
0.0
 10
141.5089253024963
 20
128.4783766899422
 30
0.0
 10
141.5507997070106
 20
128.3168875004004
 30
0.0
 10
141.575435816444
 20
128.2229814570262
 30
0.0
 10
141.6264243582237
 20
128.0307222841605
 30
0.0
 10
141.6525916284991
 20
127.9332600717777
 30
0.0
 10
141.6783758320844
 20
127.8382237853804
 30
0.0
  0
SPLINE
  5
3CD
330
1F
100
AcDbEntity
  8
0
  6
Continuous
 62
     7
370
    30
100
AcDbSpline
210
0.0
220
0.0
230
1.0
 70
     8
 71
     3
 72
    12
 73
     8
 74
     0
 42
0.000000001
 43
0.00000001
 40
-5.846618063446749
 40
-5.846618063446749
 40
-5.846618063446749
 40
-5.846618063446749
 40
-5.51812354653922
 40
-5.51812354653922
 40
-4.94994703788183
 40
-4.94994703788183
 40
-4.865904934837491
 40
-4.865904934837491
 40
-4.865904934837491
 40
-4.865904934837491
 10
141.2044309683417
 20
129.7086321614476
 30
0.0
 10
141.2247968853171
 20
129.6235500049479
 30
0.0
 10
141.2450633184065
 20
129.5393183360405
 30
0.0
 10
141.3001125348822
 20
129.3119023144179
 30
0.0
 10
141.3345293436511
 20
129.1712437825818
 30
0.0
 10
141.3737097375011
 20
129.0131858577639
 30
0.0
 10
141.3787472636769
 20
128.9929036269811
 30
0.0
 10
141.3837745598196
 20
128.9727027435989
 30
0.0
  0
SPLINE
  5
3CE
330
1F
100
AcDbEntity
  8
0
  6
Continuous
 62
     7
370
    30
100
AcDbSpline
210
0.0
220
0.0
230
1.0
 70
     8
 71
     3
 72
    10
 73
     6
 74
     0
 42
0.000000001
 43
0.00000001
 40
-15.00811074476173
 40
-15.00811074476173
 40
-15.00811074476173
 40
-15.00811074476173
 40
-14.45605705998616
 40
-14.45605705998616
 40
-13.85624897850648
 40
-13.85624897850648
 40
-13.85624897850648
 40
-13.85624897850648
 10
142.0539166917266
 20
130.1500359243957
 30
0.0
 10
141.8922949442609
 20
130.1030581466151
 30
0.0
 10
141.7408864089649
 20
130.0438107267718
 30
0.0
 10
141.4521506033738
 20
129.8969093858327
 30
0.0
 10
141.3185682749483
 20
129.8079510698142
 30
0.0
 10
141.2044315834387
 20
129.7086312002169
 30
0.0
  0
SPLINE
  5
3CF
330
1F
100
AcDbEntity
  8
0
  6
Continuous
 62
     7
370
    30
100
AcDbSpline
210
0.0
220
0.0
230
1.0
 70
     8
 71
     3
 72
    20
 73
    16
 74
     0
 42
0.000000001
 43
0.00000001
 40
4.618329827458211
 40
4.618329827458211
 40
4.618329827458211
 40
4.618329827458211
 40
4.628012777190889
 40
4.628012777190889
 40
5.116152026483061
 40
5.116152026483061
 40
5.49255176086868
 40
5.49255176086868
 40
5.86821392546487
 40
5.86821392546487
 40
6.353106871316371
 40
6.353106871316371
 40
7.29207238607966
 40
7.29207238607966
 40
7.330030885658575
 40
7.330030885658575
 40
7.330030885658575
 40
7.330030885658575
 10
140.0020008990973
 20
126.6849364474706
 30
0.0
 10
140.0040274238338
 20
126.6861862562006
 30
0.0
 10
140.0060539806424
 20
126.6874365779844
 30
0.0
 10
140.1102455254992
 20
126.7517448919504
 30
0.0
 10
140.2120858023816
 20
126.8158561257993
 30
0.0
 10
140.3923710028596
 20
126.9317055644193
 30
0.0
 10
140.4706366967967
 20
126.9827890096232
 30
0.0
 10
140.626860945571
 20
127.0863621149906
 30
0.0
 10
140.7046386196725
 20
127.1387287044399
 30
0.0
 10
140.8825719404581
 20
127.260350198804
 30
0.0
 10
140.9823322133681
 20
127.3298656645788
 30
0.0
 10
141.274723444598
 20
127.537328739467
 30
0.0
 10
141.4653478421262
 20
127.6773478495867
 30
0.0
 10
141.6630224356809
 20
127.8266056133947
 30
0.0
 10
141.6707009648196
 20
127.8324098045983
 30
0.0
 10
141.6783773538445
 20
127.8382186876741
 30
0.0
  0
SPLINE
  5
3D0
330
1F
100
AcDbEntity
  8
0
  6
Continuous
 62
     7
370
    30
100
AcDbSpline
210
0.0
220
0.0
230
1.0
 70
     8
 71
     3
 72
     8
 73
     4
 74
     0
 42
0.000000001
 43
0.00000001
 40
0.0
 40
0.0
 40
0.0
 40
0.0
 40
1.0
 40
1.0
 40
1.0
 40
1.0
 10
138.5275206326427
 20
126.7905347791734
 30
0.0
 10
139.0336460888567
 20
126.7337678375555
 30
0.0
 10
139.5268207633272
 20
126.6997091885632
 30
0.0
 10
140.0020008029558
 20
126.6849366514977
 30
0.0
  0
SPLINE
  5
3D1
330
1F
100
AcDbEntity
  8
0
  6
Continuous
 62
     7
370
    30
100
AcDbSpline
210
0.0
220
0.0
230
1.0
 70
     8
 71
     3
 72
    14
 73
    10
 74
     0
 42
0.000000001
 43
0.00000001
 40
0.0
 40
0.0
 40
0.0
 40
0.0
 40
0.2499999999999997
 40
0.2499999999999997
 40
0.4999999999999998
 40
0.4999999999999998
 40
0.7499999999999999
 40
0.7499999999999999
 40
1.0
 40
1.0
 40
1.0
 40
1.0
 10
141.2044308533154
 20
129.7086313305424
 30
0.0
 10
140.9733684895013
 20
129.7991789540237
 30
0.0
 10
140.7086516499218
 20
129.8535608795482
 30
0.0
 10
140.1455580742973
 20
129.8832407791329
 30
0.0
 10
139.845455607596
 20
129.8585035124375
 30
0.0
 10
139.2488634920913
 20
129.7332896101448
 30
0.0
 10
138.9497113094293
 20
129.6322110117336
 30
0.0
 10
138.3912391864681
 20
129.3671462566509
 30
0.0
 10
138.1295790642561
 20
129.2022188933859
 30
0.0
 10
137.9023233077372
 20
129.015098396447
 30
0.0
  0
SPLINE
  5
3D2
330
1F
100
AcDbEntity
  8
0
  6
Continuous
 62
     7
370
    30
100
AcDbSpline
210
0.0
220
0.0
230
1.0
 70
     8
 71
     3
 72
     8
 73
     4
 74
     0
 42
0.000000001
 43
0.00000001
 40
0.0
 40
0.0
 40
0.0
 40
0.0
 40
1.0
 40
1.0
 40
1.0
 40
1.0
 10
148.1927929904054
 20
118.4175176531851
 30
0.0
 10
148.2090209889462
 20
117.9175190706937
 30
0.0
 10
148.2458368865826
 20
117.3969548430676
 30
0.0
 10
148.3067227901284
 20
116.8621808021888
 30
0.0
  0
SPLINE
  5
3D3
330
1F
100
AcDbEntity
  8
0
  6
Continuous
 62
     7
370
    30
100
AcDbSpline
210
0.0
220
0.0
230
1.0
 70
     8
 71
     3
 72
    10
 73
     6
 74
     0
 42
0.000000001
 43
0.00000001
 40
0.0
 40
0.0
 40
0.0
 40
0.0
 40
0.5
 40
0.5
 40
1.0
 40
1.0
 40
1.0
 40
1.0
 10
149.3964235938875
 20
120.169307700929
 30
0.0
 10
149.1803071439791
 20
119.8834166943129
 30
0.0
 10
148.9698389018718
 20
119.5937666016787
 30
0.0
 10
148.5670844885505
 20
119.0087483502093
 30
0.0
 10
148.3749135036739
 20
118.7133916884649
 30
0.0
 10
148.1927931566347
 20
118.4175175766527
 30
0.0
  0
SPLINE
  5
3D4
330
1F
100
AcDbEntity
  8
0
  6
Continuous
 62
     7
370
    30
100
AcDbSpline
210
0.0
220
0.0
230
1.0
 70
     8
 71
     3
 72
    14
 73
    10
 74
     0
 42
0.000000001
 43
0.00000001
 40
0.0
 40
0.0
 40
0.0
 40
0.0
 40
0.25
 40
0.25
 40
0.5
 40
0.5
 40
0.75
 40
0.75
 40
1.0
 40
1.0
 40
1.0
 40
1.0
 10
150.6022699569481
 20
116.2141642432575
 30
0.0
 10
150.8004701608186
 20
116.4484014237451
 30
0.0
 10
150.9762971599233
 20
116.720258473134
 30
0.0
 10
151.2600191737996
 20
117.3031193418639
 30
0.0
 10
151.3688090857678
 20
117.6161683617501
 30
0.0
 10
151.5052153251547
 20
118.2419753573773
 30
0.0
 10
151.5334239450191
 20
118.5575777098622
 30
0.0
 10
151.505916739938
 20
119.1497408787519
 30
0.0
 10
151.450271334055
 20
119.4287252507854
 30
0.0
 10
151.3559521629412
 20
119.6724769950793
 30
0.0
  0
SPLINE
  5
3D5
330
1F
100
AcDbEntity
  8
0
  6
Continuous
 62
     7
370
    30
100
AcDbSpline
210
0.0
220
0.0
230
1.0
 70
     8
 71
     3
 72
    10
 73
     6
 74
     0
 42
0.000000001
 43
0.00000001
 40
0.0
 40
0.0
 40
0.0
 40
0.0
 40
0.5
 40
0.5
 40
1.0
 40
1.0
 40
1.0
 40
1.0
 10
136.0919922131241
 20
124.5282047852433
 30
0.0
 10
136.11571226589
 20
124.3843596627038
 30
0.0
 10
136.154011626892
 20
124.2454630011352
 30
0.0
 10
136.2580589333048
 20
123.9825593919148
 30
0.0
 10
136.3238455219628
 20
123.8582947842734
 30
0.0
 10
136.4026653714751
 20
123.7428838873077
 30
0.0
  0
SPLINE
  5
3D6
330
1F
100
AcDbEntity
  8
0
  6
Continuous
 62
     7
370
    30
100
AcDbSpline
210
0.0
220
0.0
230
1.0
 70
     8
 71
     3
 72
    10
 73
     6
 74
     0
 42
0.000000001
 43
0.00000001
 40
0.0
 40
0.0
 40
0.0
 40
0.0
 40
0.5
 40
0.5
 40
1.0
 40
1.0
 40
1.0
 40
1.0
 10
136.4026653714751
 20
123.7428838873077
 30
0.0
 10
136.5742150422983
 20
123.4916946055923
 30
0.0
 10
136.8056659239308
 20
123.2859694336732
 30
0.0
 10
137.3565259851835
 20
122.9942520590779
 30
0.0
 10
137.6721767645257
 20
122.910033000818
 30
0.0
 10
138.0074385983252
 20
122.8931277793433
 30
0.0
  0
SPLINE
  5
3D7
330
1F
100
AcDbEntity
  8
0
  6
Continuous
 62
     7
370
    30
100
AcDbSpline
210
0.0
220
0.0
230
1.0
 70
     8
 71
     3
 72
     9
 73
     5
 74
     0
 42
0.000000001
 43
0.00000001
 40
0.0
 40
0.0
 40
0.0
 40
0.0
 40
0.5
 40
1.0
 40
1.0
 40
1.0
 40
1.0
 10
138.0074386014284
 20
122.8931277765669
 30
0.0
 10
138.0334920963154
 20
122.7423804648798
 30
0.0
 10
138.1124741616231
 20
122.4477651306198
 30
0.0
 10
138.2427263443006
 20
122.1733677634493
 30
0.0
 10
138.3200499565573
 20
122.0428384188516
 30
0.0
  0
SPLINE
  5
3D8
330
1F
100
AcDbEntity
  8
0
  6
Continuous
 62
     7
370
    30
100
AcDbSpline
210
0.0
220
0.0
230
1.0
 70
     8
 71
     3
 72
    10
 73
     6
 74
     0
 42
0.000000001
 43
0.00000001
 40
0.0
 40
0.0
 40
0.0
 40
0.0
 40
0.5
 40
0.5
 40
1.0
 40
1.0
 40
1.0
 40
1.0
 10
138.3200499565573
 20
122.0428384188516
 30
0.0
 10
138.5146473867729
 20
121.7143401207881
 30
0.0
 10
138.7845009976777
 20
121.4330420419243
 30
0.0
 10
139.4294585956435
 20
121.0124588475231
 30
0.0
 10
139.8012501338501
 20
120.8755404493324
 30
0.0
 10
140.18977400768
 20
120.8235013218416
 30
0.0
  0
SPLINE
  5
3D9
330
1F
100
AcDbEntity
  8
0
  6
Continuous
 62
     7
370
    30
100
AcDbSpline
210
0.0
220
0.0
230
1.0
 70
     8
 71
     3
 72
    14
 73
    10
 74
     0
 42
0.000000001
 43
0.00000001
 40
0.0
 40
0.0
 40
0.0
 40
0.0
 40
0.2500000000000001
 40
0.2500000000000001
 40
0.5000000000000001
 40
0.5000000000000001
 40
0.7500000000000001
 40
0.7500000000000001
 40
1.0
 40
1.0
 40
1.0
 40
1.0
 10
140.1897749885866
 20
120.8235012658596
 30
0.0
 10
140.2377893971656
 20
120.5483277525601
 30
0.0
 10
140.3285531160824
 20
120.2796721941252
 30
0.0
 10
140.5867253922166
 20
119.7828938102176
 30
0.0
 10
140.7533016332047
 20
119.5553615161568
 30
0.0
 10
141.1502597682299
 20
119.1583769527005
 30
0.0
 10
141.3779979539463
 20
118.9916588062818
 30
0.0
 10
141.8745476070354
 20
118.7335919810898
 30
0.0
 10
142.1434055277214
 20
118.6427424131032
 30
0.0
 10
142.4185415544935
 20
118.5947348146969
 30
0.0
  0
SPLINE
  5
3DA
330
1F
100
AcDbEntity
  8
0
  6
Continuous
 62
     7
370
    30
100
AcDbSpline
210
0.0
220
0.0
230
1.0
 70
     8
 71
     3
 72
    14
 73
    10
 74
     0
 42
0.000000001
 43
0.00000001
 40
0.0
 40
0.0
 40
0.0
 40
0.0
 40
0.2500000000000001
 40
0.2500000000000001
 40
0.5000000000000002
 40
0.5000000000000002
 40
0.7500000000000003
 40
0.7500000000000003
 40
1.0
 40
1.0
 40
1.0
 40
1.0
 10
142.4185414033063
 20
118.5947337051234
 30
0.0
 10
142.4549486996074
 20
118.3229253812698
 30
0.0
 10
142.5322828175514
 20
118.0603422507007
 30
0.0
 10
142.7632629409256
 20
117.5719607653596
 30
0.0
 10
142.9164487497032
 20
117.3479334582957
 30
0.0
 10
143.283428491181
 20
116.9608191577004
 30
0.0
 10
143.4985330628044
 20
116.7967583287818
 30
0.0
 10
143.9677375786472
 20
116.5459942660349
 30
0.0
 10
144.2238485549266
 20
116.4580797615191
 30
0.0
 10
144.4881681224717
 20
116.4123986934925
 30
0.0
  0
SPLINE
  5
3DB
330
1F
100
AcDbEntity
  8
0
  6
Continuous
 62
     7
370
    30
100
AcDbSpline
210
0.0
220
0.0
230
1.0
 70
     8
 71
     3
 72
    14
 73
    10
 74
     0
 42
0.000000001
 43
0.00000001
 40
0.0
 40
0.0
 40
0.0
 40
0.0
 40
0.25
 40
0.25
 40
0.5
 40
0.5
 40
0.75
 40
0.75
 40
1.0
 40
1.0
 40
1.0
 40
1.0
 10
144.4881689610392
 20
116.4123985586796
 30
0.0
 10
144.5004529084524
 20
116.1687709491849
 30
0.0
 10
144.5488022387971
 20
115.9329122461305
 30
0.0
 10
144.7124635338816
 20
115.5018224483585
 30
0.0
 10
144.8280799184984
 20
115.3050316073453
 30
0.0
 10
145.1174076188738
 20
114.9662436151945
 30
0.0
 10
145.2899115146333
 20
114.8252150803596
 30
0.0
 10
145.679377833301
 20
114.6089220370979
 30
0.0
 10
145.8955437002138
 20
114.5345017456058
 30
0.0
 10
146.1232453245859
 20
114.4969529167554
 30
0.0
  0
SPLINE
  5
3DC
330
1F
100
AcDbEntity
  8
0
  6
Continuous
 62
     7
370
    30
100
AcDbSpline
210
0.0
220
0.0
230
1.0
 70
     8
 71
     3
 72
    19
 73
    15
 74
     0
 42
0.000000001
 43
0.00000001
 40
-1.972058189000293
 40
-1.972058189000293
 40
-1.972058189000293
 40
-1.972058189000293
 40
-1.82833213284395
 40
-1.82833213284395
 40
-0.913495298381241
 40
-0.913495298381241
 40
0.0
 40
0.0
 40
0.0
 40
0.5122201131792004
 40
0.5122201131792004
 40
1.025785528730999
 40
1.025785528730999
 40
1.737909213133371
 40
1.737909213133371
 40
1.737909213133371
 40
1.737909213133371
 10
150.2770414759419
 20
124.0666237004112
 30
0.0
 10
150.2708941219709
 20
124.1114915135256
 30
0.0
 10
150.2635567479356
 20
124.1565326987816
 30
0.0
 10
150.2007598863609
 20
124.4890897750787
 30
0.0
 10
150.099367499932
 20
124.7754832328921
 30
0.0
 10
149.813945883459
 20
125.3135717087568
 30
0.0
 10
149.6327802069184
 20
125.5601471579379
 30
0.0
 10
149.4232420474978
 20
125.7706009159928
 30
0.0
 10
149.305748657084
 20
125.8886077059138
 30
0.0
 10
149.1803207946064
 20
125.9942667190491
 30
0.0
 10
148.9177369482755
 20
126.1773637834991
 30
0.0
 10
148.7813440352464
 20
126.2541740621551
 30
0.0
 10
148.4499074881449
 20
126.3987560862772
 30
0.0
 10
148.2547983883193
 20
126.4505825467456
 30
0.0
 10
148.0638222619577
 20
126.4687817071985
 30
0.0
  0
SPLINE
  5
3DD
330
1F
100
AcDbEntity
  8
0
  6
Continuous
 62
     7
370
    30
100
AcDbSpline
210
0.0
220
0.0
230
1.0
 70
     8
 71
     3
 72
    19
 73
    15
 74
     0
 42
0.000000001
 43
0.00000001
 40
-1.740163500272205
 40
-1.740163500272205
 40
-1.740163500272205
 40
-1.740163500272205
 40
-0.916733159435901
 40
-0.916733159435901
 40
0.0
 40
0.0
 40
0.0
 40
0.5153997222230995
 40
0.5153997222230995
 40
1.029777388965421
 40
1.029777388965421
 40
1.942581486855898
 40
1.942581486855898
 40
1.97000859837153
 40
1.97000859837153
 40
1.97000859837153
 40
1.97000859837153
 10
148.0638221860811
 20
126.4687819735984
 30
0.0
 10
148.0427519642319
 20
126.689890306515
 30
0.0
 10
147.9766456542922
 20
126.9161079462871
 30
0.0
 10
147.7475889952605
 20
127.3831222413937
 30
0.0
 10
147.5768411390239
 20
127.6179206120951
 30
0.0
 10
147.3656414669561
 20
127.8282014977551
 30
0.0
 10
147.2469021683969
 20
127.9464242422282
 30
0.0
 10
147.116383184695
 20
128.0558949487043
 30
0.0
 10
146.8367814349621
 20
128.2531722502372
 30
0.0
 10
146.6885863099913
 20
128.3404214050974
 30
0.0
 10
146.2611416735938
 20
128.5468087638718
 30
0.0
 10
145.9733909236808
 20
128.6363226409636
 30
0.0
 10
145.6788290160161
 20
128.6796068295375
 30
0.0
 10
145.6702430055962
 20
128.6808258540342
 30
0.0
 10
145.6616639569249
 20
128.6820012873387
 30
0.0
  0
SPLINE
  5
3DE
330
1F
100
AcDbEntity
  8
0
  6
Continuous
 62
     7
370
    30
100
AcDbSpline
210
0.0
220
0.0
230
1.0
 70
    24
 71
     3
 72
    16
 73
    12
 74
     0
 42
0.000000001
 43
0.00000001
 40
4.192714680106232
 40
4.192714680106232
 40
4.192714680106232
 40
4.192714680106232
 40
4.461865059172546
 40
4.461865059172546
 40
4.738622145099851
 40
4.738622145099851
 40
5.070034358873991
 40
5.070034358873991
 40
5.63072803462381
 40
5.63072803462381
 40
6.248789710865007
 40
6.248789710865007
 40
6.248789710865007
 40
6.248789710865007
 10
147.556413657771
 20
125.961373387427
 30
0.0
 10
147.5049009515902
 20
125.9098606812462
 30
0.0
 10
147.4539236833084
 20
125.8588834129644
 30
0.0
 10
147.3514668063535
 20
125.7564265360096
 30
0.0
 10
147.3001235950079
 20
125.705083324664
 30
0.0
 10
147.1884191178398
 20
125.5933788474959
 30
0.0
 10
147.1284384063629
 20
125.5333981360382
 30
0.0
 10
146.9689567956219
 20
125.3739165252973
 30
0.0
 10
146.8713763797486
 20
125.2763361094046
 30
0.0
 10
146.6703703020845
 20
125.0753300317406
 30
0.0
 10
146.5679355322034
 20
124.9728952618595
 30
0.0
 10
146.4678623001139
 20
124.87282202977
 30
0.0
  0
SPLINE
  5
3DF
330
1F
100
AcDbEntity
  8
0
  6
Continuous
 62
     7
370
    30
100
AcDbSpline
210
0.0
220
0.0
230
1.0
 70
    24
 71
     3
 72
    12
 73
     8
 74
     0
 42
0.000000001
 43
0.00000001
 40
3.332801498508853
 40
3.332801498508853
 40
3.332801498508853
 40
3.332801498508853
 40
3.70170773366484
 40
3.70170773366484
 40
4.157490119770831
 40
4.157490119770831
 40
4.192714680106232
 40
4.192714680106232
 40
4.192714680106232
 40
4.192714680106232
 10
148.0638246504012
 20
126.4687843800573
 30
0.0
 10
147.9895318184908
 20
126.3944915481469
 30
0.0
 10
147.915896011047
 20
126.3208557407031
 30
0.0
 10
147.7528112478345
 20
126.1577709774906
 30
0.0
 10
147.6641378827212
 20
126.0690976123773
 30
0.0
 10
147.5699060898013
 20
125.9748658194573
 30
0.0
 10
147.5631552883539
 20
125.9681150180099
 30
0.0
 10
147.556413657771
 20
125.961373387427
 30
0.0
  0
SPLINE
  5
3E0
330
1F
100
AcDbEntity
  8
0
  6
Continuous
 62
     7
370
    30
100
AcDbSpline
210
0.0
220
0.0
230
1.0
 70
     8
 71
     3
 72
     8
 73
     4
 74
     0
 42
0.000000001
 43
0.00000001
 40
0.0
 40
0.0
 40
0.0
 40
0.0
 40
1.0
 40
1.0
 40
1.0
 40
1.0
 10
148.1290289663322
 20
122.3157963109159
 30
0.0
 10
148.3085513202516
 20
122.2516360290626
 30
0.0
 10
148.4918218176109
 20
122.1880779536674
 30
0.0
 10
148.6783379980909
 20
122.1253024409506
 30
0.0
  0
SPLINE
  5
3E1
330
1F
100
AcDbEntity
  8
0
  6
Continuous
 62
     7
370
    30
100
AcDbSpline
210
0.0
220
0.0
230
1.0
 70
     8
 71
     3
 72
     8
 73
     4
 74
     0
 42
0.000000001
 43
0.00000001
 40
0.0
 40
0.0
 40
0.0
 40
0.0
 40
1.0
 40
1.0
 40
1.0
 40
1.0
 10
147.9905052944242
 20
122.3656886200264
 30
0.0
 10
148.0364140647759
 20
122.3490253338962
 30
0.0
 10
148.0826136515905
 20
122.3323848839327
 30
0.0
 10
148.1290289663322
 20
122.3157963109159
 30
0.0
  0
SPLINE
  5
3E2
330
1F
100
AcDbEntity
  8
0
  6
Continuous
 62
     7
370
    30
100
AcDbSpline
210
0.0
220
0.0
230
1.0
 70
     8
 71
     3
 72
    10
 73
     6
 74
     0
 42
0.000000001
 43
0.00000001
 40
0.0
 40
0.0
 40
0.0
 40
0.0
 40
0.5000000000000001
 40
0.5000000000000001
 40
1.0
 40
1.0
 40
1.0
 40
1.0
 10
146.5145336272173
 20
124.3276193479275
 30
0.0
 10
146.7412003777306
 20
123.9936949261513
 30
0.0
 10
146.9773534480973
 20
123.6619186075119
 30
0.0
 10
147.4703548935418
 20
123.0062411346165
 30
0.0
 10
147.7271552798111
 20
122.6825272779682
 30
0.0
 10
147.9905066028919
 20
122.3656896501196
 30
0.0
  0
SPLINE
  5
3E3
330
1F
100
AcDbEntity
  8
0
  6
Continuous
 62
     7
370
    30
100
AcDbSpline
210
0.0
220
0.0
230
1.0
 70
     8
 71
     3
 72
    10
 73
     6
 74
     0
 42
0.000000001
 43
0.00000001
 40
-9.785690692836921
 40
-9.785690692836921
 40
-9.785690692836921
 40
-9.785690692836921
 40
-9.237734916651071
 40
-9.237734916651071
 40
-9.197415449640282
 40
-9.197415449640282
 40
-9.197415449640282
 40
-9.197415449640282
 10
146.4678628817702
 20
124.8728218328377
 30
0.0
 10
146.4637387634241
 20
124.7078889550596
 30
0.0
 10
146.4769676938243
 20
124.5376766958093
 30
0.0
 10
146.5097628026738
 20
124.3529396404093
 30
0.0
 10
146.5121024181541
 20
124.3402785441343
 30
0.0
 10
146.5145334527638
 20
124.3276193266038
 30
0.0
  0
SPLINE
  5
3E4
330
1F
100
AcDbEntity
  8
0
  6
Continuous
 62
     7
370
    30
100
AcDbSpline
210
0.0
220
0.0
230
1.0
 70
     8
 71
     3
 72
    10
 73
     6
 74
     0
 42
0.000000001
 43
0.00000001
 40
0.0
 40
0.0
 40
0.0
 40
0.0
 40
0.5
 40
0.5
 40
1.0
 40
1.0
 40
1.0
 40
1.0
 10
143.960728926142
 20
126.3954650680721
 30
0.0
 10
144.2780689617481
 20
126.1317000381475
 30
0.0
 10
144.6013585740576
 20
125.875251025822
 30
0.0
 10
145.2572938134641
 20
125.3820669136793
 30
0.0
 10
145.5895048503388
 20
125.1456411648229
 30
0.0
 10
145.9226599142692
 20
124.9194940194463
 30
0.0
  0
SPLINE
  5
3E5
330
1F
100
AcDbEntity
  8
0
  6
Continuous
 62
     7
370
    30
100
AcDbSpline
210
0.0
220
0.0
230
1.0
 70
     8
 71
     3
 72
     8
 73
     4
 74
     0
 42
0.000000001
 43
0.00000001
 40
0.0
 40
0.0
 40
0.0
 40
0.0
 40
1.0
 40
1.0
 40
1.0
 40
1.0
 10
143.7203427066125
 20
127.0832977265305
 30
0.0
 10
143.7993656088827
 20
126.8485078714081
 30
0.0
 10
143.8796309018665
 20
126.618897020974
 30
0.0
 10
143.9607288960669
 20
126.3954650236542
 30
0.0
  0
SPLINE
  5
3E6
330
1F
100
AcDbEntity
  8
0
  6
Continuous
 62
     7
370
    30
100
AcDbSpline
210
0.0
220
0.0
230
1.0
 70
     8
 71
     3
 72
     8
 73
     4
 74
     0
 42
0.000000001
 43
0.00000001
 40
-5.559460769762449
 40
-5.559460769762449
 40
-5.559460769762449
 40
-5.559460769762449
 40
-4.970812238154564
 40
-4.970812238154564
 40
-4.970812238154564
 40
-4.970812238154564
 10
145.9226595960758
 20
124.9194931765727
 30
0.0
 10
146.1075591023245
 20
124.8839857517779
 30
0.0
 10
146.2907098383233
 20
124.868393227401
 30
0.0
 10
146.4678620807543
 20
124.8728226927601
 30
0.0
  0
SPLINE
  5
3E7
330
1F
100
AcDbEntity
  8
0
  6
Continuous
 62
     7
370
    30
100
AcDbSpline
210
0.0
220
0.0
230
1.0
 70
     8
 71
     3
 72
    14
 73
    10
 74
     0
 42
0.000000001
 43
0.00000001
 40
-6.803910204659573
 40
-6.803910204659573
 40
-6.803910204659573
 40
-6.803910204659573
 40
-6.21717235860185
 40
-6.21717235860185
 40
-5.813242534635481
 40
-5.813242534635481
 40
-5.46928842440866
 40
-5.46928842440866
 40
-5.451337593308887
 40
-5.451337593308887
 40
-5.451337593308887
 40
-5.451337593308887
 10
140.0020008883865
 20
126.6849364435199
 30
0.0
 10
140.0192824738992
 20
126.5429853750488
 30
0.0
 10
140.0359324736599
 20
126.402549655073
 30
0.0
 10
140.0629799002938
 20
126.1672934926176
 30
0.0
 10
140.073674277158
 20
126.0721979339761
 30
0.0
 10
140.0928832055563
 20
125.8972856761296
 30
0.0
 10
140.101465697237
 20
125.8174787257034
 30
0.0
 10
140.1102458319729
 20
125.7340277508604
 30
0.0
 10
140.1106806376946
 20
125.7298903217101
 30
0.0
 10
140.1111147485663
 20
125.7257546909755
 30
0.0
  0
SPLINE
  5
3E8
330
1F
100
AcDbEntity
  8
0
  6
Continuous
 62
     7
370
    30
100
AcDbSpline
210
0.0
220
0.0
230
1.0
 70
     8
 71
     3
 72
     8
 73
     4
 74
     0
 42
0.000000001
 43
0.00000001
 40
0.0
 40
0.0
 40
0.0
 40
0.0
 40
1.0
 40
1.0
 40
1.0
 40
1.0
 10
140.1111147485663
 20
125.7257546909755
 30
0.0
 10
140.1382904433935
 20
125.4668608320584
 30
0.0
 10
140.1627889849715
 20
125.2142396655643
 30
0.0
 10
140.1847797817234
 20
124.9687175299626
 30
0.0
  0
SPLINE
  5
3E9
330
1F
100
AcDbEntity
  8
0
  6
Continuous
 62
     7
370
    30
100
AcDbSpline
210
0.0
220
0.0
230
1.0
 70
     8
 71
     3
 72
    15
 73
    11
 74
     0
 42
0.000000001
 43
0.00000001
 40
0.0
 40
0.0
 40
0.0
 40
0.0
 40
0.1347491030605335
 40
0.2542257733433605
 40
0.5025408239043955
 40
0.626888718429739
 40
0.7512763707797827
 40
0.8756523748079017
 40
0.9371676107706303
 40
1.0
 40
1.0
 40
1.0
 40
1.0
 10
138.0074459256781
 20
122.8931223237882
 30
0.0
 10
138.1075810421774
 20
122.9804780368021
 30
0.0
 10
138.2965019837842
 20
123.1452885861303
 30
0.0
 10
138.66829977384
 20
123.4781790488185
 30
0.0
 10
139.0302322404085
 20
123.8124396179921
 30
0.0
 10
139.3910467350737
 20
124.1596436970854
 30
0.0
 10
139.659145584769
 20
124.4249113967227
 30
0.0
 10
139.8794143387108
 20
124.6491842607248
 30
0.0
 10
140.0542775437584
 20
124.8308735304448
 30
0.0
 10
140.1409732062501
 20
124.9224458559026
 30
0.0
 10
140.1847801997634
 20
124.9687170089456
 30
0.0
  0
SPLINE
  5
3EA
330
1F
100
AcDbEntity
  8
0
  6
Continuous
 62
     7
370
    30
100
AcDbSpline
210
0.0
220
0.0
230
1.0
 70
     8
 71
     3
 72
    15
 73
    11
 74
     0
 42
0.000000001
 43
0.00000001
 40
0.0
 40
0.0
 40
0.0
 40
0.0
 40
0.0631236257263962
 40
0.1249329361939959
 40
0.2499062292349273
 40
0.3748774491175415
 40
0.4998037739777504
 40
0.7495909133605785
 40
0.867358293671212
 40
0.9999999999999999
 40
0.9999999999999999
 40
0.9999999999999999
 40
0.9999999999999999
 10
146.5637572309975
 20
118.5897399805452
 30
0.0
 10
146.5172713810633
 20
118.5457302126788
 30
0.0
 10
146.4252675765145
 20
118.458627017045
 30
0.0
 10
146.2427266931883
 20
118.2829205641694
 30
0.0
 10
146.0174105745197
 20
118.0615860676658
 30
0.0
 10
145.7509464437838
 20
117.7921863359842
 30
0.0
 10
145.4020075307482
 20
117.4294028853558
 30
0.0
 10
145.0676676343082
 20
117.0671583923525
 30
0.0
 10
144.7364716198614
 20
116.697059466155
 30
0.0
 10
144.5741451784495
 20
116.5109762585446
 30
0.0
 10
144.4881608539183
 20
116.4124079737119
 30
0.0
  0
SPLINE
  5
3EB
330
1F
100
AcDbEntity
  8
0
  6
Continuous
 62
     7
370
    30
100
AcDbSpline
210
0.0
220
0.0
230
1.0
 70
     8
 71
     3
 72
     8
 73
     4
 74
     0
 42
0.000000001
 43
0.00000001
 40
0.0
 40
0.0
 40
0.0
 40
0.0
 40
1.0
 40
1.0
 40
1.0
 40
1.0
 10
146.5637571832907
 20
118.5897400126079
 30
0.0
 10
147.0773148579954
 20
118.543740196823
 30
0.0
 10
147.6212681816179
 20
118.4862929640105
 30
0.0
 10
148.1864466149424
 20
118.4182816562617
 30
0.0
  0
SPLINE
  5
3EC
330
1F
100
AcDbEntity
  8
0
  6
Continuous
 62
     7
370
    30
100
AcDbSpline
210
0.0
220
0.0
230
1.0
 70
     8
 71
     3
 72
     8
 73
     4
 74
     0
 42
0.000000001
 43
0.00000001
 40
-4.446765973489019
 40
-4.446765973489019
 40
-4.446765973489019
 40
-4.446765973489019
 40
-4.437980330709627
 40
-4.437980330709627
 40
-4.437980330709627
 40
-4.437980330709627
 10
148.1864466149424
 20
118.4182816562617
 30
0.0
 10
148.1885618650252
 20
118.4180271155435
 30
0.0
 10
148.1906773378819
 20
118.4177724448929
 30
0.0
 10
148.1927930339929
 20
118.4175176444567
 30
0.0
  0
SPLINE
  5
3ED
330
1F
100
AcDbEntity
  8
0
  6
Continuous
 62
     7
370
    30
100
AcDbSpline
210
0.0
220
0.0
230
1.0
 70
     8
 71
     3
 72
    15
 73
    11
 74
     0
 42
0.000000001
 43
0.00000001
 40
0.0
 40
0.0
 40
0.0
 40
0.0
 40
0.063147338940585
 40
0.1249707986593888
 40
0.2499860628790701
 40
0.3749987988093961
 40
0.499990878034157
 40
0.749815811344463
 40
0.8680714244932024
 40
1.0
 40
1.0
 40
1.0
 40
1.0
 10
142.0226445443253
 20
124.5790377682405
 30
0.0
 10
142.063294593477
 20
124.6147135356342
 30
0.0
 10
142.1437424665507
 20
124.6853171306355
 30
0.0
 10
142.3050487787739
 20
124.8284021739524
 30
0.0
 10
142.5066220636083
 20
125.0095748805035
 30
0.0
 10
142.7494402598236
 20
125.2317918061372
 30
0.0
 10
143.0732170772777
 20
125.533267914942
 30
0.0
 10
143.3923346086214
 20
125.8380725216966
 30
0.0
 10
143.7150569951262
 20
126.1522332836283
 30
0.0
 10
143.8759067078979
 20
126.3114877355531
 30
0.0
 10
143.9607269101284
 20
126.3954667155937
 30
0.0
  0
SPLINE
  5
3EE
330
1F
100
AcDbEntity
  8
0
  6
Continuous
 62
     7
370
    30
100
AcDbSpline
210
0.0
220
0.0
230
1.0
 70
     8
 71
     3
 72
     8
 73
     4
 74
     0
 42
0.000000001
 43
0.00000001
 40
0.0
 40
0.0
 40
0.0
 40
0.0
 40
1.0
 40
1.0
 40
1.0
 40
1.0
 10
142.0033549749293
 20
124.562167905332
 30
0.0
 10
142.0097845140515
 20
124.5677869789912
 30
0.0
 10
142.0162144741578
 20
124.5734103524523
 30
0.0
 10
142.0226445442301
 20
124.5790377686429
 30
0.0
  0
SPLINE
  5
3EF
330
1F
100
AcDbEntity
  8
0
  6
Continuous
 62
     7
370
    30
100
AcDbSpline
210
0.0
220
0.0
230
1.0
 70
     8
 71
     3
 72
     8
 73
     4
 74
     0
 42
0.000000001
 43
0.00000001
 40
0.0
 40
0.0
 40
0.0
 40
0.0
 40
1.0
 40
1.0
 40
1.0
 40
1.0
 10
140.1847803035421
 20
124.9687169414537
 30
0.0
 10
140.797749202796
 20
124.8135011989254
 30
0.0
 10
141.4085578044289
 20
124.6773048732793
 30
0.0
 10
142.0033547264445
 20
124.5621691028743
 30
0.0
  0
SPLINE
  5
3F0
330
1F
100
AcDbEntity
  8
0
  6
Continuous
 62
     7
370
    30
100
AcDbSpline
210
0.0
220
0.0
230
1.0
 70
     8
 71
     3
 72
    15
 73
    11
 74
     0
 42
0.000000001
 43
0.00000001
 40
0.0
 40
0.0
 40
0.0
 40
0.0
 40
0.1324507927063246
 40
0.2510413011353643
 40
0.5004659489092537
 40
0.6253398429436725
 40
0.7502407552391825
 40
0.8751349462483368
 40
0.9368580261166493
 40
1.0
 40
1.0
 40
1.0
 40
1.0
 10
147.990506019331
 20
122.3656877552223
 30
0.0
 10
147.9053541366289
 20
122.2796809101426
 30
0.0
 10
147.7439610713943
 20
122.1166673875037
 30
0.0
 10
147.4264504879278
 20
121.7903983647966
 30
0.0
 10
147.1188571257682
 20
121.4681944332221
 30
0.0
 10
146.815001796722
 20
121.1415928076835
 30
0.0
 10
146.5910153771347
 20
120.8965917549468
 30
0.0
 10
146.408472253056
 20
120.6932520548272
 30
0.0
 10
146.2643086590901
 20
120.5305149122798
 30
0.0
 10
146.193177778731
 20
120.4493555068025
 30
0.0
 10
146.1572081935269
 20
120.4083146798692
 30
0.0
  0
SPLINE
  5
3F1
330
1F
100
AcDbEntity
  8
0
  6
Continuous
 62
     7
370
    30
100
AcDbSpline
210
0.0
220
0.0
230
1.0
 70
     8
 71
     3
 72
     8
 73
     4
 74
     0
 42
0.000000001
 43
0.00000001
 40
0.0
 40
0.0
 40
0.0
 40
0.0
 40
1.0
 40
1.0
 40
1.0
 40
1.0
 10
146.157208342573
 20
120.4083147318336
 30
0.0
 10
146.2725367803595
 20
119.8125289792692
 30
0.0
 10
146.4085898104354
 20
119.2025223158589
 30
0.0
 10
146.5637572295714
 20
118.5897400418618
 30
0.0
  0
SPLINE
  5
3F2
330
1F
100
AcDbEntity
  8
0
  6
Continuous
 62
     7
370
    30
100
AcDbSpline
210
0.0
220
0.0
230
1.0
 70
     8
 71
     3
 72
     8
 73
     4
 74
     0
 42
0.000000001
 43
0.00000001
 40
0.0
 40
0.0
 40
0.0
 40
0.0
 40
1.0
 40
1.0
 40
1.0
 40
1.0
 10
145.9713128232745
 20
120.4470045743091
 30
0.0
 10
146.0331273750921
 20
120.4341190776133
 30
0.0
 10
146.0950788451256
 20
120.421225559038
 30
0.0
 10
146.1572081756513
 20
120.4083147045842
 30
0.0
  0
SPLINE
  5
3F3
330
1F
100
AcDbEntity
  8
0
  6
Continuous
 62
     7
370
    30
100
AcDbSpline
210
0.0
220
0.0
230
1.0
 70
     8
 71
     3
 72
     8
 73
     4
 74
     0
 42
0.000000001
 43
0.00000001
 40
0.0
 40
0.0
 40
0.0
 40
0.0
 40
1.0
 40
1.0
 40
1.0
 40
1.0
 10
144.5413653901135
 20
120.74902495655
 30
0.0
 10
145.0060367233808
 20
120.6495867553886
 30
0.0
 10
145.4844721655269
 20
120.5484885049099
 30
0.0
 10
145.9713128232745
 20
120.4470045743091
 30
0.0
  0
SPLINE
  5
3F4
330
1F
100
AcDbEntity
  8
0
  6
Continuous
 62
     7
370
    30
100
AcDbSpline
210
0.0
220
0.0
230
1.0
 70
     8
 71
     3
 72
     8
 73
     4
 74
     0
 42
0.000000001
 43
0.00000001
 40
0.0
 40
0.0
 40
0.0
 40
0.0
 40
1.0
 40
1.0
 40
1.0
 40
1.0
 10
144.5413653837465
 20
120.7490249341631
 30
0.0
 10
144.3944871400755
 20
121.3379881351357
 30
0.0
 10
144.255374368818
 20
121.9354633980196
 30
0.0
 10
144.1263090206066
 20
122.5312686012685
 30
0.0
  0
SPLINE
  5
3F5
330
1F
100
AcDbEntity
  8
0
  6
Continuous
 62
     7
370
    30
100
AcDbSpline
210
0.0
220
0.0
230
1.0
 70
    24
 71
     3
 72
    18
 73
    14
 74
     0
 42
0.000000001
 43
0.00000001
 40
-6.470998523745786
 40
-6.470998523745786
 40
-6.470998523745786
 40
-6.470998523745786
 40
-6.30191070828289
 40
-6.30191070828289
 40
-5.87298801706366
 40
-5.87298801706366
 40
-5.52372040159656
 40
-5.52372040159656
 40
-5.1629897954977
 40
-5.1629897954977
 40
-4.66720748880064
 40
-4.66720748880064
 40
-4.644575433688082
 40
-4.644575433688082
 40
-4.644575433688082
 40
-4.644575433688082
 10
145.1150418293061
 20
123.520001558935
 30
0.0
 10
145.0839483318004
 20
123.4889080614269
 30
0.0
 10
145.0528864164052
 20
123.4578461460301
 30
0.0
 10
144.9431160291674
 20
123.3480757587923
 30
0.0
 10
144.8648093876521
 20
123.2697691173083
 30
0.0
 10
144.7231878971926
 20
123.1281476268488
 30
0.0
 10
144.6599323276149
 20
123.0648920572711
 30
0.0
 10
144.531750645952
 20
122.9367103756081
 30
0.0
 10
144.4669798706374
 20
122.8719396002924
 30
0.0
 10
144.3137456654343
 20
122.7187053950892
 30
0.0
 10
144.2257898731274
 20
122.630749602778
 30
0.0
 10
144.13429256363
 20
122.5392522932805
 30
0.0
 10
144.1302998491244
 20
122.5352595787749
 30
0.0
 10
144.1263088374218
 20
122.5312685670723
 30
0.0
  0
SPLINE
  5
3F6
330
1F
100
AcDbEntity
  8
0
  6
Continuous
 62
     7
370
    30
100
AcDbSpline
210
0.0
220
0.0
230
1.0
 70
    24
 71
     3
 72
    12
 73
     8
 74
     0
 42
0.000000001
 43
0.00000001
 40
-8.180577113410948
 40
-8.180577113410948
 40
-8.180577113410948
 40
-8.180577113410948
 40
-8.10113787219656
 40
-8.10113787219656
 40
-7.05161120305193
 40
-7.05161120305193
 40
-6.470998523745786
 40
-6.470998523745786
 40
-6.470998523745786
 40
-6.470998523745786
 10
146.068863903788
 20
124.4738236334448
 30
0.0
 10
146.0538967448496
 20
124.4588564745064
 30
0.0
 10
146.0389699811606
 20
124.4439297108174
 30
0.0
 10
145.8273989817732
 20
124.2323587114299
 30
0.0
 10
145.6316388939009
 20
124.0365986235574
 30
0.0
 10
145.3289515251502
 20
123.7339112548066
 30
0.0
 10
145.2218104858547
 20
123.6267702154921
 30
0.0
 10
145.1150418293061
 20
123.520001558935
 30
0.0
  0
SPLINE
  5
3F7
330
1F
100
AcDbEntity
  8
0
  6
Continuous
 62
     7
370
    30
100
AcDbSpline
210
0.0
220
0.0
230
1.0
 70
     8
 71
     3
 72
    10
 73
     6
 74
     0
 42
0.000000001
 43
0.00000001
 40
-16.39049167579122
 40
-16.39049167579122
 40
-16.39049167579122
 40
-16.39049167579122
 40
-16.0740659224788
 40
-16.0740659224788
 40
-15.90248021041442
 40
-15.90248021041442
 40
-15.90248021041442
 40
-15.90248021041442
 10
146.5145334354945
 20
124.3276192943878
 30
0.0
 10
146.4210080083847
 20
124.3683058202734
 30
0.0
 10
146.3253686463446
 20
124.4032190767835
 30
0.0
 10
146.1753852686425
 20
124.4478318672397
 30
0.0
 10
146.1222717323487
 20
124.461729498094
 30
0.0
 10
146.0688640274991
 20
124.4738237412757
 30
0.0
  0
SPLINE
  5
3F8
330
1F
100
AcDbEntity
  8
0
  6
Continuous
 62
     7
370
    30
100
AcDbSpline
210
0.0
220
0.0
230
1.0
 70
     8
 71
     3
 72
    18
 73
    14
 74
     0
 42
0.000000001
 43
0.00000001
 40
-6.571980927393129
 40
-6.571980927393129
 40
-6.571980927393129
 40
-6.571980927393129
 40
-6.278924044425939
 40
-6.278924044425939
 40
-5.86937554995985
 40
-5.86937554995985
 40
-5.52333086884542
 40
-5.52333086884542
 40
-5.16023013797107
 40
-5.16023013797107
 40
-4.65799161802361
 40
-4.65799161802361
 40
-4.410304444392234
 40
-4.410304444392234
 40
-4.410304444392234
 40
-4.410304444392234
 10
142.0033550375654
 20
124.5621679344793
 30
0.0
 10
142.0188679370156
 20
124.4875170593671
 30
0.0
 10
142.034375121525
 20
124.4130296205973
 30
0.0
 10
142.0715729781756
 20
124.23469925651
 30
0.0
 10
142.0932032547489
 20
124.1312831076768
 30
0.0
 10
142.1331024581126
 20
123.9410645009506
 30
0.0
 10
142.151332601104
 20
123.854362699522
 30
0.0
 10
142.1886670884098
 20
123.6772351478018
 30
0.0
 10
142.2077282325097
 20
123.587035761769
 30
0.0
 10
142.253106367488
 20
123.3728459715247
 30
0.0
 10
142.2793145587273
 20
123.2495782473308
 30
0.0
 10
142.3183752882
 20
123.0664661364929
 30
0.0
 10
142.3312373950542
 20
123.0062692929279
 30
0.0
 10
142.3440652657931
 20
122.9463254920846
 30
0.0
  0
SPLINE
  5
3F9
330
1F
100
AcDbEntity
  8
0
  6
Continuous
 62
     7
370
    30
100
AcDbSpline
210
0.0
220
0.0
230
1.0
 70
     8
 71
     3
 72
     8
 73
     4
 74
     0
 42
0.000000001
 43
0.00000001
 40
0.0
 40
0.0
 40
0.0
 40
0.0
 40
1.0
 40
1.0
 40
1.0
 40
1.0
 10
142.3440651337843
 20
122.9463251780036
 30
0.0
 10
142.1612150979682
 20
122.7592973209679
 30
0.0
 10
141.9770902378737
 20
122.5727504297996
 30
0.0
 10
141.7925425156926
 20
122.3876854681608
 30
0.0
  0
SPLINE
  5
3FA
330
1F
100
AcDbEntity
  8
0
  6
Continuous
 62
     7
370
    30
100
AcDbSpline
210
0.0
220
0.0
230
1.0
 70
     8
 71
     3
 72
    13
 73
     9
 74
     0
 42
0.000000001
 43
0.00000001
 40
0.0
 40
0.0
 40
0.0
 40
0.0
 40
0.123166824601677
 40
0.2484170762288131
 40
0.496580543427993
 40
0.7449053878388536
 40
0.8661166150829374
 40
1.0
 40
1.0
 40
1.0
 40
1.0
 10
141.7925425157571
 20
122.3876854681515
 30
0.0
 10
141.7268027762673
 20
122.3216970315643
 30
0.0
 10
141.5942112774696
 20
122.1886039317388
 30
0.0
 10
141.3278692621749
 20
121.9254771016844
 30
0.0
 10
140.9950534334421
 20
121.5983672975995
 30
0.0
 10
140.6648364427505
 20
121.2786457478363
 30
0.0
 10
140.3964741865425
 20
121.0208629363199
 30
0.0
 10
140.2609279203402
 20
120.8914212751492
 30
0.0
 10
140.1897880684309
 20
120.8234853528652
 30
0.0
  0
SPLINE
  5
3FB
330
1F
100
AcDbEntity
  8
0
  6
Continuous
 62
     7
370
    30
100
AcDbSpline
210
0.0
220
0.0
230
1.0
 70
     8
 71
     3
 72
    20
 73
    16
 74
     0
 42
0.000000001
 43
0.00000001
 40
2.047956107545904
 40
2.047956107545904
 40
2.047956107545904
 40
2.047956107545904
 40
2.36019587950653
 40
2.36019587950653
 40
2.687888396353675
 40
2.687888396353675
 40
2.906769827116155
 40
2.906769827116155
 40
3.10637641547214
 40
3.10637641547214
 40
3.34766001249066
 40
3.34766001249066
 40
3.76141569837456
 40
3.76141569837456
 40
3.872375896525695
 40
3.872375896525695
 40
3.872375896525695
 40
3.872375896525695
 10
144.126308935035
 20
122.5312692477618
 30
0.0
 10
144.0244576451784
 20
122.5533323805286
 30
0.0
 10
143.9225202219974
 20
122.5756764223326
 30
0.0
 10
143.7131888848171
 20
122.6221381963372
 30
0.0
 10
143.6061628137624
 20
122.6462021657962
 30
0.0
 10
143.427546852335
 20
122.6868991771724
 30
0.0
 10
143.3561003295578
 20
122.7033214329006
 30
0.0
 10
143.2195134086201
 20
122.7349937433243
 30
0.0
 10
143.1544449811689
 20
122.7502026841239
 30
0.0
 10
143.010770190104
 20
122.784051132103
 30
0.0
 10
142.9322854935584
 20
122.8027175988699
 30
0.0
 10
142.7193331779351
 20
122.8538367519484
 30
0.0
 10
142.5853959533323
 20
122.8864995583768
 30
0.0
 10
142.4157039507582
 20
122.9284933945391
 30
0.0
 10
142.379864883596
 20
122.9373972474264
 30
0.0
 10
142.344065221905
 20
122.9463251572412
 30
0.0
  0
SPLINE
  5
3FC
330
1F
100
AcDbEntity
  8
0
  6
Continuous
 62
     7
370
    30
100
AcDbSpline
210
0.0
220
0.0
230
1.0
 70
     8
 71
     3
 72
     8
 73
     4
 74
     0
 42
0.000000001
 43
0.00000001
 40
-4.770194531092518
 40
-4.770194531092518
 40
-4.770194531092518
 40
-4.770194531092518
 40
-4.280623746683732
 40
-4.280623746683732
 40
-4.280623746683732
 40
-4.280623746683732
 10
146.0688631043757
 20
124.4738235952593
 30
0.0
 10
146.0344655930945
 20
124.6257194913419
 30
0.0
 10
145.9855531063378
 20
124.7749197183244
 30
0.0
 10
145.9226594720816
 20
124.9194931301477
 30
0.0
  0
SPLINE
  5
3FD
330
1F
100
AcDbEntity
  8
0
  6
Continuous
 62
     7
370
    30
100
AcDbSpline
210
0.0
220
0.0
230
1.0
 70
     8
 71
     3
 72
    15
 73
    11
 74
     0
 42
0.000000001
 43
0.00000001
 40
0.0
 40
0.0
 40
0.0
 40
0.0
 40
0.1332787486958502
 40
0.250377415594808
 40
0.5001665002922873
 40
0.6251052464501672
 40
0.7500846026119646
 40
0.8750672113630166
 40
0.9367045985610218
 40
1.0
 40
1.0
 40
1.0
 40
1.0
 10
142.418542098878
 20
118.5947330372752
 30
0.0
 10
142.5096120956293
 20
118.6900115826906
 30
0.0
 10
142.6806961630287
 20
118.8690018282936
 30
0.0
 10
143.0264528236875
 20
119.2282021258519
 30
0.0
 10
143.3717924289487
 20
119.5824175792122
 30
0.0
 10
143.7276996610938
 20
119.9424362310893
 30
0.0
 10
143.9970307403262
 20
120.2122244321833
 30
0.0
 10
144.2225678140581
 20
120.4358376233759
 30
0.0
 10
144.4041376260071
 20
120.614734673009
 30
0.0
 10
144.4952198819763
 20
120.7038672024741
 30
0.0
 10
144.5413653976446
 20
120.7490249172367
 30
0.0
  0
LINE
  5
3FE
330
1F
100
AcDbEntity
  8
0
  6
CENTERX2
 62
     7
370
     0
100
AcDbLine
 10
130.3982176261
 20
120.7938764274
 30
0.0
 11
154.2030311235
 21
120.7938764274
 31
0.0
  0
LINE
  5
3FF
330
1F
100
AcDbEntity
  8
0
  6
CENTERX2
 62
     7
370
     0
100
AcDbLine
 10
142.3889166978
 20
109.1066239872
 30
0.0
 11
142.3889166978
 21
132.4858086354
 31
0.0
  0
HATCH
  5
400
330
1F
100
AcDbEntity
  8
0
  6
Continuous
 62
     7
370
     0
100
AcDbHatch
 10
0.0
 20
0.0
 30
0.0
210
0.0
220
0.0
230
1.0
  2
ANSI31
 70
     0
 71
     0
 91
        2
 92
        0
 93
        1
 72
     2
 10
142.388916697764
 20
120.7938764274198
 40
10.04888053466652
 50
0.0
 51
360.0
 73
     1
 97
        0
 92
        0
 93
       22
 72
     2
 10
142.3889166977636
 20
120.7938764274206
 40
9.55
 50
272.0102643682408
 51
419.8651249506181
 73
     0
 72
     1
 10
147.1833724202659
 20
112.5345971413712
 11
147.1479417507277
 21
112.5700281466413
 72
     2
 10
142.3889166977635
 20
120.7938764274196
 40
9.501578816175758
 50
59.94263863979707
 51
87.97948684572512
 73
     0
 72
     1
 10
142.7239166977636
 20
111.2982050451529
 11
142.7239166977636
 21
111.773876427421
 72
     2
 10
142.5239166977636
 20
111.773876427421
 40
0.2000000000000009
 50
0.0
 51
90.0
 73
     1
 72
     1
 10
142.5239166977636
 20
111.973876427421
 11
142.2539166977636
 21
111.973876427421
 72
     2
 10
142.2539166977636
 20
111.773876427421
 40
0.2
 50
90.0
 51
180.0
 73
     1
 72
     1
 10
142.0539166977636
 20
111.773876427421
 11
142.0539166977636
 21
111.2982050451528
 72
     2
 10
142.3889166977635
 20
120.7938764274196
 40
9.501578816175758
 50
92.02051315427386
 51
146.9835404629412
 73
     0
 72
     1
 10
134.4217091428816
 20
115.6166567317303
 11
134.801386793515
 21
115.8358637255288
 72
     2
 10
134.651386793515
 20
116.0956713466641
 40
0.3000000000000005
 50
300.0000000000012
 51
389.9999999999989
 73
     1
 72
     1
 10
134.9111944146503
 20
116.2456713466641
 11
134.7111944146503
 21
116.5920815081779
 72
     2
 10
134.451386793515
 20
116.4420815081778
 40
0.3000000000000035
 50
30.0000000000004
 51
119.9999999999943
 73
     1
 72
     1
 10
134.301386793515
 20
116.7018891293132
 11
133.9217091428817
 21
116.4826821355148
 72
     2
 10
142.3889166977635
 20
120.7938764274196
 40
9.501578816175758
 50
153.0164595370692
 51
210.0573613602039
 73
     0
 72
     1
 10
134.1650684169853
 20
125.5529014803838
 11
134.1296375350239
 21
125.5883323623452
 72
     2
 10
142.3889166977636
 20
120.7938764274206
 40
9.55
 50
210.1348765229865
 51
267.9897356317612
 73
     0
 72
     1
 10
142.0539166977636
 20
130.3379989643533
 11
142.0539166977636
 21
129.813876427421
 72
     2
 10
142.2539166977636
 20
129.813876427421
 40
0.2000000000000003
 50
180.0
 51
270.0000000000008
 73
     1
 72
     1
 10
142.2539166977636
 20
129.613876427421
 11
142.5239166977636
 21
129.613876427421
 72
     2
 10
142.5239166977636
 20
129.813876427421
 40
0.1999999999999997
 50
270.0000000000008
 51
359.9999999998624
 73
     1
 72
     1
 10
142.7239166977636
 20
129.8138764274206
 11
142.7239166977636
 21
130.3379989643533
 97
        0
 75
     0
 76
     1
 52
0.0
 41
1.0
 77
     0
 78
     1
 53
45.0
 43
0.0
 44
0.0
 45
-2.245064030267288
 46
2.245064030267288
 79
     0
 98
        1
 10
0.0
 20
0.0
  0
MTEXT
  5
401
330
1F
100
AcDbEntity
  8
0
  6
Continuous
 62
     7
370
     0
100
AcDbMText
 10
142.3026326193
 20
101.9422241018
 30
0.0
 40
3.5
 41
0.0
 71
     2
 72
     1
  1
SECTION A-A
  7
SLDTEXTSTYLE0
 73
     1
 44
1.0
  0
MTEXT
  5
402
330
1F
100
AcDbEntity
  8
0
  6
Continuous
 62
     7
370
     0
100
AcDbMText
 10
133.8652738045
 20
98.3132629609
 30
0.0
 40
3.5
 41
0.0
 71
     1
 72
     1
  1
SCALE 1:1
  7
SLDTEXTSTYLE0
 73
     1
 44
1.0
  0
ENDSEC
  0
SECTION
  2
OBJECTS
  0
DICTIONARY
  5
C
330
0
100
AcDbDictionary
281
     1
  3
ACAD_GROUP
350
D
  3
ACAD_LAYOUT
350
1A
  3
ACAD_MLINESTYLE
350
17
  3
ACAD_PLOTSETTINGS
350
19
  3
ACAD_PLOTSTYLENAME
350
E
  3
ACAD_SCALELIST
350
47
  0
DICTIONARY
  5
D
102
{ACAD_REACTORS
330
C
102
}
330
C
100
AcDbDictionary
281
     1
  0
DICTIONARY
  5
1A
102
{ACAD_REACTORS
330
C
102
}
330
C
100
AcDbDictionary
281
     1
  3
Layout1
350
1E
  3
Layout2
350
26
  3
Model
350
22
  0
DICTIONARY
  5
17
102
{ACAD_REACTORS
330
C
102
}
330
C
100
AcDbDictionary
281
     1
  3
Standard
350
18
  0
DICTIONARY
  5
19
102
{ACAD_REACTORS
330
C
102
}
330
C
100
AcDbDictionary
281
     1
  0
ACDBDICTIONARYWDFLT
  5
E
102
{ACAD_REACTORS
330
C
102
}
330
C
100
AcDbDictionary
281
     1
  3
Normal
350
F
100
AcDbDictionaryWithDefault
340
F
  0
DICTIONARY
  5
47
102
{ACAD_REACTORS
330
C
102
}
330
C
100
AcDbDictionary
281
     1
  3
A0
350
48
  3
A1
350
49
  3
A2
350
4A
  3
A3
350
4B
  3
A4
350
4C
  3
A5
350
4D
  3
A6
350
4E
  3
A7
350
4F
  3
A8
350
50
  3
A9
350
51
  3
B0
350
52
  3
B1
350
53
  3
B2
350
54
  3
B3
350
55
  3
B4
350
56
  3
B5
350
57
  3
B6
350
58
  3
B7
350
59
  3
B8
350
5A
  3
B9
350
5B
  3
C0
350
5C
  3
C1
350
5D
  3
C2
350
5E
  3
C3
350
5F
  3
C4
350
60
  3
C5
350
61
  3
C6
350
62
  3
C7
350
63
  3
C8
350
64
  3
C9
350
65
  3
D0
350
66
  3
D1
350
67
  3
D2
350
68
  0
LAYOUT
  5
1E
102
{ACAD_REACTORS
330
1A
102
}
330
1A
100
AcDbPlotSettings
  1

  2
none_device
  4

  6

 40
0.0
 41
0.0
 42
0.0
 43
0.0
 44
0.0
 45
0.0
 46
0.0
 47
0.0
 48
0.0
 49
0.0
140
0.0
141
0.0
142
1.0
143
1.0
 70
   688
 72
     1
 73
     0
 74
     5
  7

 75
    16
147
1.0
148
0.0
149
0.0
100
AcDbLayout
  1
Layout1
 70
     1
 71
     1
 10
0.0
 20
0.0
 11
420.0
 21
297.0
 12
0.0
 22
0.0
 32
0.0
 14
1.0000000000E+20
 24
1.0000000000E+20
 34
1.0000000000E+20
 15
-1.0000000000E+20
 25
-1.0000000000E+20
 35
-1.0000000000E+20
146
0.0
 13
0.0
 23
0.0
 33
0.0
 16
1.0
 26
0.0
 36
0.0
 17
0.0
 27
1.0
 37
0.0
 76
     0
330
1B
  0
LAYOUT
  5
26
102
{ACAD_REACTORS
330
1A
102
}
330
1A
100
AcDbPlotSettings
  1

  2
none_device
  4

  6

 40
0.0
 41
0.0
 42
0.0
 43
0.0
 44
0.0
 45
0.0
 46
0.0
 47
0.0
 48
0.0
 49
0.0
140
0.0
141
0.0
142
1.0
143
1.0
 70
   688
 72
     1
 73
     0
 74
     5
  7

 75
    16
147
1.0
148
0.0
149
0.0
100
AcDbLayout
  1
Layout2
 70
     1
 71
     2
 10
0.0
 20
0.0
 11
0.0
 21
0.0
 12
0.0
 22
0.0
 32
0.0
 14
0.0
 24
0.0
 34
0.0
 15
0.0
 25
0.0
 35
0.0
146
0.0
 13
0.0
 23
0.0
 33
0.0
 16
1.0
 26
0.0
 36
0.0
 17
0.0
 27
1.0
 37
0.0
 76
     0
330
23
  0
LAYOUT
  5
22
102
{ACAD_REACTORS
330
1A
102
}
330
1A
100
AcDbPlotSettings
  1

  2
none_device
  4
Letter_(8.50_x_11.00_Inches)
  6

 40
6.35
 41
6.35
 42
6.35000508
 43
6.35000508
 44
215.9
 45
279.4
 46
0.0
 47
0.0
 48
0.0
 49
0.0
140
0.0
141
0.0
142
1.0
143
1.0
 70
  1712
 72
     1
 73
     0
 74
     0
  7

 75
     0
147
1.0
148
0.0
149
0.0
100
AcDbLayout
  1
Model
 70
     1
 71
     0
 10
0.0
 20
0.0
 11
210.0
 21
297.0
 12
0.0
 22
0.0
 32
0.0
 14
0.0
 24
0.0
 34
0.0
 15
210.0
 25
297.0
 35
0.0
146
0.0
 13
0.0
 23
0.0
 33
0.0
 16
1.0
 26
0.0
 36
0.0
 17
0.0
 27
1.0
 37
0.0
 76
     0
330
1F
331
29
  0
MLINESTYLE
  5
18
102
{ACAD_REACTORS
330
17
102
}
330
17
100
AcDbMlineStyle
  2
Standard
 70
     0
  3

 62
   256
 51
90.0
 52
90.0
 71
     2
 49
0.5
 62
   256
  6
BYLAYER
 49
-0.5
 62
   256
  6
BYLAYER
  0
ACDBPLACEHOLDER
  5
F
102
{ACAD_REACTORS
330
E
102
}
330
E
  0
SCALE
  5
48
102
{ACAD_REACTORS
330
47
102
}
330
47
100
AcDbScale
 70
     0
300
1:1
140
1.0
141
1.0
290
     1
  0
SCALE
  5
49
102
{ACAD_REACTORS
330
47
102
}
330
47
100
AcDbScale
 70
     0
300
1:2
140
1.0
141
2.0
290
     0
  0
SCALE
  5
4A
102
{ACAD_REACTORS
330
47
102
}
330
47
100
AcDbScale
 70
     0
300
1:4
140
1.0
141
4.0
290
     0
  0
SCALE
  5
4B
102
{ACAD_REACTORS
330
47
102
}
330
47
100
AcDbScale
 70
     0
300
1:5
140
1.0
141
5.0
290
     0
  0
SCALE
  5
4C
102
{ACAD_REACTORS
330
47
102
}
330
47
100
AcDbScale
 70
     0
300
1:8
140
1.0
141
8.0
290
     0
  0
SCALE
  5
4D
102
{ACAD_REACTORS
330
47
102
}
330
47
100
AcDbScale
 70
     0
300
1:10
140
1.0
141
10.0
290
     0
  0
SCALE
  5
4E
102
{ACAD_REACTORS
330
47
102
}
330
47
100
AcDbScale
 70
     0
300
1:16
140
1.0
141
16.0
290
     0
  0
SCALE
  5
4F
102
{ACAD_REACTORS
330
47
102
}
330
47
100
AcDbScale
 70
     0
300
1:20
140
1.0
141
20.0
290
     0
  0
SCALE
  5
50
102
{ACAD_REACTORS
330
47
102
}
330
47
100
AcDbScale
 70
     0
300
1:30
140
1.0
141
30.0
290
     0
  0
SCALE
  5
51
102
{ACAD_REACTORS
330
47
102
}
330
47
100
AcDbScale
 70
     0
300
1:40
140
1.0
141
40.0
290
     0
  0
SCALE
  5
52
102
{ACAD_REACTORS
330
47
102
}
330
47
100
AcDbScale
 70
     0
300
1:50
140
1.0
141
50.0
290
     0
  0
SCALE
  5
53
102
{ACAD_REACTORS
330
47
102
}
330
47
100
AcDbScale
 70
     0
300
1:100
140
1.0
141
100.0
290
     0
  0
SCALE
  5
54
102
{ACAD_REACTORS
330
47
102
}
330
47
100
AcDbScale
 70
     0
300
2:1
140
2.0
141
1.0
290
     0
  0
SCALE
  5
55
102
{ACAD_REACTORS
330
47
102
}
330
47
100
AcDbScale
 70
     0
300
4:1
140
4.0
141
1.0
290
     0
  0
SCALE
  5
56
102
{ACAD_REACTORS
330
47
102
}
330
47
100
AcDbScale
 70
     0
300
8:1
140
8.0
141
1.0
290
     0
  0
SCALE
  5
57
102
{ACAD_REACTORS
330
47
102
}
330
47
100
AcDbScale
 70
     0
300
10:1
140
10.0
141
1.0
290
     0
  0
SCALE
  5
58
102
{ACAD_REACTORS
330
47
102
}
330
47
100
AcDbScale
 70
     0
300
100:1
140
100.0
141
1.0
290
     0
  0
SCALE
  5
59
102
{ACAD_REACTORS
330
47
102
}
330
47
100
AcDbScale
 70
     0
300
1/128" = 1'-0"
140
0.0078125
141
12.0
290
     0
  0
SCALE
  5
5A
102
{ACAD_REACTORS
330
47
102
}
330
47
100
AcDbScale
 70
     0
300
1/64" = 1'-0"
140
0.015625
141
12.0
290
     0
  0
SCALE
  5
5B
102
{ACAD_REACTORS
330
47
102
}
330
47
100
AcDbScale
 70
     0
300
1/32" = 1'-0"
140
0.03125
141
12.0
290
     0
  0
SCALE
  5
5C
102
{ACAD_REACTORS
330
47
102
}
330
47
100
AcDbScale
 70
     0
300
1/16" = 1'-0"
140
0.0625
141
12.0
290
     0
  0
SCALE
  5
5D
102
{ACAD_REACTORS
330
47
102
}
330
47
100
AcDbScale
 70
     0
300
3/32" = 1'-0"
140
0.09375
141
12.0
290
     0
  0
SCALE
  5
5E
102
{ACAD_REACTORS
330
47
102
}
330
47
100
AcDbScale
 70
     0
300
1/8" = 1'-0"
140
0.125
141
12.0
290
     0
  0
SCALE
  5
5F
102
{ACAD_REACTORS
330
47
102
}
330
47
100
AcDbScale
 70
     0
300
3/16" = 1'-0"
140
0.1875
141
12.0
290
     0
  0
SCALE
  5
60
102
{ACAD_REACTORS
330
47
102
}
330
47
100
AcDbScale
 70
     0
300
1/4" = 1'-0"
140
0.25
141
12.0
290
     0
  0
SCALE
  5
61
102
{ACAD_REACTORS
330
47
102
}
330
47
100
AcDbScale
 70
     0
300
3/8" = 1'-0"
140
0.375
141
12.0
290
     0
  0
SCALE
  5
62
102
{ACAD_REACTORS
330
47
102
}
330
47
100
AcDbScale
 70
     0
300
1/2" = 1'-0"
140
0.5
141
12.0
290
     0
  0
SCALE
  5
63
102
{ACAD_REACTORS
330
47
102
}
330
47
100
AcDbScale
 70
     0
300
3/4" = 1'-0"
140
0.75
141
12.0
290
     0
  0
SCALE
  5
64
102
{ACAD_REACTORS
330
47
102
}
330
47
100
AcDbScale
 70
     0
300
1" = 1'-0"
140
1.0
141
12.0
290
     0
  0
SCALE
  5
65
102
{ACAD_REACTORS
330
47
102
}
330
47
100
AcDbScale
 70
     0
300
1-1/2" = 1'-0"
140
1.5
141
12.0
290
     0
  0
SCALE
  5
66
102
{ACAD_REACTORS
330
47
102
}
330
47
100
AcDbScale
 70
     0
300
3" = 1'-0"
140
3.0
141
12.0
290
     0
  0
SCALE
  5
67
102
{ACAD_REACTORS
330
47
102
}
330
47
100
AcDbScale
 70
     0
300
6" = 1'-0"
140
6.0
141
12.0
290
     0
  0
SCALE
  5
68
102
{ACAD_REACTORS
330
47
102
}
330
47
100
AcDbScale
 70
     0
300
1'-0" = 1'-0"
140
12.0
141
12.0
290
     0
  0
ENDSEC
  0
EOF
