  0
SECTION
  2
HEADER
  9
$ACADVER
  1
AC1015
  9
$ACADMAINTVER
 70
     6
  9
$DWGCODEPAGE
  3
DOS932
  9
$INSBASE
 10
0.0
 20
0.0
 30
0.0
  9
$EXTMIN
 10
0.0
 20
0.0
 30
0.0
  9
$EXTMAX
 10
210.0
 20
297.0
 30
0.0
  9
$LIMMIN
 10
0.0
 20
0.0
  9
$LIMMAX
 10
210.0
 20
297.0
  9
$ORTHOMODE
 70
     0
  9
$REGENMODE
 70
     1
  9
$FILLMODE
 70
     1
  9
$QTEXTMODE
 70
     0
  9
$MIRRTEXT
 70
     1
  9
$LTSCALE
 40
1.0
  9
$ATTMODE
 70
     1
  9
$TEXTSIZE
 40
3.5
  9
$TRACEWID
 40
1.0
  9
$TEXTSTYLE
  7
Standard
  9
$CLAYER
  8
0
  9
$CELTYPE
  6
ByLayer
  9
$CECOLOR
 62
   256
  9
$CELTSCALE
 40
1.0
  9
$DISPSILH
 70
     0
  9
$DIMSCALE
 40
1.0
  9
$DIMASZ
 40
1.5
  9
$DIMEXO
 40
1.0
  9
$DIMDLI
 40
3.75
  9
$DIMRND
 40
0.0
  9
$DIMDLE
 40
0.0
  9
$DIMEXE
 40
1.0
  9
$DIMTP
 40
0.0
  9
$DIMTM
 40
0.0
  9
$DIMTXT
 40
3.5
  9
$DIMCEN
 40
2.5
  9
$DIMTSZ
 40
0.0
  9
$DIMTOL
 70
     0
  9
$DIMLIM
 70
     0
  9
$DIMTIH
 70
     1
  9
$DIMTOH
 70
     1
  9
$DIMSE1
 70
     0
  9
$DIMSE2
 70
     0
  9
$DIMTAD
 70
     1
  9
$DIMZIN
 70
     0
  9
$DIMBLK
  1

  9
$DIMASO
 70
     1
  9
$DIMSHO
 70
     1
  9
$DIMPOST
  1

  9
$DIMAPOST
  1

  9
$DIMALT
 70
     0
  9
$DIMALTD
 70
     3
  9
$DIMALTF
 40
0.0393700787
  9
$DIMLFAC
 40
1.0
  9
$DIMTOFL
 70
     1
  9
$DIMTVP
 40
0.0
  9
$DIMTIX
 70
     0
  9
$DIMSOXD
 70
     0
  9
$DIMSAH
 70
     0
  9
$DIMBLK1
  1

  9
$DIMBLK2
  1

  9
$DIMSTYLE
  2
ISO-25
  9
$DIMCLRD
 70
     0
  9
$DIMCLRE
 70
     0
  9
$DIMCLRT
 70
     0
  9
$DIMTFAC
 40
1.0
  9
$DIMGAP
 40
1.524
  9
$DIMJUST
 70
     0
  9
$DIMSD1
 70
     0
  9
$DIMSD2
 70
     0
  9
$DIMTOLJ
 70
     0
  9
$DIMTZIN
 70
     0
  9
$DIMALTZ
 70
     0
  9
$DIMALTTZ
 70
     0
  9
$DIMUPT
 70
     0
  9
$DIMDEC
 70
     2
  9
$DIMTDEC
 70
     2
  9
$DIMALTU
 70
     2
  9
$DIMALTTD
 70
     3
  9
$DIMTXSTY
  7
Standard
  9
$DIMAUNIT
 70
     0
  9
$DIMADEC
 70
     2
  9
$DIMALTRND
 40
0.0
  9
$DIMAZIN
 70
     0
  9
$DIMDSEP
 70
    44
  9
$DIMATFIT
 70
     3
  9
$DIMFRAC
 70
     0
  9
$DIMLDRBLK
  1

  9
$DIMLUNIT
 70
     2
  9
$DIMLWD
 70
    -2
  9
$DIMLWE
 70
    -2
  9
$DIMTMOVE
 70
     0
  9
$LUNITS
 70
     2
  9
$LUPREC
 70
     2
  9
$SKETCHINC
 40
1.0
  9
$FILLETRAD
 40
10.0
  9
$AUNITS
 70
     0
  9
$AUPREC
 70
     2
  9
$MENU
  1
.
  9
$ELEVATION
 40
0.0
  9
$PELEVATION
 40
0.0
  9
$THICKNESS
 40
0.0
  9
$LIMCHECK
 70
     0
  9
$CHAMFERA
 40
0.0
  9
$CHAMFERB
 40
0.0
  9
$CHAMFERC
 40
0.0
  9
$CHAMFERD
 40
0.0
  9
$SKPOLY
 70
     0
  9
$TDCREATE
 40
2458131.639314606
  9
$TDUCREATE
 40
2458131.59764794
  9
$TDUPDATE
 40
2458131.639317616
  9
$TDUUPDATE
 40
2458131.597650949
  9
$TDINDWG
 40
0.0000000116
  9
$TDUSRTIMER
 40
0.0000000116
  9
$USRTIMER
 70
     1
  9
$ANGBASE
 50
0.0
  9
$ANGDIR
 70
     0
  9
$PDMODE
 70
     0
  9
$PDSIZE
 40
-1.0
  9
$PLINEWID
 40
0.0
  9
$SPLFRAME
 70
     0
  9
$SPLINETYPE
 70
     6
  9
$SPLINESEGS
 70
     8
  9
$HANDSEED
  5
40F
  9
$SURFTAB1
 70
     6
  9
$SURFTAB2
 70
     6
  9
$SURFTYPE
 70
     6
  9
$SURFU
 70
     6
  9
$SURFV
 70
     6
  9
$UCSBASE
  2

  9
$UCSNAME
  2

  9
$UCSORG
 10
0.0
 20
0.0
 30
0.0
  9
$UCSXDIR
 10
1.0
 20
0.0
 30
0.0
  9
$UCSYDIR
 10
0.0
 20
1.0
 30
0.0
  9
$UCSORTHOREF
  2

  9
$UCSORTHOVIEW
 70
     0
  9
$UCSORGTOP
 10
0.0
 20
0.0
 30
0.0
  9
$UCSORGBOTTOM
 10
0.0
 20
0.0
 30
0.0
  9
$UCSORGLEFT
 10
0.0
 20
0.0
 30
0.0
  9
$UCSORGRIGHT
 10
0.0
 20
0.0
 30
0.0
  9
$UCSORGFRONT
 10
0.0
 20
0.0
 30
0.0
  9
$UCSORGBACK
 10
0.0
 20
0.0
 30
0.0
  9
$PUCSBASE
  2

  9
$PUCSNAME
  2

  9
$PUCSORG
 10
0.0
 20
0.0
 30
0.0
  9
$PUCSXDIR
 10
1.0
 20
0.0
 30
0.0
  9
$PUCSYDIR
 10
0.0
 20
1.0
 30
0.0
  9
$PUCSORTHOREF
  2

  9
$PUCSORTHOVIEW
 70
     0
  9
$PUCSORGTOP
 10
0.0
 20
0.0
 30
0.0
  9
$PUCSORGBOTTOM
 10
0.0
 20
0.0
 30
0.0
  9
$PUCSORGLEFT
 10
0.0
 20
0.0
 30
0.0
  9
$PUCSORGRIGHT
 10
0.0
 20
0.0
 30
0.0
  9
$PUCSORGFRONT
 10
0.0
 20
0.0
 30
0.0
  9
$PUCSORGBACK
 10
0.0
 20
0.0
 30
0.0
  9
$USERI1
 70
     0
  9
$USERI2
 70
     0
  9
$USERI3
 70
     0
  9
$USERI4
 70
     0
  9
$USERI5
 70
     0
  9
$USERR1
 40
0.0
  9
$USERR2
 40
0.0
  9
$USERR3
 40
0.0
  9
$USERR4
 40
0.0
  9
$USERR5
 40
0.0
  9
$WORLDVIEW
 70
     1
  9
$SHADEDGE
 70
     3
  9
$SHADEDIF
 70
    70
  9
$TILEMODE
 70
     1
  9
$MAXACTVP
 70
    64
  9
$PINSBASE
 10
0.0
 20
0.0
 30
0.0
  9
$PLIMCHECK
 70
     0
  9
$PEXTMIN
 10
1.0000000000E+20
 20
1.0000000000E+20
 30
1.0000000000E+20
  9
$PEXTMAX
 10
-1.0000000000E+20
 20
-1.0000000000E+20
 30
-1.0000000000E+20
  9
$PLIMMIN
 10
0.0
 20
0.0
  9
$PLIMMAX
 10
420.0
 20
297.0
  9
$UNITMODE
 70
     0
  9
$VISRETAIN
 70
     1
  9
$PLINEGEN
 70
     0
  9
$PSLTSCALE
 70
     1
  9
$TREEDEPTH
 70
  3020
  9
$CMLSTYLE
  2
Standard
  9
$CMLJUST
 70
     0
  9
$CMLSCALE
 40
20.0
  9
$PROXYGRAPHICS
 70
     1
  9
$MEASUREMENT
 70
     1
  9
$CELWEIGHT
370
    -1
  9
$ENDCAPS
280
     0
  9
$JOINSTYLE
280
     0
  9
$LWDISPLAY
290
     1
  9
$INSUNITS
 70
     4
  9
$HYPERLINKBASE
  1

  9
$STYLESHEET
  1

  9
$XEDIT
290
     1
  9
$CEPSNTYPE
380
     0
  9
$PSTYLEMODE
290
     1
  9
$FINGERPRINTGUID
  2
{8E4A8503-619E-46AB-984B-92AB06D2B593}
  9
$VERSIONGUID
  2
{FAEB1C32-E019-11D5-929B-00C0DF256EC4}
  9
$EXTNAMES
290
     1
  9
$PSVPSCALE
 40
0.0
  9
$OLESTARTUP
290
     0
  0
ENDSEC
  0
SECTION
  2
CLASSES
  0
CLASS
  1
ACDBDICTIONARYWDFLT
  2
AcDbDictionaryWithDefault
  3
ObjectDBX Classes
 90
        0
280
     0
281
     0
  0
CLASS
  1
VISUALSTYLE
  2
AcDbVisualStyle
  3
ObjectDBX Classes
 90
     4095
280
     0
281
     0
  0
CLASS
  1
MATERIAL
  2
AcDbMaterial
  3
ObjectDBX Classes
 90
     1153
280
     0
281
     0
  0
CLASS
  1
SCALE
  2
AcDbScale
  3
ObjectDBX Classes
 90
     1153
280
     0
281
     0
  0
CLASS
  1
SUN
  2
AcDbSun
  3
SCENEOE
 90
     1153
280
     0
281
     0
  0
CLASS
  1
ACDBPLACEHOLDER
  2
AcDbPlaceHolder
  3
ObjectDBX Classes
 90
        0
280
     0
281
     0
  0
CLASS
  1
LAYOUT
  2
AcDbLayout
  3
ObjectDBX Classes
 90
        0
280
     0
281
     0
  0
ENDSEC
  0
SECTION
  2
TABLES
  0
TABLE
  2
VPORT
  5
8
330
0
100
AcDbSymbolTable
 70
     1
  0
VPORT
  5
29
330
8
100
AcDbSymbolTableRecord
100
AcDbViewportTableRecord
  2
*Active
 70
     0
 10
0.0
 20
0.0
 11
1.0
 21
1.0
 12
105.0
 22
148.5
 13
0.0
 23
0.0
 14
10.0
 24
10.0
 15
10.0
 25
10.0
 16
0.0
 26
0.0
 36
1.0
 17
0.0
 27
0.0
 37
0.0
 40
297.0
 41
0.7070707071
 42
50.0
 43
0.0
 44
0.0
 50
0.0
 51
0.0
 71
     0
 72
  2000
 73
     1
 74
     3
 75
     0
 76
     0
 77
     0
 78
     0
281
     0
 65
     1
110
0.0
120
0.0
130
0.0
111
1.0
121
0.0
131
0.0
112
0.0
122
1.0
132
0.0
 79
     0
146
0.0
  0
ENDTAB
  0
TABLE
  2
LTYPE
  5
5
330
0
100
AcDbSymbolTable
 70
     6
  0
LTYPE
  5
14
330
5
100
AcDbSymbolTableRecord
100
AcDbLinetypeTableRecord
  2
ByBlock
 70
     0
  3

 72
    65
 73
     0
 40
0.0
  0
LTYPE
  5
15
330
5
100
AcDbSymbolTableRecord
100
AcDbLinetypeTableRecord
  2
ByLayer
 70
     0
  3

 72
    65
 73
     0
 40
0.0
  0
LTYPE
  5
16
330
5
100
AcDbSymbolTableRecord
100
AcDbLinetypeTableRecord
  2
Continuous
 70
     0
  3
Solid line
 72
    65
 73
     0
 40
0.0
  0
LTYPE
  5
6A
330
5
100
AcDbSymbolTableRecord
100
AcDbLinetypeTableRecord
  2
HIDDEN
 70
     0
  3
Hidden __ __ __ __ __ __ __ __ __ __ __ __ __ __
 72
    65
 73
     2
 40
1.905
 49
1.27
 74
     0
 49
-0.635
 74
     0
  0
LTYPE
  5
6B
330
5
100
AcDbSymbolTableRecord
100
AcDbLinetypeTableRecord
  2
PHANTOM
 70
     0
  3
Phantom ______  __  __  ______  __  __  ______
 72
    65
 73
     6
 40
12.7
 49
6.35
 74
     0
 49
-1.27
 74
     0
 49
1.27
 74
     0
 49
-1.27
 74
     0
 49
1.27
 74
     0
 49
-1.27
 74
     0
  0
LTYPE
  5
6C
330
5
100
AcDbSymbolTableRecord
100
AcDbLinetypeTableRecord
  2
CENTER
 70
     0
  3
Center ____ _ ____ _ ____ _ ____ _ ____ _ ____
 72
    65
 73
     4
 40
10.16
 49
6.35
 74
     0
 49
-1.27
 74
     0
 49
1.27
 74
     0
 49
-1.27
 74
     0
  0
LTYPE
  5
6D
330
5
100
AcDbSymbolTableRecord
100
AcDbLinetypeTableRecord
  2
CENTERX2
 70
     0
  3
Center (2x) ________  __  ________  __  _____
 72
    65
 73
     4
 40
20.32
 49
12.7
 74
     0
 49
-2.54
 74
     0
 49
2.54
 74
     0
 49
-2.54
 74
     0
  0
LTYPE
  5
6E
330
5
100
AcDbSymbolTableRecord
100
AcDbLinetypeTableRecord
  2
DOT2
 70
     0
  3
Dot (.5x) ........................................
 72
    65
 73
     2
 40
0.635
 49
0.0
 74
     0
 49
-0.635
 74
     0
  0
ENDTAB
  0
TABLE
  2
LAYER
  5
2
330
0
100
AcDbSymbolTable
 70
     1
  0
LAYER
  5
10
330
2
100
AcDbSymbolTableRecord
100
AcDbLayerTableRecord
  2
0
 70
     0
 62
     7
  6
Continuous
370
    -3
390
F
  0
ENDTAB
  0
TABLE
  2
STYLE
  5
3
330
0
100
AcDbSymbolTable
 70
     4
  0
STYLE
  5
11
330
3
100
AcDbSymbolTableRecord
100
AcDbTextStyleTableRecord
  2
Standard
 70
     0
 40
0.0
 41
1.0
 50
0.0
 71
     0
 42
3.5
  3
txt
  4
bigfont
  0
STYLE
  5
87
330
3
100
AcDbSymbolTableRecord
100
AcDbTextStyleTableRecord
  2
SLDTEXTSTYLE0
 70
     0
 40
0.0
 41
0.7
 50
0.0
 71
     0
 42
3.5
  3
TXT
  4
bigfont
  0
STYLE
  5
EB
330
3
100
AcDbSymbolTableRecord
100
AcDbTextStyleTableRecord
  2
SLDTEXTSTYLE1
 70
     0
 40
0.0
 41
0.6090909091
 50
0.0
 71
     0
 42
3.5
  3
TXT
  4
bigfont
  0
STYLE
  5
40B
330
3
100
AcDbSymbolTableRecord
100
AcDbTextStyleTableRecord
  2
SLDTEXTSTYLE2
 70
     0
 40
0.0
 41
0.75
 50
0.0
 71
     0
 42
3.5
  3
TXT
  4
bigfont
  0
ENDTAB
  0
TABLE
  2
VIEW
  5
6
330
0
100
AcDbSymbolTable
 70
     0
  0
ENDTAB
  0
TABLE
  2
UCS
  5
7
330
0
100
AcDbSymbolTable
 70
     0
  0
ENDTAB
  0
TABLE
  2
APPID
  5
9
330
0
100
AcDbSymbolTable
 70
     1
  0
APPID
  5
12
330
9
100
AcDbSymbolTableRecord
100
AcDbRegAppTableRecord
  2
ACAD
 70
     0
  0
ENDTAB
  0
TABLE
  2
DIMSTYLE
  5
A
330
0
100
AcDbSymbolTable
 70
    13
100
AcDbDimStyleTable
  0
DIMSTYLE
105
27
330
A
100
AcDbSymbolTableRecord
100
AcDbDimStyleTableRecord
  2
ISO-25
 70
     0
 41
2.5
 42
0.625
 43
3.75
 44
1.25
 73
     0
 74
     0
 77
     1
 78
     8
140
2.5
141
2.5
143
0.0393700787
147
0.625
171
     3
172
     1
178
     0
271
     2
272
     2
274
     3
278
    44
283
     0
284
     8
340
11
  0
DIMSTYLE
105
88
102
{ACAD_REACTORS
330
86
102
}
330
A
100
AcDbSymbolTableRecord
100
AcDbDimStyleTableRecord
  2
SLDDIMSTYLE0
 70
     0
 41
1.5
 44
0.0
 45
0.000000001
 78
    12
 79
     3
140
3.5
141
0.0
147
0.875
172
     1
173
     1
178
     0
271
     2
272
     2
276
     2
284
    12
340
87
341
89
343
89
344
8C
  0
DIMSTYLE
105
9D
102
{ACAD_REACTORS
330
9C
330
A7
102
}
330
A
100
AcDbSymbolTableRecord
100
AcDbDimStyleTableRecord
  2
SLDDIMSTYLE1
 70
     0
 41
1.5
 44
0.0
 73
     0
 74
     0
 77
     3
 78
    12
 79
     3
140
3.5
147
0.875
173
     1
178
     0
179
     2
272
     2
276
     2
284
    12
340
87
341
8C
343
8C
344
8C
  0
DIMSTYLE
105
B2
102
{ACAD_REACTORS
330
B1
102
}
330
A
100
AcDbSymbolTableRecord
100
AcDbDimStyleTableRecord
  2
SLDDIMSTYLE2
 70
     0
 41
1.5
 44
0.0
 45
0.000000001
 47
0.1
 71
     1
 78
     8
 79
     2
140
3.5
141
0.0
147
0.875
172
     1
173
     1
178
     0
271
     2
272
     1
276
     2
284
     8
340
87
341
89
343
89
344
8C
  0
DIMSTYLE
105
144
102
{ACAD_REACTORS
330
143
330
15B
102
}
330
A
100
AcDbSymbolTableRecord
100
AcDbDimStyleTableRecord
  2
SLDDIMSTYLE3
 70
     0
 41
1.5
 44
0.0
 45
0.000000001
 73
     0
 74
     0
 77
     3
 78
    12
 79
     3
140
3.5
147
0.875
173
     1
178
     0
271
     1
272
     2
276
     2
284
    12
340
87
341
8C
343
8C
344
8C
  0
DIMSTYLE
105
14F
102
{ACAD_REACTORS
330
14E
330
18E
330
2D8
102
}
330
A
100
AcDbSymbolTableRecord
100
AcDbDimStyleTableRecord
  2
SLDDIMSTYLE4
 70
     0
 41
1.5
 44
0.0
 45
0.000000001
 73
     0
 74
     0
 77
     3
 78
    12
 79
     3
140
3.5
147
0.875
173
     1
178
     0
271
     1
272
     1
276
     2
284
    12
340
87
341
8C
343
8C
344
8C
  0
DIMSTYLE
105
167
102
{ACAD_REACTORS
330
166
102
}
330
A
100
AcDbSymbolTableRecord
100
AcDbDimStyleTableRecord
  2
SLDDIMSTYLE5
 70
     0
 41
1.5
 44
0.0
 45
0.000000001
 47
0.05
 48
0.05
 71
     1
 73
     0
 74
     0
 77
     3
 78
     8
 79
     2
140
3.5
147
0.875
172
     1
173
     1
178
     0
271
     2
272
     2
276
     2
284
     8
289
     0
340
87
341
8C
343
8C
344
8C
  0
DIMSTYLE
105
174
102
{ACAD_REACTORS
330
173
102
}
330
A
100
AcDbSymbolTableRecord
100
AcDbDimStyleTableRecord
  2
SLDDIMSTYLE6
 70
     0
 41
1.5
 44
0.0
 45
0.000000001
 73
     0
 74
     0
 77
     3
 78
    12
 79
     3
140
3.5
147
0.875
172
     1
173
     1
178
     0
271
     6
272
     2
276
     2
284
    12
289
     0
340
87
341
8C
343
8C
344
8C
  0
DIMSTYLE
105
182
102
{ACAD_REACTORS
330
181
330
352
102
}
330
A
100
AcDbSymbolTableRecord
100
AcDbDimStyleTableRecord
  2
SLDDIMSTYLE7
 70
     0
 41
1.5
 44
0.0
 45
0.000000001
 73
     0
 74
     0
 77
     3
 78
    12
 79
     3
140
3.5
147
0.875
172
     1
173
     1
178
     0
271
     1
272
     1
276
     2
284
    12
289
     0
340
87
341
8C
343
8C
344
8C
  0
DIMSTYLE
105
254
102
{ACAD_REACTORS
330
253
102
}
330
A
100
AcDbSymbolTableRecord
100
AcDbDimStyleTableRecord
  2
SLDDIMSTYLE8
 70
     0
 41
1.5
 44
0.0
 45
0.000000001
 47
0.2
 48
0.2
 71
     1
 78
    12
 79
     3
140
3.5
141
0.0
147
0.875
172
     1
173
     1
178
     0
271
     2
272
     1
276
     2
284
     8
340
87
341
89
343
89
344
8C
  0
DIMSTYLE
105
261
102
{ACAD_REACTORS
330
260
330
26B
102
}
330
A
100
AcDbSymbolTableRecord
100
AcDbDimStyleTableRecord
  2
SLDDIMSTYLE9
 70
     0
 41
1.5
 44
0.0
 73
     0
 74
     0
 77
     3
 78
    12
 79
     3
140
3.5
147
0.875
173
     1
178
     0
179
     2
272
     2
276
     2
284
    12
340
87
341
8C
343
8C
344
8C
  0
DIMSTYLE
105
276
330
A
100
AcDbSymbolTableRecord
100
AcDbDimStyleTableRecord
  2
SLDDIMSTYLE10
 70
     0
 41
1.5
 44
0.0
 45
0.000000001
146
1.5
147
0.0
173
     1
178
     0
271
     0
272
     0
276
     2
340
11
341
8C
343
8C
344
8C
  0
DIMSTYLE
105
341
102
{ACAD_REACTORS
330
340
102
}
330
A
100
AcDbSymbolTableRecord
100
AcDbDimStyleTableRecord
  2
SLDDIMSTYLE11
 70
     0
 41
1.5
 44
0.0
 45
0.000000001
 47
0.2
 71
     1
 73
     0
 74
     0
 77
     3
 78
    12
 79
     3
140
3.5
147
0.875
173
     1
178
     0
271
     1
272
     1
276
     2
284
     8
340
87
341
8C
343
8C
344
8C
  0
ENDTAB
  0
TABLE
  2
BLOCK_RECORD
  5
1
330
0
100
AcDbSymbolTable
 70
    26
  0
BLOCK_RECORD
  5
1F
330
1
100
AcDbSymbolTableRecord
100
AcDbBlockTableRecord
  2
*Model_Space
340
22
  0
BLOCK_RECORD
  5
1B
330
1
100
AcDbSymbolTableRecord
100
AcDbBlockTableRecord
  2
*Paper_Space
340
1E
  0
BLOCK_RECORD
  5
23
330
1
100
AcDbSymbolTableRecord
100
AcDbBlockTableRecord
  2
*Paper_Space0
340
26
  0
BLOCK_RECORD
  5
89
330
1
100
AcDbSymbolTableRecord
100
AcDbBlockTableRecord
  2
_NONE
340
0
  0
BLOCK_RECORD
  5
8C
330
1
100
AcDbSymbolTableRecord
100
AcDbBlockTableRecord
  2
_OPEN30
340
0
102
{BLKREFS
331
95
331
A2
331
A3
331
AC
331
AD
331
B6
331
148
331
149
331
153
331
154
331
15F
331
160
331
16B
331
16C
331
178
331
179
331
186
331
187
331
192
331
193
331
1A2
331
1A4
331
258
331
266
331
267
331
270
331
271
331
2DC
331
2DD
331
345
331
346
331
356
331
357
102
}
  0
BLOCK_RECORD
  5
92
330
1
100
AcDbSymbolTableRecord
100
AcDbBlockTableRecord
  2
_D
340
0
  0
BLOCK_RECORD
  5
9E
330
1
100
AcDbSymbolTableRecord
100
AcDbBlockTableRecord
  2
_D_1
340
0
  0
BLOCK_RECORD
  5
A8
330
1
100
AcDbSymbolTableRecord
100
AcDbBlockTableRecord
  2
_D_2
340
0
  0
BLOCK_RECORD
  5
B3
330
1
100
AcDbSymbolTableRecord
100
AcDbBlockTableRecord
  2
_D_3
340
0
  0
BLOCK_RECORD
  5
C2
330
1
100
AcDbSymbolTableRecord
100
AcDbBlockTableRecord
  2
SW_NOTE_0
340
0
102
{BLKREFS
331
C8
102
}
  0
BLOCK_RECORD
  5
C9
330
1
100
AcDbSymbolTableRecord
100
AcDbBlockTableRecord
  2
SW_NOTE_1
340
0
102
{BLKREFS
331
CE
102
}
  0
BLOCK_RECORD
  5
D2
330
1
100
AcDbSymbolTableRecord
100
AcDbBlockTableRecord
  2
SW_NOTE_2
340
0
102
{BLKREFS
331
D9
102
}
  0
BLOCK_RECORD
  5
E8
330
1
100
AcDbSymbolTableRecord
100
AcDbBlockTableRecord
  2
SW_NOTE_3
340
0
102
{BLKREFS
331
EE
102
}
  0
BLOCK_RECORD
  5
145
330
1
100
AcDbSymbolTableRecord
100
AcDbBlockTableRecord
  2
_D_4
340
0
  0
BLOCK_RECORD
  5
150
330
1
100
AcDbSymbolTableRecord
100
AcDbBlockTableRecord
  2
_D_5
340
0
  0
BLOCK_RECORD
  5
15C
330
1
100
AcDbSymbolTableRecord
100
AcDbBlockTableRecord
  2
_D_6
340
0
  0
BLOCK_RECORD
  5
168
330
1
100
AcDbSymbolTableRecord
100
AcDbBlockTableRecord
  2
_D_7
340
0
  0
BLOCK_RECORD
  5
175
330
1
100
AcDbSymbolTableRecord
100
AcDbBlockTableRecord
  2
_D_8
340
0
  0
BLOCK_RECORD
  5
183
330
1
100
AcDbSymbolTableRecord
100
AcDbBlockTableRecord
  2
_D_9
340
0
  0
BLOCK_RECORD
  5
18F
330
1
100
AcDbSymbolTableRecord
100
AcDbBlockTableRecord
  2
_D_10
340
0
  0
BLOCK_RECORD
  5
255
330
1
100
AcDbSymbolTableRecord
100
AcDbBlockTableRecord
  2
_D_11
340
0
  0
BLOCK_RECORD
  5
262
330
1
100
AcDbSymbolTableRecord
100
AcDbBlockTableRecord
  2
_D_12
340
0
  0
BLOCK_RECORD
  5
26C
330
1
100
AcDbSymbolTableRecord
100
AcDbBlockTableRecord
  2
_D_13
340
0
  0
BLOCK_RECORD
  5
2D9
330
1
100
AcDbSymbolTableRecord
100
AcDbBlockTableRecord
  2
_D_14
340
0
  0
BLOCK_RECORD
  5
342
330
1
100
AcDbSymbolTableRecord
100
AcDbBlockTableRecord
  2
_D_15
340
0
  0
BLOCK_RECORD
  5
353
330
1
100
AcDbSymbolTableRecord
100
AcDbBlockTableRecord
  2
_D_16
340
0
  0
BLOCK_RECORD
  5
35F
330
1
100
AcDbSymbolTableRecord
100
AcDbBlockTableRecord
  2
SW_NOTE_4
340
0
102
{BLKREFS
331
369
102
}
  0
BLOCK_RECORD
  5
408
330
1
100
AcDbSymbolTableRecord
100
AcDbBlockTableRecord
  2
SW_NOTE_5
340
0
102
{BLKREFS
331
40E
102
}
  0
ENDTAB
  0
ENDSEC
  0
SECTION
  2
BLOCKS
  0
BLOCK
  5
20
330
1F
100
AcDbEntity
  8
0
100
AcDbBlockBegin
  2
*Model_Space
 70
     0
 10
0.0
 20
0.0
 30
0.0
  3
*Model_Space
  1
*Model_Space
  0
ENDBLK
  5
21
330
1F
100
AcDbEntity
  8
0
100
AcDbBlockEnd
  0
BLOCK
  5
1C
330
1B
100
AcDbEntity
 67
     1
  8
0
100
AcDbBlockBegin
  2
*Paper_Space
 70
     0
 10
0.0
 20
0.0
 30
0.0
  3
*Paper_Space
  1
*Paper_Space
  0
ENDBLK
  5
1D
330
1B
100
AcDbEntity
 67
     1
  8
0
100
AcDbBlockEnd
  0
BLOCK
  5
24
330
23
100
AcDbEntity
  8
0
100
AcDbBlockBegin
  2
*Paper_Space0
 70
     0
 10
0.0
 20
0.0
 30
0.0
  3
*Paper_Space0
  1
*Paper_Space0
  0
ENDBLK
  5
25
330
23
100
AcDbEntity
  8
0
100
AcDbBlockEnd
  0
BLOCK
  5
8A
330
89
100
AcDbEntity
  8
0
100
AcDbBlockBegin
  2
_NONE
 70
     0
 10
0.0
 20
0.0
 30
0.0
  3
_NONE
  1
_NONE
  0
ENDBLK
  5
8B
330
89
100
AcDbEntity
  8
0
100
AcDbBlockEnd
  0
BLOCK
  5
8D
330
8C
100
AcDbEntity
  8
0
100
AcDbBlockBegin
  2
_OPEN30
 70
     0
 10
0.0
 20
0.0
 30
0.0
  3
_OPEN30
  1
_OPEN30
  0
LINE
  5
8F
330
8C
100
AcDbEntity
  8
0
  6
ByBlock
 62
     0
370
    -2
100
AcDbLine
 10
-1.0
 20
0.267949
 30
0.0
 11
0.0
 21
0.0
 31
0.0
  0
LINE
  5
90
330
8C
100
AcDbEntity
  8
0
  6
ByBlock
 62
     0
370
    -2
100
AcDbLine
 10
0.0
 20
0.0
 30
0.0
 11
-1.0
 21
-0.267949
 31
0.0
  0
LINE
  5
91
330
8C
100
AcDbEntity
  8
0
  6
ByBlock
 62
     0
370
    -2
100
AcDbLine
 10
0.0
 20
0.0
 30
0.0
 11
-1.0
 21
0.0
 31
0.0
  0
ENDBLK
  5
8E
330
8C
100
AcDbEntity
  8
0
100
AcDbBlockEnd
  0
BLOCK
  5
93
330
92
100
AcDbEntity
  8
0
100
AcDbBlockBegin
  2
_D
 70
     0
 10
0.0
 20
0.0
 30
0.0
  3
_D
  1
_D
  0
INSERT
  5
95
330
92
100
AcDbEntity
  8
0
  6
Continuous
 62
     7
370
     0
100
AcDbBlockReference
  2
_OPEN30
 10
49.8217118314
 20
125.6768594977
 30
0.1
 41
1.5
 42
1.5
 50
41.1443632207
  0
LINE
  5
96
330
92
100
AcDbEntity
  8
0
  6
Continuous
 62
     7
370
     0
100
AcDbLine
 10
49.8217118314
 20
125.6768594977
 30
0.0
 11
44.1895096072
 21
120.755891542
 31
0.0
  0
LINE
  5
97
330
92
100
AcDbEntity
  8
0
  6
Continuous
 62
     7
370
     0
100
AcDbLine
 10
53.6472270208
 20
129.0192887842
 30
0.0
 11
49.8217118314
 21
125.6768594977
 31
0.0
  0
LINE
  5
98
330
92
100
AcDbEntity
  8
0
  6
Continuous
 62
     7
370
     0
100
AcDbLine
 10
44.1895096072
 20
120.755891542
 30
0.0
 11
22.8216624835
 21
120.755891542
 31
0.0
  0
MTEXT
  5
99
330
92
100
AcDbEntity
  8
0
  6
Continuous
 62
     7
370
     0
100
AcDbMText
 10
22.8216624835
 20
125.2676288641
 30
0.0
 40
3.5
 41
0.0
 71
     1
 72
     1
  1
%%c
  7
SLDTEXTSTYLE0
 73
     1
 44
1.0
  0
MTEXT
  5
9A
330
92
100
AcDbEntity
  8
0
  6
Continuous
 62
     7
370
     0
100
AcDbMText
 10
26.6915929986
 20
125.2676288641
 30
0.0
 40
3.5
 41
0.0
 71
     1
 72
     1
  1
5.08
  7
SLDTEXTSTYLE0
 73
     1
 44
1.0
  0
MTEXT
  5
9B
330
92
100
AcDbEntity
  8
0
  6
Continuous
 62
     7
370
     0
100
AcDbMText
 10
33.6283980885
 20
125.2676288641
 30
0.0
 40
3.5
 41
0.0
 71
     1
 72
     1
  1
±0.1
  7
SLDTEXTSTYLE0
 73
     1
 44
1.0
  0
ENDBLK
  5
94
330
92
100
AcDbEntity
  8
0
100
AcDbBlockEnd
  0
BLOCK
  5
9F
330
9E
100
AcDbEntity
  8
0
100
AcDbBlockBegin
  2
_D_1
 70
     0
 10
0.0
 20
0.0
 30
0.0
  3
_D_1
  1
_D_1
  0
ARC
  5
A1
330
9E
100
AcDbEntity
  8
0
  6
Continuous
 62
     7
370
     0
100
AcDbCircle
 10
51.7344694261
 20
127.3480741409
 30
0.0
 40
16.68740954512815
100
AcDbArc
 50
0.0
 51
45.0
  0
INSERT
  5
A2
330
9E
100
AcDbEntity
  8
0
  6
Continuous
 62
     7
370
     0
100
AcDbBlockReference
  2
_OPEN30
 10
68.4218789712
 20
127.3480741409
 30
0.1
 41
1.5
 42
1.5
 50
272.5682030927
  0
INSERT
  5
A3
330
9E
100
AcDbEntity
  8
0
  6
Continuous
 62
     7
370
     0
100
AcDbBlockReference
  2
_OPEN30
 10
63.5342498759
 20
139.1478545907
 30
0.1
 41
1.5
 42
1.5
 50
132.4317969073
  0
LINE
  5
A4
330
9E
100
AcDbEntity
  8
0
  6
Continuous
 62
     7
370
     0
100
AcDbLine
 10
56.6741111514
 20
127.3480741409
 30
0.0
 11
69.4218789712
 21
127.3480741409
 31
0.0
  0
LINE
  5
A5
330
9E
100
AcDbEntity
  8
0
  6
Continuous
 62
     7
370
     0
100
AcDbLine
 10
54.2376274315
 20
129.8512321463
 30
0.0
 11
64.2413566571
 21
139.8549613719
 31
0.0
  0
MTEXT
  5
A6
330
9E
100
AcDbEntity
  8
0
  6
Continuous
 62
     7
370
     0
100
AcDbMText
 10
70.9943052883
 20
137.0977837393
 30
0.0
 40
3.5
 41
0.0
 71
     1
 72
     1
  1
45°
  7
SLDTEXTSTYLE0
 11
0.2751694437706607
 21
-0.9613957443295373
 31
0.0
 73
     1
 44
1.0
  0
ENDBLK
  5
A0
330
9E
100
AcDbEntity
  8
0
100
AcDbBlockEnd
  0
BLOCK
  5
A9
330
A8
100
AcDbEntity
  8
0
100
AcDbBlockBegin
  2
_D_2
 70
     0
 10
0.0
 20
0.0
 30
0.0
  3
_D_2
  1
_D_2
  0
ARC
  5
AB
330
A8
100
AcDbEntity
  8
0
  6
Continuous
 62
     7
370
     0
100
AcDbCircle
 10
51.7344694261
 20
127.3480741409
 30
0.0
 40
16.5504509358095
100
AcDbArc
 50
315.0
 51
0.0
  0
INSERT
  5
AC
330
A8
100
AcDbEntity
  8
0
  6
Continuous
 62
     7
370
     0
100
AcDbBlockReference
  2
_OPEN30
 10
63.4374055145
 20
115.6451380525
 30
0.1
 41
1.5
 42
1.5
 50
227.5893404481
  0
INSERT
  5
AD
330
A8
100
AcDbEntity
  8
0
  6
Continuous
 62
     7
370
     0
100
AcDbBlockReference
  2
_OPEN30
 10
68.2849203619
 20
127.3480741409
 30
0.1
 41
1.5
 42
1.5
 50
87.4106595519
  0
LINE
  5
AE
330
A8
100
AcDbEntity
  8
0
  6
Continuous
 62
     7
370
     0
100
AcDbLine
 10
54.2376274315
 20
124.8449161355
 30
0.0
 11
64.1445122957
 21
114.9380312713
 31
0.0
  0
LINE
  5
AF
330
A8
100
AcDbEntity
  8
0
  6
Continuous
 62
     7
370
     0
100
AcDbLine
 10
56.6741111514
 20
127.3480741409
 30
0.0
 11
69.2849203619
 21
127.3480741409
 31
0.0
  0
MTEXT
  5
B0
330
A8
100
AcDbEntity
  8
0
  6
Continuous
 62
     7
370
     0
100
AcDbMText
 10
62.4034185962
 20
120.4416664764
 30
0.0
 40
3.5
 41
0.0
 71
     1
 72
     1
  1
45°
  7
SLDTEXTSTYLE0
 11
0.2456779600317652
 21
0.9693515048498302
 31
0.0
 73
     1
 44
1.0
  0
ENDBLK
  5
AA
330
A8
100
AcDbEntity
  8
0
100
AcDbBlockEnd
  0
BLOCK
  5
B4
330
B3
100
AcDbEntity
  8
0
100
AcDbBlockBegin
  2
_D_3
 70
     0
 10
0.0
 20
0.0
 30
0.0
  3
_D_3
  1
_D_3
  0
INSERT
  5
B6
330
B3
100
AcDbEntity
  8
0
  6
Continuous
 62
     7
370
     0
100
AcDbBlockReference
  2
_OPEN30
 10
49.7313529489
 20
129.3946228322
 30
0.1
 41
1.5
 42
1.5
 50
309.5776854325
  0
LINE
  5
B7
330
B3
100
AcDbEntity
  8
0
  6
Continuous
 62
     7
370
     0
100
AcDbLine
 10
49.7313529489
 20
129.3946228322
 30
0.0
 11
45.827703222
 21
134.1170683174
 31
0.0
  0
LINE
  5
B8
330
B3
100
AcDbEntity
  8
0
  6
Continuous
 62
     7
370
     0
100
AcDbLine
 10
50.1454834548
 20
128.8936278981
 30
0.0
 11
49.7313529489
 21
129.3946228322
 31
0.0
  0
LINE
  5
B9
330
B3
100
AcDbEntity
  8
0
  6
Continuous
 62
     7
370
     0
100
AcDbLine
 10
45.827703222
 20
134.1170683174
 30
0.0
 11
21.1834688687
 21
134.1170683174
 31
0.0
  0
MTEXT
  5
BA
330
B3
100
AcDbEntity
  8
0
  6
Continuous
 62
     7
370
     0
100
AcDbMText
 10
21.1834688687
 20
138.628806105
 30
0.0
 40
3.5
 41
0.0
 71
     1
 72
     1
  1
3-
  7
SLDTEXTSTYLE0
 73
     1
 44
1.0
  0
MTEXT
  5
BB
330
B3
100
AcDbEntity
  8
0
  6
Continuous
 62
     7
370
     0
100
AcDbMText
 10
25.2570798637
 20
138.628806105
 30
0.0
 40
3.5
 41
0.0
 71
     1
 72
     1
  1
%%c
  7
SLDTEXTSTYLE0
 73
     1
 44
1.0
  0
MTEXT
  5
BC
330
B3
100
AcDbEntity
  8
0
  6
Continuous
 62
     7
370
     0
100
AcDbMText
 10
29.1270106116
 20
138.628806105
 30
0.0
 40
3.5
 41
0.0
 71
     1
 72
     1
  1
0.65
  7
SLDTEXTSTYLE0
 73
     1
 44
1.0
  0
MTEXT
  5
BD
330
B3
100
AcDbEntity
  8
0
  6
Continuous
 62
     7
370
     0
100
AcDbMText
 10
37.2669409343
 20
138.628806105
 30
0.0
 40
3.5
 41
0.0
 71
     1
 72
     1
  1

  7
SLDTEXTSTYLE0
 73
     1
 44
1.0
  0
MTEXT
  5
BE
330
B3
100
AcDbEntity
  8
0
  6
Continuous
 62
     7
370
     0
100
AcDbMText
 10
37.3033997619
 20
142.7024171
 30
0.0
 40
3.5
 41
0.0
 71
     1
 72
     1
  1
+
  7
SLDTEXTSTYLE0
 73
     1
 44
1.0
  0
MTEXT
  5
BF
330
B3
100
AcDbEntity
  8
0
  6
Continuous
 62
     7
370
     0
100
AcDbMText
 10
38.9051358297
 20
138.628806105
 30
0.0
 40
3.5
 41
0.0
 71
     1
 72
     1
  1

  7
SLDTEXTSTYLE0
 73
     1
 44
1.0
  0
MTEXT
  5
C0
330
B3
100
AcDbEntity
  8
0
  6
Continuous
 62
     7
370
     0
100
AcDbMText
 10
39.3402040952
 20
142.7024171
 30
0.0
 40
3.5
 41
0.0
 71
     1
 72
     1
  1
0.1
  7
SLDTEXTSTYLE0
 73
     1
 44
1.0
  0
MTEXT
  5
C1
330
B3
100
AcDbEntity
  8
0
  6
Continuous
 62
     7
370
     0
100
AcDbMText
 10
39.3402040952
 20
138.628806105
 30
0.0
 40
3.5
 41
0.0
 71
     1
 72
     1
  1
0
  7
SLDTEXTSTYLE0
 73
     1
 44
1.0
  0
ENDBLK
  5
B5
330
B3
100
AcDbEntity
  8
0
100
AcDbBlockEnd
  0
BLOCK
  5
C3
330
C2
100
AcDbEntity
  8
0
100
AcDbBlockBegin
  2
SW_NOTE_0
 70
     0
 10
0.0
 20
0.0
 30
0.0
  3
SW_NOTE_0
  1
SW_NOTE_0
  0
MTEXT
  5
C5
330
C2
100
AcDbEntity
  8
0
  6
Continuous
 62
     0
370
     0
100
AcDbMText
 10
0.0
 20
4.5117370892
 30
0.0
 40
3.5
 41
0.0
 71
     1
 72
     1
  1
Recommended
  7
SLDTEXTSTYLE0
 73
     1
 44
1.0
  0
MTEXT
  5
C6
330
C2
100
AcDbEntity
  8
0
  6
Continuous
 62
     0
370
     0
100
AcDbMText
 10
0.0
 20
0.0117372829
 30
0.0
 40
3.5
 41
0.0
 71
     1
 72
     1
  1
panel mouting hole
  7
SLDTEXTSTYLE0
 73
     1
 44
1.0
  0
MTEXT
  5
C7
330
C2
100
AcDbEntity
  8
0
  6
Continuous
 62
     0
370
     0
100
AcDbMText
 10
0.0
 20
-4.4882625234
 30
0.0
 40
3.5
 41
0.0
 71
     1
 72
     1
  1
dimensions
  7
SLDTEXTSTYLE0
 73
     1
 44
1.0
  0
ENDBLK
  5
C4
330
C2
100
AcDbEntity
  8
0
100
AcDbBlockEnd
  0
BLOCK
  5
CA
330
C9
100
AcDbEntity
  8
0
100
AcDbBlockBegin
  2
SW_NOTE_1
 70
     0
 10
0.0
 20
0.0
 30
0.0
  3
SW_NOTE_1
  1
SW_NOTE_1
  0
MTEXT
  5
CC
330
C9
100
AcDbEntity
  8
0
  6
Continuous
 62
     0
370
     0
100
AcDbMText
 10
0.0
 20
4.5117370892
 30
0.0
 40
3.5
 41
0.0
 71
     1
 72
     1
  1
Recommended
  7
SLDTEXTSTYLE0
 73
     1
 44
1.0
  0
MTEXT
  5
CD
330
C9
100
AcDbEntity
  8
0
  6
Continuous
 62
     0
370
     0
100
AcDbMText
 10
0.0
 20
0.0117372829
 30
0.0
 40
3.5
 41
0.0
 71
     1
 72
     1
  1
PC board pattern
  7
SLDTEXTSTYLE0
 73
     1
 44
1.0
  0
ENDBLK
  5
CB
330
C9
100
AcDbEntity
  8
0
100
AcDbBlockEnd
  0
BLOCK
  5
D3
330
D2
100
AcDbEntity
  8
0
100
AcDbBlockBegin
  2
SW_NOTE_2
 70
     0
 10
0.0
 20
0.0
 30
0.0
  3
SW_NOTE_2
  1
SW_NOTE_2
  0
MTEXT
  5
D5
330
D2
100
AcDbEntity
  8
0
  6
Continuous
 62
     0
370
     0
100
AcDbMText
 10
0.0
 20
4.7749217527
 30
0.0
 40
3.7041666667
 41
0.0
 71
     1
 72
     1
  1
Note1 : In order to ensure proper detection, install it with
  7
SLDTEXTSTYLE0
 73
     1
 44
1.0
  0
MTEXT
  5
D6
330
D2
100
AcDbEntity
  8
0
  6
Continuous
 62
     0
370
     0
100
AcDbMText
 10
14.0063802083
 20
-0.1639670765
 30
0.0
 40
3.7041666667
 41
0.0
 71
     1
 72
     1
  1
the lens exposed at least 4.3mm (0.169inch).
  7
SLDTEXTSTYLE0
 73
     1
 44
1.0
  0
MTEXT
  5
D7
330
D2
100
AcDbEntity
  8
0
  6
Continuous
 62
     0
370
     0
100
AcDbMText
 10
0.0
 20
-5.1028559057
 30
0.0
 40
3.7041666667
 41
0.0
 71
     1
 72
     1
  1
Note2 : As for panel mouting hole, tapering or making
  7
SLDTEXTSTYLE0
 73
     1
 44
1.0
  0
MTEXT
  5
D8
330
D2
100
AcDbEntity
  8
0
  6
Continuous
 62
     0
370
     0
100
AcDbMText
 10
14.0063802083
 20
-10.0417447349
 30
0.0
 40
3.7041666667
 41
0.0
 71
     1
 72
     1
  1
a large size hole should be done.
  7
SLDTEXTSTYLE0
 73
     1
 44
1.0
  0
ENDBLK
  5
D4
330
D2
100
AcDbEntity
  8
0
100
AcDbBlockEnd
  0
BLOCK
  5
E9
330
E8
100
AcDbEntity
  8
0
100
AcDbBlockBegin
  2
SW_NOTE_3
 70
     0
 10
0.0
 20
0.0
 30
0.0
  3
SW_NOTE_3
  1
SW_NOTE_3
  0
MTEXT
  5
EC
330
E8
100
AcDbEntity
  8
0
  6
Continuous
 62
     0
370
     0
100
AcDbMText
 10
0.0
 20
4.7749217527
 30
0.0
 40
3.7041666667
 41
0.0
 71
     1
 72
     1
  1
±0.5     mm
  7
SLDTEXTSTYLE1
 73
     1
 44
1.0
  0
MTEXT
  5
ED
330
E8
100
AcDbEntity
  8
0
  6
Continuous
 62
     0
370
     0
100
AcDbMText
 10
0.0
 20
-0.1639670765
 30
0.0
 40
3.7041666667
 41
0.0
 71
     1
 72
     1
  1
(±0.020 inch)
  7
SLDTEXTSTYLE0
 73
     1
 44
1.0
  0
ENDBLK
  5
EA
330
E8
100
AcDbEntity
  8
0
100
AcDbBlockEnd
  0
BLOCK
  5
146
330
145
100
AcDbEntity
  8
0
100
AcDbBlockBegin
  2
_D_4
 70
     0
 10
0.0
 20
0.0
 30
0.0
  3
_D_4
  1
_D_4
  0
INSERT
  5
148
330
145
100
AcDbEntity
  8
0
  6
Continuous
 62
     7
370
     0
100
AcDbBlockReference
  2
_OPEN30
 10
181.7497202051
 20
221.9193300106
 30
0.1
 41
1.5
 42
1.5
 50
90.0
  0
INSERT
  5
149
330
145
100
AcDbEntity
  8
0
  6
Continuous
 62
     7
370
     0
100
AcDbBlockReference
  2
_OPEN30
 10
181.7497202051
 20
204.7193300106
 30
0.1
 41
1.5
 42
1.5
 50
270.0
  0
LINE
  5
14A
330
145
100
AcDbEntity
  8
0
  6
Continuous
 62
     7
370
     0
100
AcDbLine
 10
153.454899887
 20
221.9193300106
 30
0.0
 11
182.7497202051
 21
221.9193300106
 31
0.0
  0
LINE
  5
14B
330
145
100
AcDbEntity
  8
0
  6
Continuous
 62
     7
370
     0
100
AcDbLine
 10
158.954899887
 20
204.7193300106
 30
0.0
 11
182.7497202051
 21
204.7193300106
 31
0.0
  0
LINE
  5
14C
330
145
100
AcDbEntity
  8
0
  6
Continuous
 62
     7
370
     0
100
AcDbLine
 10
181.7497202051
 20
221.9193300106
 30
0.0
 11
181.7497202051
 21
204.7193300106
 31
0.0
  0
MTEXT
  5
14D
330
145
100
AcDbEntity
  8
0
  6
Continuous
 62
     7
370
     0
100
AcDbMText
 10
177.2379833487
 20
209.2297303951
 30
0.0
 40
3.5
 41
0.0
 71
     1
 72
     1
  1
17.2
  7
SLDTEXTSTYLE0
 11
-7.044195017643634E-15
 21
1.0
 31
0.0
 73
     1
 44
1.0
  0
ENDBLK
  5
147
330
145
100
AcDbEntity
  8
0
100
AcDbBlockEnd
  0
BLOCK
  5
151
330
150
100
AcDbEntity
  8
0
100
AcDbBlockBegin
  2
_D_5
 70
     0
 10
0.0
 20
0.0
 30
0.0
  3
_D_5
  1
_D_5
  0
INSERT
  5
153
330
150
100
AcDbEntity
  8
0
  6
Continuous
 62
     7
370
     0
100
AcDbBlockReference
  2
_OPEN30
 10
145.004899887
 20
229.9062288092
 30
0.1
 41
1.5
 42
1.5
 50
180.0
  0
INSERT
  5
154
330
150
100
AcDbEntity
  8
0
  6
Continuous
 62
     7
370
     0
100
AcDbBlockReference
  2
_OPEN30
 10
159.904899887
 20
229.9062288092
 30
0.1
 41
1.5
 42
1.5
 50
0.0
  0
LINE
  5
155
330
150
100
AcDbEntity
  8
0
  6
Continuous
 62
     7
370
     0
100
AcDbLine
 10
145.004899887
 20
218.6193300106
 30
0.0
 11
145.004899887
 21
230.9062288092
 31
0.0
  0
LINE
  5
156
330
150
100
AcDbEntity
  8
0
  6
Continuous
 62
     7
370
     0
100
AcDbLine
 10
159.904899887
 20
218.6193300106
 30
0.0
 11
159.904899887
 21
230.9062288092
 31
0.0
  0
LINE
  5
157
330
150
100
AcDbEntity
  8
0
  6
Continuous
 62
     7
370
     0
100
AcDbLine
 10
145.004899887
 20
229.9062288092
 30
0.0
 11
159.904899887
 21
229.9062288092
 31
0.0
  0
LINE
  5
158
330
150
100
AcDbEntity
  8
0
  6
Continuous
 62
     7
370
     0
100
AcDbLine
 10
159.904899887
 20
229.9062288092
 30
0.0
 11
174.4276049981
 21
229.9062288092
 31
0.0
  0
MTEXT
  5
159
330
150
100
AcDbEntity
  8
0
  6
Continuous
 62
     7
370
     0
100
AcDbMText
 10
163.6208693931
 20
234.4179661313
 30
0.0
 40
3.5
 41
0.0
 71
     1
 72
     1
  1
%%c
  7
SLDTEXTSTYLE0
 73
     1
 44
1.0
  0
MTEXT
  5
15A
330
150
100
AcDbEntity
  8
0
  6
Continuous
 62
     7
370
     0
100
AcDbMText
 10
167.4907999081
 20
234.4179661313
 30
0.0
 40
3.5
 41
0.0
 71
     1
 72
     1
  1
14.9
  7
SLDTEXTSTYLE0
 73
     1
 44
1.0
  0
ENDBLK
  5
152
330
150
100
AcDbEntity
  8
0
100
AcDbBlockEnd
  0
BLOCK
  5
15D
330
15C
100
AcDbEntity
  8
0
100
AcDbBlockBegin
  2
_D_6
 70
     0
 10
0.0
 20
0.0
 30
0.0
  3
_D_6
  1
_D_6
  0
INSERT
  5
15F
330
15C
100
AcDbEntity
  8
0
  6
Continuous
 62
     7
370
     0
100
AcDbBlockReference
  2
_OPEN30
 10
170.754899887
 20
204.7193300106
 30
0.1
 41
1.5
 42
1.5
 50
90.0
  0
INSERT
  5
160
330
15C
100
AcDbEntity
  8
0
  6
Continuous
 62
     7
370
     0
100
AcDbBlockReference
  2
_OPEN30
 10
170.754899887
 20
200.1193300106
 30
0.1
 41
1.5
 42
1.5
 50
270.0
  0
LINE
  5
161
330
15C
100
AcDbEntity
  8
0
  6
Continuous
 62
     7
370
     0
100
AcDbLine
 10
158.954899887
 20
204.7193300106
 30
0.0
 11
171.754899887
 21
204.7193300106
 31
0.0
  0
LINE
  5
162
330
15C
100
AcDbEntity
  8
0
  6
Continuous
 62
     7
370
     0
100
AcDbLine
 10
155.4759511113
 20
200.1193300106
 30
0.0
 11
171.754899887
 21
200.1193300106
 31
0.0
  0
LINE
  5
163
330
15C
100
AcDbEntity
  8
0
  6
Continuous
 62
     7
370
     0
100
AcDbLine
 10
170.754899887
 20
204.7193300106
 30
0.0
 11
170.754899887
 21
200.1193300106
 31
0.0
  0
LINE
  5
164
330
15C
100
AcDbEntity
  8
0
  6
Continuous
 62
     7
370
     0
100
AcDbLine
 10
170.754899887
 20
200.1193300106
 30
0.0
 11
170.754899887
 21
190.9362633834
 31
0.0
  0
MTEXT
  5
165
330
15C
100
AcDbEntity
  8
0
  6
Continuous
 62
     7
370
     0
100
AcDbMText
 10
166.2431630307
 20
190.9362633834
 30
0.0
 40
3.5
 41
0.0
 71
     1
 72
     1
  1
4.6
  7
SLDTEXTSTYLE0
 11
-6.156016597943509E-15
 21
1.0
 31
0.0
 73
     1
 44
1.0
  0
ENDBLK
  5
15E
330
15C
100
AcDbEntity
  8
0
100
AcDbBlockEnd
  0
BLOCK
  5
169
330
168
100
AcDbEntity
  8
0
100
AcDbBlockBegin
  2
_D_7
 70
     0
 10
0.0
 20
0.0
 30
0.0
  3
_D_7
  1
_D_7
  0
INSERT
  5
16B
330
168
100
AcDbEntity
  8
0
  6
Continuous
 62
     7
370
     0
100
AcDbBlockReference
  2
_OPEN30
 10
150.4338486628
 20
201.500186224
 30
0.1
 41
1.5
 42
1.5
 50
0.0
  0
INSERT
  5
16C
330
168
100
AcDbEntity
  8
0
  6
Continuous
 62
     7
370
     0
100
AcDbBlockReference
  2
_OPEN30
 10
150.8838486628
 20
201.500186224
 30
0.1
 41
1.5
 42
1.5
 50
180.0
  0
LINE
  5
16D
330
168
100
AcDbEntity
  8
0
  6
Continuous
 62
     7
370
     0
100
AcDbLine
 10
150.4338486628
 20
201.500186224
 30
0.0
 11
118.7841548063
 21
201.500186224
 31
0.0
  0
LINE
  5
16E
330
168
100
AcDbEntity
  8
0
  6
Continuous
 62
     7
370
     0
100
AcDbLine
 10
150.4338486628
 20
201.500186224
 30
0.0
 11
150.8838486628
 21
201.500186224
 31
0.0
  0
LINE
  5
16F
330
168
100
AcDbEntity
  8
0
  6
Continuous
 62
     7
370
     0
100
AcDbLine
 10
150.8838486628
 20
201.500186224
 30
0.0
 11
153.8838486628
 21
201.500186224
 31
0.0
  0
MTEXT
  5
170
330
168
100
AcDbEntity
  8
0
  6
Continuous
 62
     7
370
     0
100
AcDbMText
 10
118.7841548063
 20
206.011923546
 30
0.0
 40
3.5
 41
0.0
 71
     1
 72
     1
  1
%%c
  7
SLDTEXTSTYLE0
 73
     1
 44
1.0
  0
MTEXT
  5
171
330
168
100
AcDbEntity
  8
0
  6
Continuous
 62
     7
370
     0
100
AcDbMText
 10
122.6540853214
 20
206.011923546
 30
0.0
 40
3.5
 41
0.0
 71
     1
 72
     1
  1
0.45
  7
SLDTEXTSTYLE0
 73
     1
 44
1.0
  0
MTEXT
  5
172
330
168
100
AcDbEntity
  8
0
  6
Continuous
 62
     7
370
     0
100
AcDbMText
 10
130.7940154113
 20
206.011923546
 30
0.0
 40
3.5
 41
0.0
 71
     1
 72
     1
  1
±0.05
  7
SLDTEXTSTYLE0
 73
     1
 44
1.0
  0
ENDBLK
  5
16A
330
168
100
AcDbEntity
  8
0
100
AcDbBlockEnd
  0
BLOCK
  5
176
330
175
100
AcDbEntity
  8
0
100
AcDbBlockBegin
  2
_D_8
 70
     0
 10
0.0
 20
0.0
 30
0.0
  3
_D_8
  1
_D_8
  0
INSERT
  5
178
330
175
100
AcDbEntity
  8
0
  6
Continuous
 62
     7
370
     0
100
AcDbBlockReference
  2
_OPEN30
 10
146.954899887
 20
190.9858777805
 30
0.1
 41
1.5
 42
1.5
 50
0.0
  0
INSERT
  5
179
330
175
100
AcDbEntity
  8
0
  6
Continuous
 62
     7
370
     0
100
AcDbBlockReference
  2
_OPEN30
 10
157.954899887
 20
190.9858777805
 30
0.1
 41
1.5
 42
1.5
 50
180.0
  0
LINE
  5
17A
330
175
100
AcDbEntity
  8
0
  6
Continuous
 62
     7
370
     0
100
AcDbLine
 10
146.954899887
 20
203.7193300106
 30
0.0
 11
146.954899887
 21
189.9858777805
 31
0.0
  0
LINE
  5
17B
330
175
100
AcDbEntity
  8
0
  6
Continuous
 62
     7
370
     0
100
AcDbLine
 10
157.954899887
 20
203.7193300106
 30
0.0
 11
157.954899887
 21
189.9858777805
 31
0.0
  0
LINE
  5
17C
330
175
100
AcDbEntity
  8
0
  6
Continuous
 62
     7
370
     0
100
AcDbLine
 10
146.954899887
 20
190.9858777805
 30
0.0
 11
143.954899887
 21
190.9858777805
 31
0.0
  0
LINE
  5
17D
330
175
100
AcDbEntity
  8
0
  6
Continuous
 62
     7
370
     0
100
AcDbLine
 10
146.954899887
 20
190.9858777805
 30
0.0
 11
157.954899887
 21
190.9858777805
 31
0.0
  0
LINE
  5
17E
330
175
100
AcDbEntity
  8
0
  6
Continuous
 62
     7
370
     0
100
AcDbLine
 10
157.954899887
 20
190.9858777805
 30
0.0
 11
160.954899887
 21
190.9858777805
 31
0.0
  0
MTEXT
  5
17F
330
175
100
AcDbEntity
  8
0
  6
Continuous
 62
     7
370
     0
100
AcDbMText
 10
147.198976134
 20
195.4976151025
 30
0.0
 40
3.5
 41
0.0
 71
     1
 72
     1
  1
%%c
  7
SLDTEXTSTYLE0
 73
     1
 44
1.0
  0
MTEXT
  5
180
330
175
100
AcDbEntity
  8
0
  6
Continuous
 62
     7
370
     0
100
AcDbMText
 10
151.068906649
 20
195.4976151025
 30
0.0
 40
3.5
 41
0.0
 71
     1
 72
     1
  1
11
  7
SLDTEXTSTYLE0
 73
     1
 44
1.0
  0
ENDBLK
  5
177
330
175
100
AcDbEntity
  8
0
100
AcDbBlockEnd
  0
BLOCK
  5
184
330
183
100
AcDbEntity
  8
0
100
AcDbBlockBegin
  2
_D_9
 70
     0
 10
0.0
 20
0.0
 30
0.0
  3
_D_9
  1
_D_9
  0
INSERT
  5
186
330
183
100
AcDbEntity
  8
0
  6
Continuous
 62
     7
370
     0
100
AcDbBlockReference
  2
_OPEN30
 10
170.2716967338
 20
212.6193300106
 30
0.1
 41
1.5
 42
1.5
 50
270.0
  0
INSERT
  5
187
330
183
100
AcDbEntity
  8
0
  6
Continuous
 62
     7
370
     0
100
AcDbBlockReference
  2
_OPEN30
 10
170.2716967338
 20
204.7193300106
 30
0.1
 41
1.5
 42
1.5
 50
90.0
  0
LINE
  5
188
330
183
100
AcDbEntity
  8
0
  6
Continuous
 62
     7
370
     0
100
AcDbLine
 10
161.0560511156
 20
212.6193300106
 30
0.0
 11
171.2716967338
 21
212.6193300106
 31
0.0
  0
LINE
  5
189
330
183
100
AcDbEntity
  8
0
  6
Continuous
 62
     7
370
     0
100
AcDbLine
 10
158.954899887
 20
204.7193300106
 30
0.0
 11
171.2716967338
 21
204.7193300106
 31
0.0
  0
LINE
  5
18A
330
183
100
AcDbEntity
  8
0
  6
Continuous
 62
     7
370
     0
100
AcDbLine
 10
170.2716967338
 20
212.6193300106
 30
0.0
 11
170.2716967338
 21
215.6193300106
 31
0.0
  0
LINE
  5
18B
330
183
100
AcDbEntity
  8
0
  6
Continuous
 62
     7
370
     0
100
AcDbLine
 10
170.2716967338
 20
212.6193300106
 30
0.0
 11
170.2716967338
 21
204.7193300106
 31
0.0
  0
LINE
  5
18C
330
183
100
AcDbEntity
  8
0
  6
Continuous
 62
     7
370
     0
100
AcDbLine
 10
170.2716967338
 20
204.7193300106
 30
0.0
 11
170.2716967338
 21
201.7193300106
 31
0.0
  0
MTEXT
  5
18D
330
183
100
AcDbEntity
  8
0
  6
Continuous
 62
     7
370
     0
100
AcDbMText
 10
165.7599598774
 20
206.159282701
 30
0.0
 40
3.5
 41
0.0
 71
     1
 72
     1
  1
7.9
  7
SLDTEXTSTYLE0
 11
-7.044195017643634E-15
 21
1.0
 31
0.0
 73
     1
 44
1.0
  0
ENDBLK
  5
185
330
183
100
AcDbEntity
  8
0
100
AcDbBlockEnd
  0
BLOCK
  5
190
330
18F
100
AcDbEntity
  8
0
100
AcDbBlockBegin
  2
_D_10
 70
     0
 10
0.0
 20
0.0
 30
0.0
  3
_D_10
  1
_D_10
  0
INSERT
  5
192
330
18F
100
AcDbEntity
  8
0
  6
Continuous
 62
     7
370
     0
100
AcDbBlockReference
  2
_OPEN30
 10
144.154899887
 20
240.9161821828
 30
0.1
 41
1.5
 42
1.5
 50
180.0
  0
INSERT
  5
193
330
18F
100
AcDbEntity
  8
0
  6
Continuous
 62
     7
370
     0
100
AcDbBlockReference
  2
_OPEN30
 10
160.754899887
 20
240.9161821828
 30
0.1
 41
1.5
 42
1.5
 50
0.0
  0
LINE
  5
194
330
18F
100
AcDbEntity
  8
0
  6
Continuous
 62
     7
370
     0
100
AcDbLine
 10
144.154899887
 20
215.6193300106
 30
0.0
 11
144.154899887
 21
241.9161821828
 31
0.0
  0
LINE
  5
195
330
18F
100
AcDbEntity
  8
0
  6
Continuous
 62
     7
370
     0
100
AcDbLine
 10
160.754899887
 20
215.6193300106
 30
0.0
 11
160.754899887
 21
241.9161821828
 31
0.0
  0
LINE
  5
196
330
18F
100
AcDbEntity
  8
0
  6
Continuous
 62
     7
370
     0
100
AcDbLine
 10
144.154899887
 20
240.9161821828
 30
0.0
 11
160.754899887
 21
240.9161821828
 31
0.0
  0
LINE
  5
197
330
18F
100
AcDbEntity
  8
0
  6
Continuous
 62
     7
370
     0
100
AcDbLine
 10
160.754899887
 20
240.9161821828
 30
0.0
 11
173.7400993952
 21
240.9161821828
 31
0.0
  0
MTEXT
  5
198
330
18F
100
AcDbEntity
  8
0
  6
Continuous
 62
     7
370
     0
100
AcDbMText
 10
166.8032940724
 20
245.4279190392
 30
0.0
 40
3.5
 41
0.0
 71
     1
 72
     1
  1
16.6
  7
SLDTEXTSTYLE0
 73
     1
 44
1.0
  0
ENDBLK
  5
191
330
18F
100
AcDbEntity
  8
0
100
AcDbBlockEnd
  0
BLOCK
  5
256
330
255
100
AcDbEntity
  8
0
100
AcDbBlockBegin
  2
_D_11
 70
     0
 10
0.0
 20
0.0
 30
0.0
  3
_D_11
  1
_D_11
  0
INSERT
  5
258
330
255
100
AcDbEntity
  8
0
  6
Continuous
 62
     7
370
     0
100
AcDbBlockReference
  2
_OPEN30
 10
150.5300461969
 20
159.4160245514
 30
0.1
 41
1.5
 42
1.5
 50
319.2720740425
  0
LINE
  5
259
330
255
100
AcDbEntity
  8
0
  6
Continuous
 62
     7
370
     0
100
AcDbLine
 10
150.5300461969
 20
159.4160245514
 30
0.0
 11
141.4749340677
 21
167.2123316195
 31
0.0
  0
LINE
  5
25A
330
255
100
AcDbEntity
  8
0
  6
Continuous
 62
     7
370
     0
100
AcDbLine
 10
154.3797535772
 20
156.1014879193
 30
0.0
 11
150.5300461969
 21
159.4160245514
 31
0.0
  0
LINE
  5
25B
330
255
100
AcDbEntity
  8
0
  6
Continuous
 62
     7
370
     0
100
AcDbLine
 10
141.4749340677
 20
167.2123316195
 30
0.0
 11
108.5327832127
 21
167.2123316195
 31
0.0
  0
MTEXT
  5
25C
330
255
100
AcDbEntity
  8
0
  6
Continuous
 62
     7
370
     0
100
AcDbMText
 10
108.5327832127
 20
171.7240689415
 30
0.0
 40
3.5
 41
0.0
 71
     1
 72
     1
  1
P.D.C.
  7
SLDTEXTSTYLE0
 73
     1
 44
1.0
  0
MTEXT
  5
25D
330
255
100
AcDbEntity
  8
0
  6
Continuous
 62
     7
370
     0
100
AcDbMText
 10
118.8675049791
 20
171.7240689415
 30
0.0
 40
3.5
 41
0.0
 71
     1
 72
     1
  1
%%c
  7
SLDTEXTSTYLE0
 73
     1
 44
1.0
  0
MTEXT
  5
25E
330
255
100
AcDbEntity
  8
0
  6
Continuous
 62
     7
370
     0
100
AcDbMText
 10
122.7374361926
 20
171.7240689415
 30
0.0
 40
3.5
 41
0.0
 71
     1
 72
     1
  1
5.08
  7
SLDTEXTSTYLE0
 73
     1
 44
1.0
  0
MTEXT
  5
25F
330
255
100
AcDbEntity
  8
0
  6
Continuous
 62
     7
370
     0
100
AcDbMText
 10
130.8773665154
 20
171.7240689415
 30
0.0
 40
3.5
 41
0.0
 71
     1
 72
     1
  1
±0.2
  7
SLDTEXTSTYLE0
 73
     1
 44
1.0
  0
ENDBLK
  5
257
330
255
100
AcDbEntity
  8
0
100
AcDbBlockEnd
  0
BLOCK
  5
263
330
262
100
AcDbEntity
  8
0
100
AcDbBlockBegin
  2
_D_12
 70
     0
 10
0.0
 20
0.0
 30
0.0
  3
_D_12
  1
_D_12
  0
ARC
  5
265
330
262
100
AcDbEntity
  8
0
  6
Continuous
 62
     7
370
     0
100
AcDbCircle
 10
152.454899887
 20
157.7587562353
 30
0.0
 40
24.39792007982041
100
AcDbArc
 50
225.0
 51
270.0
  0
INSERT
  5
266
330
262
100
AcDbEntity
  8
0
  6
Continuous
 62
     7
370
     0
100
AcDbBlockReference
  2
_OPEN30
 10
135.2029651518
 20
140.5068215
 30
0.1
 41
1.5
 42
1.5
 50
136.7590767697
  0
INSERT
  5
267
330
262
100
AcDbEntity
  8
0
  6
Continuous
 62
     7
370
     0
100
AcDbBlockReference
  2
_OPEN30
 10
152.454899887
 20
133.3608361555
 30
0.1
 41
1.5
 42
1.5
 50
358.2409232303
  0
LINE
  5
268
330
262
100
AcDbEntity
  8
0
  6
Continuous
 62
     7
370
     0
100
AcDbLine
 10
149.9517418816
 20
155.2555982299
 30
0.0
 11
134.4958583706
 21
139.7997147188
 31
0.0
  0
LINE
  5
269
330
262
100
AcDbEntity
  8
0
  6
Continuous
 62
     7
370
     0
100
AcDbLine
 10
152.454899887
 20
146.6298380673
 30
0.0
 11
152.454899887
 21
132.3608361555
 31
0.0
  0
MTEXT
  5
26A
330
262
100
AcDbEntity
  8
0
  6
Continuous
 62
     7
370
     0
100
AcDbMText
 10
138.6839942891
 20
142.8451131945
 30
0.0
 40
3.5
 41
0.0
 71
     1
 72
     1
  1
45°
  7
SLDTEXTSTYLE0
 11
0.8558884169184108
 21
-0.5171605338624522
 31
0.0
 73
     1
 44
1.0
  0
ENDBLK
  5
264
330
262
100
AcDbEntity
  8
0
100
AcDbBlockEnd
  0
BLOCK
  5
26D
330
26C
100
AcDbEntity
  8
0
100
AcDbBlockBegin
  2
_D_13
 70
     0
 10
0.0
 20
0.0
 30
0.0
  3
_D_13
  1
_D_13
  0
ARC
  5
26F
330
26C
100
AcDbEntity
  8
0
  6
Continuous
 62
     7
370
     0
100
AcDbCircle
 10
152.454899887
 20
157.7587562353
 30
0.0
 40
24.50211567510368
100
AcDbArc
 50
270.0
 51
315.0
  0
INSERT
  5
270
330
26C
100
AcDbEntity
  8
0
  6
Continuous
 62
     7
370
     0
100
AcDbBlockReference
  2
_OPEN30
 10
152.454899887
 20
133.2566405602
 30
0.1
 41
1.5
 42
1.5
 50
181.75161494
  0
INSERT
  5
271
330
26C
100
AcDbEntity
  8
0
  6
Continuous
 62
     7
370
     0
100
AcDbBlockReference
  2
_OPEN30
 10
169.7805120343
 20
140.433144088
 30
0.1
 41
1.5
 42
1.5
 50
43.24838506
  0
LINE
  5
272
330
26C
100
AcDbEntity
  8
0
  6
Continuous
 62
     7
370
     0
100
AcDbLine
 10
152.454899887
 20
146.6298380673
 30
0.0
 11
152.454899887
 21
132.2566405602
 31
0.0
  0
LINE
  5
273
330
26C
100
AcDbEntity
  8
0
  6
Continuous
 62
     7
370
     0
100
AcDbLine
 10
154.9580578924
 20
155.2555982299
 30
0.0
 11
170.4876188155
 21
139.7260373068
 31
0.0
  0
MTEXT
  5
274
330
26C
100
AcDbEntity
  8
0
  6
Continuous
 62
     7
370
     0
100
AcDbMText
 10
152.9426706579
 20
137.3633736321
 30
0.0
 40
3.5
 41
0.0
 71
     1
 72
     1
  1
45°
  7
SLDTEXTSTYLE0
 11
0.9748080845505943
 21
0.2230452830588474
 31
0.0
 73
     1
 44
1.0
  0
ENDBLK
  5
26E
330
26C
100
AcDbEntity
  8
0
100
AcDbBlockEnd
  0
BLOCK
  5
2DA
330
2D9
100
AcDbEntity
  8
0
100
AcDbBlockBegin
  2
_D_14
 70
     0
 10
0.0
 20
0.0
 30
0.0
  3
_D_14
  1
_D_14
  0
INSERT
  5
2DC
330
2D9
100
AcDbEntity
  8
0
  6
Continuous
 62
     7
370
     0
100
AcDbBlockReference
  2
_OPEN30
 10
70.3227286595
 20
262.8732433155
 30
0.1
 41
1.5
 42
1.5
 50
90.0
  0
INSERT
  5
2DD
330
2D9
100
AcDbEntity
  8
0
  6
Continuous
 62
     7
370
     0
100
AcDbBlockReference
  2
_OPEN30
 10
70.3227286595
 20
258.5732433155
 30
0.1
 41
1.5
 42
1.5
 50
270.0
  0
LINE
  5
2DE
330
2D9
100
AcDbEntity
  8
0
  6
Continuous
 62
     7
370
     0
100
AcDbLine
 10
50.195227989
 20
262.8732433155
 30
0.0
 11
71.3227286595
 21
262.8732433155
 31
0.0
  0
LINE
  5
2DF
330
2D9
100
AcDbEntity
  8
0
  6
Continuous
 62
     7
370
     0
100
AcDbLine
 10
57.645227989
 20
258.5732433155
 30
0.0
 11
71.3227286595
 21
258.5732433155
 31
0.0
  0
LINE
  5
2E0
330
2D9
100
AcDbEntity
  8
0
  6
Continuous
 62
     7
370
     0
100
AcDbLine
 10
70.3227286595
 20
262.8732433155
 30
0.0
 11
70.3227286595
 21
258.5732433155
 31
0.0
  0
LINE
  5
2E1
330
2D9
100
AcDbEntity
  8
0
  6
Continuous
 62
     7
370
     0
100
AcDbLine
 10
70.3227286595
 20
258.5732433155
 30
0.0
 11
70.3227286595
 21
246.1138454003
 31
0.0
  0
MTEXT
  5
2E2
330
2D9
100
AcDbEntity
  8
0
  6
Continuous
 62
     7
370
     0
100
AcDbMText
 10
65.8109918031
 20
246.1138454003
 30
0.0
 40
3.5
 41
0.0
 71
     1
 72
     1
  1
4.3
  7
SLDTEXTSTYLE0
 11
-7.044195017643634E-15
 21
1.0
 31
0.0
 73
     1
 44
1.0
  0
ENDBLK
  5
2DB
330
2D9
100
AcDbEntity
  8
0
100
AcDbBlockEnd
  0
BLOCK
  5
343
330
342
100
AcDbEntity
  8
0
100
AcDbBlockBegin
  2
_D_15
 70
     0
 10
0.0
 20
0.0
 30
0.0
  3
_D_15
  1
_D_15
  0
INSERT
  5
345
330
342
100
AcDbEntity
  8
0
  6
Continuous
 62
     7
370
     0
100
AcDbBlockReference
  2
_OPEN30
 10
43.3458111126
 20
199.0449738152
 30
0.1
 41
1.5
 42
1.5
 50
180.0
  0
INSERT
  5
346
330
342
100
AcDbEntity
  8
0
  6
Continuous
 62
     7
370
     0
100
AcDbBlockReference
  2
_OPEN30
 10
58.7458111126
 20
199.0449738152
 30
0.1
 41
1.5
 42
1.5
 50
0.0
  0
LINE
  5
347
330
342
100
AcDbEntity
  8
0
  6
Continuous
 62
     7
370
     0
100
AcDbLine
 10
43.3458111126
 20
188.5219014123
 30
0.0
 11
43.3458111126
 21
200.0449738152
 31
0.0
  0
LINE
  5
348
330
342
100
AcDbEntity
  8
0
  6
Continuous
 62
     7
370
     0
100
AcDbLine
 10
58.7458111126
 20
188.5219014123
 30
0.0
 11
58.7458111126
 21
200.0449738152
 31
0.0
  0
LINE
  5
349
330
342
100
AcDbEntity
  8
0
  6
Continuous
 62
     7
370
     0
100
AcDbLine
 10
43.3458111126
 20
199.0449738152
 30
0.0
 11
23.3338598921
 21
199.0449738152
 31
0.0
  0
LINE
  5
34A
330
342
100
AcDbEntity
  8
0
  6
Continuous
 62
     7
370
     0
100
AcDbLine
 10
43.3458111126
 20
199.0449738152
 30
0.0
 11
58.7458111126
 21
199.0449738152
 31
0.0
  0
MTEXT
  5
34B
330
342
100
AcDbEntity
  8
0
  6
Continuous
 62
     7
370
     0
100
AcDbMText
 10
23.3338598921
 20
203.5567116029
 30
0.0
 40
3.5
 41
0.0
 71
     1
 72
     1
  1
%%c
  7
SLDTEXTSTYLE0
 73
     1
 44
1.0
  0
MTEXT
  5
34C
330
342
100
AcDbEntity
  8
0
  6
Continuous
 62
     7
370
     0
100
AcDbMText
 10
27.2037904071
 20
203.5567116029
 30
0.0
 40
3.5
 41
0.0
 71
     1
 72
     1
  1
15.4
  7
SLDTEXTSTYLE0
 73
     1
 44
1.0
  0
MTEXT
  5
34D
330
342
100
AcDbEntity
  8
0
  6
Continuous
 62
     7
370
     0
100
AcDbMText
 10
35.3437204971
 20
203.5567116029
 30
0.0
 40
3.5
 41
0.0
 71
     1
 72
     1
  1

  7
SLDTEXTSTYLE0
 73
     1
 44
1.0
  0
MTEXT
  5
34E
330
342
100
AcDbEntity
  8
0
  6
Continuous
 62
     7
370
     0
100
AcDbMText
 10
35.3801793246
 20
207.6303225979
 30
0.0
 40
3.5
 41
0.0
 71
     1
 72
     1
  1
+
  7
SLDTEXTSTYLE0
 73
     1
 44
1.0
  0
MTEXT
  5
34F
330
342
100
AcDbEntity
  8
0
  6
Continuous
 62
     7
370
     0
100
AcDbMText
 10
36.9819153924
 20
203.5567116029
 30
0.0
 40
3.5
 41
0.0
 71
     1
 72
     1
  1

  7
SLDTEXTSTYLE0
 73
     1
 44
1.0
  0
MTEXT
  5
350
330
342
100
AcDbEntity
  8
0
  6
Continuous
 62
     7
370
     0
100
AcDbMText
 10
37.4169845893
 20
207.6303225979
 30
0.0
 40
3.5
 41
0.0
 71
     1
 72
     1
  1
0.2
  7
SLDTEXTSTYLE0
 73
     1
 44
1.0
  0
MTEXT
  5
351
330
342
100
AcDbEntity
  8
0
  6
Continuous
 62
     7
370
     0
100
AcDbMText
 10
37.4169845893
 20
203.5567116029
 30
0.0
 40
3.5
 41
0.0
 71
     1
 72
     1
  1
0
  7
SLDTEXTSTYLE0
 73
     1
 44
1.0
  0
ENDBLK
  5
344
330
342
100
AcDbEntity
  8
0
100
AcDbBlockEnd
  0
BLOCK
  5
354
330
353
100
AcDbEntity
  8
0
100
AcDbBlockBegin
  2
_D_16
 70
     0
 10
0.0
 20
0.0
 30
0.0
  3
_D_16
  1
_D_16
  0
INSERT
  5
356
330
353
100
AcDbEntity
  8
0
  6
Continuous
 62
     7
370
     0
100
AcDbBlockReference
  2
_OPEN30
 10
70.7104114283
 20
187.5219014123
 30
0.1
 41
1.5
 42
1.5
 50
270.0
  0
INSERT
  5
357
330
353
100
AcDbEntity
  8
0
  6
Continuous
 62
     7
370
     0
100
AcDbBlockReference
  2
_OPEN30
 10
70.7104114283
 20
174.6219014123
 30
0.1
 41
1.5
 42
1.5
 50
90.0
  0
LINE
  5
358
330
353
100
AcDbEntity
  8
0
  6
Continuous
 62
     7
370
     0
100
AcDbLine
 10
59.4958111126
 20
187.5219014123
 30
0.0
 11
71.7104114283
 21
187.5219014123
 31
0.0
  0
LINE
  5
359
330
353
100
AcDbEntity
  8
0
  6
Continuous
 62
     7
370
     0
100
AcDbLine
 10
57.5458111126
 20
174.6219014123
 30
0.0
 11
71.7104114283
 21
174.6219014123
 31
0.0
  0
LINE
  5
35A
330
353
100
AcDbEntity
  8
0
  6
Continuous
 62
     7
370
     0
100
AcDbLine
 10
70.7104114283
 20
187.5219014123
 30
0.0
 11
70.7104114283
 21
190.5219014123
 31
0.0
  0
LINE
  5
35B
330
353
100
AcDbEntity
  8
0
  6
Continuous
 62
     7
370
     0
100
AcDbLine
 10
70.7104114283
 20
187.5219014123
 30
0.0
 11
70.7104114283
 21
174.6219014123
 31
0.0
  0
LINE
  5
35C
330
353
100
AcDbEntity
  8
0
  6
Continuous
 62
     7
370
     0
100
AcDbLine
 10
70.7104114283
 20
174.6219014123
 30
0.0
 11
70.7104114283
 21
171.6219014123
 31
0.0
  0
MTEXT
  5
35D
330
353
100
AcDbEntity
  8
0
  6
Continuous
 62
     7
370
     0
100
AcDbMText
 10
66.1986745719
 20
177.2364380731
 30
0.0
 40
3.5
 41
0.0
 71
     1
 72
     1
  1
12.9
  7
SLDTEXTSTYLE0
 11
-7.044195017643634E-15
 21
1.0
 31
0.0
 73
     1
 44
1.0
  0
ENDBLK
  5
355
330
353
100
AcDbEntity
  8
0
100
AcDbBlockEnd
  0
BLOCK
  5
360
330
35F
100
AcDbEntity
  8
0
100
AcDbBlockBegin
  2
SW_NOTE_4
 70
     0
 10
0.0
 20
0.0
 30
0.0
  3
SW_NOTE_4
  1
SW_NOTE_4
  0
LINE
  5
362
330
35F
100
AcDbEntity
  8
0
  6
Continuous
 62
     0
370
     0
100
AcDbLine
 10
0.0
 20
0.0
 30
0.0
 11
10.1917255298
 21
0.0
 31
0.0
  0
LINE
  5
363
330
35F
100
AcDbEntity
  8
0
  6
Continuous
 62
     0
370
     0
100
AcDbLine
 10
10.1917255298
 20
0.0
 30
0.0
 11
0.0
 21
0.0
 31
0.0
  0
LINE
  5
364
330
35F
100
AcDbEntity
  8
0
  6
Continuous
 62
     0
370
     0
100
AcDbLine
 10
0.0
 20
0.0
 30
0.0
 11
10.1917255298
 21
0.0
 31
0.0
  0
LINE
  5
365
330
35F
100
AcDbEntity
  8
0
  6
Continuous
 62
     0
370
     0
100
AcDbLine
 10
10.1917255298
 20
0.0
 30
0.0
 11
0.0
 21
0.0
 31
0.0
  0
LINE
  5
366
330
35F
100
AcDbEntity
  8
0
  6
Continuous
 62
     0
370
     0
100
AcDbLine
 10
0.0
 20
0.0
 30
0.0
 11
10.1917255298
 21
0.0
 31
0.0
  0
LINE
  5
367
330
35F
100
AcDbEntity
  8
0
  6
Continuous
 62
     0
370
     0
100
AcDbLine
 10
10.1917255298
 20
0.0
 30
0.0
 11
0.0
 21
0.0
 31
0.0
  0
MTEXT
  5
368
330
35F
100
AcDbEntity
  8
0
  6
Continuous
 62
     0
370
     0
100
AcDbMText
 10
0.0402242434
 20
4.5359931535
 30
0.0
 40
3.5
 41
0.0
 71
     1
 72
     1
  1
Note2
  7
SLDTEXTSTYLE0
 73
     1
 44
1.0
  0
ENDBLK
  5
361
330
35F
100
AcDbEntity
  8
0
100
AcDbBlockEnd
  0
BLOCK
  5
409
330
408
100
AcDbEntity
  8
0
100
AcDbBlockBegin
  2
SW_NOTE_5
 70
     0
 10
0.0
 20
0.0
 30
0.0
  3
SW_NOTE_5
  1
SW_NOTE_5
  0
MTEXT
  5
40C
330
408
100
AcDbEntity
  8
0
  6
Continuous
 62
     0
370
     0
100
AcDbMText
 10
9.5703125
 20
4.5117370892
 30
0.0
 40
3.5
 41
0.0
 71
     2
 72
     1
  1
SECTION
  7
SLDTEXTSTYLE2
 73
     1
 44
1.0
  0
MTEXT
  5
40D
330
408
100
AcDbEntity
  8
0
  6
Continuous
 62
     0
370
     0
100
AcDbMText
 10
23.5776031315
 20
4.9638206247
 30
0.0
 40
3.5
 41
0.0
 71
     2
 72
     1
  1
A-A
  7
SLDTEXTSTYLE0
 73
     1
 44
1.0
  0
ENDBLK
  5
40A
330
408
100
AcDbEntity
  8
0
100
AcDbBlockEnd
  0
ENDSEC
  0
SECTION
  2
ENTITIES
  0
LINE
  5
6F
330
1F
100
AcDbEntity
  8
0
  6
CENTERX2
 62
     7
370
     0
100
AcDbLine
 10
51.7344694261
 20
132.1994093112
 30
0.0
 11
51.7344694261
 21
122.3963818466
 31
0.0
  0
LINE
  5
70
330
1F
100
AcDbEntity
  8
0
  6
CENTERX2
 62
     7
370
     0
100
AcDbLine
 10
48.1413527515
 20
127.3480741409
 30
0.0
 11
55.6741111514
 21
127.3480741409
 31
0.0
  0
LINE
  5
71
330
1F
100
AcDbEntity
  8
0
  6
CENTERX2
 62
     7
370
     0
100
AcDbLine
 10
53.5305206503
 20
125.5520229167
 30
0.0
 11
49.9384182019
 21
129.1441253651
 31
0.0
  0
LINE
  5
72
330
1F
100
AcDbEntity
  8
0
  6
CENTERX2
 62
     7
370
     0
100
AcDbLine
 10
49.9384182019
 20
125.5520229167
 30
0.0
 11
53.5305206503
 21
129.1441253651
 31
0.0
  0
LINE
  5
73
330
1F
100
AcDbEntity
  8
0
  6
Continuous
 62
     7
370
    30
100
AcDbLine
 10
5.0
 20
25.0
 30
0.0
 11
205.0
 21
25.0
 31
0.0
  0
LINE
  5
74
330
1F
100
AcDbEntity
  8
0
  6
Continuous
 62
     7
370
    30
100
AcDbLine
 10
5.0
 20
292.0
 30
0.0
 11
205.0
 21
292.0
 31
0.0
  0
LINE
  5
75
330
1F
100
AcDbEntity
  8
0
  6
Continuous
 62
     7
370
    30
100
AcDbLine
 10
5.0
 20
292.0
 30
0.0
 11
5.0
 21
7.0
 31
0.0
  0
LINE
  5
76
330
1F
100
AcDbEntity
  8
0
  6
Continuous
 62
     7
370
    30
100
AcDbLine
 10
5.0
 20
7.0
 30
0.0
 11
205.0
 21
7.0
 31
0.0
  0
LINE
  5
77
330
1F
100
AcDbEntity
  8
0
  6
Continuous
 62
     7
370
    30
100
AcDbLine
 10
205.0
 20
292.0
 30
0.0
 11
205.0
 21
7.0
 31
0.0
  0
LINE
  5
78
330
1F
100
AcDbEntity
  8
0
  6
Continuous
 62
     7
370
    30
100
AcDbLine
 10
5.0
 20
40.0
 30
0.0
 11
205.0
 21
40.0
 31
0.0
  0
LINE
  5
79
330
1F
100
AcDbEntity
  8
0
  6
Continuous
 62
     7
370
    30
100
AcDbLine
 10
5.0
 20
47.0
 30
0.0
 11
205.0
 21
47.0
 31
0.0
  0
LINE
  5
7A
330
1F
100
AcDbEntity
  8
0
  6
Continuous
 62
     7
370
    30
100
AcDbLine
 10
145.0
 20
47.0
 30
0.0
 11
145.0
 21
25.0
 31
0.0
  0
LINE
  5
7B
330
1F
100
AcDbEntity
  8
0
  6
Continuous
 62
     7
370
    30
100
AcDbLine
 10
145.0
 20
32.5
 30
0.0
 11
205.0
 21
32.5
 31
0.0
  0
LINE
  5
7C
330
1F
100
AcDbEntity
  8
0
  6
Continuous
 62
     7
370
    30
100
AcDbLine
 10
175.0
 20
40.0
 30
0.0
 11
175.0
 21
32.5
 31
0.0
  0
LINE
  5
7D
330
1F
100
AcDbEntity
  8
0
  6
Continuous
 62
     7
370
     0
100
AcDbLine
 10
128.9292008689
 20
63.0961638737
 30
0.0
 11
200.9292008689
 21
63.0961638737
 31
0.0
  0
LINE
  5
7E
330
1F
100
AcDbEntity
  8
0
  6
Continuous
 62
     7
370
     0
100
AcDbLine
 10
128.9292008689
 20
63.0961638737
 30
0.0
 11
128.9292008689
 21
49.0961638737
 31
0.0
  0
LINE
  5
7F
330
1F
100
AcDbEntity
  8
0
  6
Continuous
 62
     7
370
     0
100
AcDbLine
 10
128.9292008689
 20
49.0961638737
 30
0.0
 11
200.9292008689
 21
49.0961638737
 31
0.0
  0
LINE
  5
80
330
1F
100
AcDbEntity
  8
0
  6
Continuous
 62
     7
370
     0
100
AcDbLine
 10
200.9292008689
 20
63.0961638737
 30
0.0
 11
200.9292008689
 21
49.0961638737
 31
0.0
  0
LINE
  5
81
330
1F
100
AcDbEntity
  8
0
  6
Continuous
 62
     7
370
     0
100
AcDbLine
 10
5.0
 20
292.0
 30
0.0
 11
5.0
 21
262.0
 31
0.0
  0
CIRCLE
  5
82
330
1F
100
AcDbEntity
  8
0
  6
CENTER
 62
     7
370
     0
100
AcDbCircle
 10
51.7344694261
 20
127.3480741409
 30
0.0
 40
2.539999999999156
  0
CIRCLE
  5
83
330
1F
100
AcDbEntity
  8
0
  6
CENTER
 62
     7
370
    30
100
AcDbCircle
 10
53.5305206503
 20
129.1441253651
 30
0.0
 40
0.3249999999991646
  0
CIRCLE
  5
84
330
1F
100
AcDbEntity
  8
0
  6
CENTER
 62
     7
370
    30
100
AcDbCircle
 10
53.5305206503
 20
125.5520229167
 30
0.0
 40
0.3249999999991307
  0
CIRCLE
  5
85
330
1F
100
AcDbEntity
  8
0
  6
CENTER
 62
     7
370
    30
100
AcDbCircle
 10
49.9384182019
 20
129.1441253651
 30
0.0
 40
0.3249999999991918
  0
DIMENSION
  5
86
330
1F
100
AcDbEntity
  8
0
  6
Continuous
 62
     7
370
     0
100
AcDbDimension
  2
_D
 10
53.6472270208
 20
129.0192887842
 30
0.0
 11
32.7118360454
 21
123.2926971215
 31
0.0
 70
   163
  1
<>±0.1
 71
     1
 42
-1.0
  3
SLDDIMSTYLE0
100
AcDbDiametricDimension
 15
49.8217118314
 25
125.6768594977
 35
0.0
 40
0.0
  0
DIMENSION
  5
9C
330
1F
100
AcDbEntity
  8
0
  6
Continuous
 62
     7
370
     0
100
AcDbDimension
  2
_D_1
 10
49.9384182019
 20
125.5520229167
 30
0.0
 11
67.7776739467
 21
131.9399393434
 31
0.0
 70
   162
  1
<>
 71
     1
 42
-1.0
  3
SLDDIMSTYLE1
100
AcDb2LineAngularDimension
 13
55.6741111514
 23
127.3480741409
 33
0.0
 14
48.1413527515
 24
127.3480741409
 34
0.0
 15
53.5305206503
 25
129.1441253651
 35
0.0
 16
67.1516255555
 26
133.7340693029
 36
0.0
  0
DIMENSION
  5
A7
330
1F
100
AcDbEntity
  8
0
  6
Continuous
 62
     7
370
     0
100
AcDbDimension
  2
_D_2
 10
55.6741111514
 20
127.3480741409
 30
0.0
 11
67.7776739467
 21
123.2819931174
 31
0.0
 70
   162
  1
<>
 71
     1
 42
-1.0
  3
SLDDIMSTYLE1
100
AcDb2LineAngularDimension
 13
53.5305206503
 23
125.5520229167
 33
0.0
 14
49.9384182019
 24
129.1441253651
 34
0.0
 15
48.1413527515
 25
127.3480741409
 35
0.0
 16
67.0250922995
 26
121.0144907696
 36
0.0
  0
DIMENSION
  5
B1
330
1F
100
AcDbEntity
  8
0
  6
Continuous
 62
     7
370
     0
100
AcDbDimension
  2
_D_3
 10
50.1454834548
 20
128.8936278981
 30
0.0
 11
32.7118360454
 21
138.190679778
 31
0.0
 70
   163
  1
3-<>
 71
     1
 42
-1.0
  3
SLDDIMSTYLE2
100
AcDbDiametricDimension
 15
49.7313529489
 25
129.3946228322
 35
0.0
 40
0.0
  0
INSERT
  5
C8
330
1F
100
AcDbEntity
  8
0
  6
Continuous
 62
     7
370
     0
100
AcDbBlockReference
  2
SW_NOTE_0
 10
39.5858397134
 20
221.665013705
 30
0.0
  0
INSERT
  5
CE
330
1F
100
AcDbEntity
  8
0
  6
Continuous
 62
     7
370
     0
100
AcDbBlockReference
  2
SW_NOTE_1
 10
37.8428782836
 20
151.0387237338
 30
0.0
  0
MTEXT
  5
CF
330
1F
100
AcDbEntity
  8
0
  6
Continuous
 62
     7
370
     0
100
AcDbMText
 10
71.3184188246
 20
176.803661094
 30
0.0
 40
2.38125
 41
0.0
 71
     1
 72
     1
  1
(0.508)
  7
SLDTEXTSTYLE0
 11
-3.269436733918102E-15
 21
1.0
 31
0.0
 73
     1
 44
1.0
  0
MTEXT
  5
D0
330
1F
100
AcDbEntity
  8
0
  6
Continuous
 62
     7
370
     0
100
AcDbMText
 10
24.1967135871
 20
133.3233362635
 30
0.0
 40
2.38125
 41
0.0
 71
     1
 72
     1
  1
(3-0.026 dia.)
  7
SLDTEXTSTYLE0
 73
     1
 44
1.0
  0
MTEXT
  5
D1
330
1F
100
AcDbEntity
  8
0
  6
Continuous
 62
     7
370
     0
100
AcDbMText
 10
27.9495514801
 20
120.5898413163
 30
0.0
 40
2.38125
 41
0.0
 71
     1
 72
     1
  1
(0.2 dia.)
  7
SLDTEXTSTYLE0
 73
     1
 44
1.0
  0
INSERT
  5
D9
330
1F
100
AcDbEntity
  8
0
  6
Continuous
 62
     7
370
     0
100
AcDbBlockReference
  2
SW_NOTE_2
 10
14.4013275638
 20
80.8202120074
 30
0.0
  0
MTEXT
  5
DA
330
1F
100
AcDbEntity
  8
0
  6
Continuous
 62
     7
370
     0
100
AcDbMText
 10
70.8394021075
 20
244.4872360337
 30
0.0
 40
2.38125
 41
0.0
 71
     1
 72
     1
  1
(0.169)
  7
SLDTEXTSTYLE0
 11
-3.269436733918102E-15
 21
1.0
 31
0.0
 73
     1
 44
1.0
  0
MTEXT
  5
DB
330
1F
100
AcDbEntity
  8
0
  6
Continuous
 62
     7
370
     0
100
AcDbMText
 10
36.2877858583
 20
274.8100249201
 30
0.0
 40
3.5
 41
0.0
 71
     1
 72
     1
  1
Detection range
  7
SLDTEXTSTYLE0
 73
     1
 44
1.0
  0
MTEXT
  5
DC
330
1F
100
AcDbEntity
  8
0
  6
Continuous
 62
     7
370
     0
100
AcDbMText
 10
6.3280684874
 20
6.445181383
 30
0.0
 40
2.38125
 41
0.0
 71
     1
 72
     1
  1
(JIS A-4)
  7
SLDTEXTSTYLE0
 73
     1
 44
1.0
  0
MTEXT
  5
DD
330
1F
100
AcDbEntity
  8
0
  6
Continuous
 62
     7
370
     0
100
AcDbMText
 10
64.7360648843
 20
6.445181383
 30
0.0
 40
2.38125
 41
0.0
 71
     1
 72
     1
  1
All Right Reserved Copyrigh, (C) Panasonic Corporation
  7
SLDTEXTSTYLE0
 73
     1
 44
1.0
  0
MTEXT
  5
DE
330
1F
100
AcDbEntity
  8
0
  6
Continuous
 62
     7
370
     0
100
AcDbMText
 10
76.198799667
 20
22.8890928843
 30
0.0
 40
4.2333333333
 41
0.0
 71
     1
 72
     1
  1
Panasonic Corporation
  7
SLDTEXTSTYLE0
 73
     1
 44
1.0
  0
MTEXT
  5
DF
330
1F
100
AcDbEntity
  8
0
  6
Continuous
 62
     7
370
     0
100
AcDbMText
 10
75.2830248209
 20
16.0597678541
 30
0.0
 40
4.2333333333
 41
0.0
 71
     1
 72
     1
  1
Eco Solutions Company
  7
SLDTEXTSTYLE0
 73
     1
 44
1.0
  0
MTEXT
  5
E0
330
1F
100
AcDbEntity
  8
0
  6
Continuous
 62
     7
370
     0
100
AcDbMText
 10
7.399505626
 20
37.9517125752
 30
0.0
 40
4.2333333333
 41
0.0
 71
     1
 72
     1
  1
Name PIR MOTION SENSOR 'PaPIRs' EKM series
  7
SLDTEXTSTYLE0
 73
     1
 44
1.0
  0
MTEXT
  5
E1
330
1F
100
AcDbEntity
  8
0
  6
Continuous
 62
     7
370
     0
100
AcDbMText
 10
22.0308603402
 20
31.5452447955
 30
0.0
 40
4.2333333333
 41
0.0
 71
     1
 72
     1
  1
(Standard motion/ Slight motion detection type)
  7
SLDTEXTSTYLE0
 73
     1
 44
1.0
  0
MTEXT
  5
E2
330
1F
100
AcDbEntity
  8
0
  6
Continuous
 62
     7
370
     0
100
AcDbMText
 10
148.4473581884
 20
46.0655805192
 30
0.0
 40
4.2333333333
 41
0.0
 71
     1
 72
     1
  1
Date July.28.2016
  7
SLDTEXTSTYLE0
 73
     1
 44
1.0
  0
MTEXT
  5
E3
330
1F
100
AcDbEntity
  8
0
  6
Continuous
 62
     7
370
     0
100
AcDbMText
 10
147.8956185945
 20
38.8622472622
 30
0.0
 40
4.2333333333
 41
0.0
 71
     1
 72
     1
  1
Scale 1:1
  7
SLDTEXTSTYLE0
 73
     1
 44
1.0
  0
MTEXT
  5
E4
330
1F
100
AcDbEntity
  8
0
  6
Continuous
 62
     7
370
     0
100
AcDbMText
 10
177.1188186671
 20
38.8622472622
 30
0.0
 40
4.2333333333
 41
0.0
 71
     1
 72
     1
  1
Unit mm
  7
SLDTEXTSTYLE0
 73
     1
 44
1.0
  0
MTEXT
  5
E5
330
1F
100
AcDbEntity
  8
0
  6
Continuous
 62
     7
370
     0
100
AcDbMText
 10
147.8956185945
 20
31.5452447955
 30
0.0
 40
4.2333333333
 41
0.0
 71
     1
 72
     1
  1
Tolerance
  7
SLDTEXTSTYLE0
 73
     1
 44
1.0
  0
MTEXT
  5
E6
330
1F
100
AcDbEntity
  8
0
  6
Continuous
 62
     7
370
     0
100
AcDbMText
 10
7.399505626
 20
46.2820908805
 30
0.0
 40
4.2333333333
 41
0.0
 71
     1
 72
     1
  1
Parts No. EKM***9311**
  7
SLDTEXTSTYLE0
 73
     1
 44
1.0
  0
MTEXT
  5
E7
330
1F
100
AcDbEntity
  8
0
  6
Continuous
 62
     7
370
     0
100
AcDbMText
 10
130.1376779536
 20
58.3504872728
 30
0.0
 40
3.7041666667
 41
0.0
 71
     1
 72
     1
  1
General tolerance
  7
SLDTEXTSTYLE0
 73
     1
 44
1.0
  0
INSERT
  5
EE
330
1F
100
AcDbEntity
  8
0
  6
Continuous
 62
     7
370
     0
100
AcDbBlockReference
  2
SW_NOTE_3
 10
170.2884828494
 20
55.6699686122
 30
0.0
  0
LINE
  5
EF
330
1F
100
AcDbEntity
  8
0
  6
Continuous
 62
     7
370
    30
100
AcDbLine
 10
154.4759511319
 20
200.1193303399
 30
0.0
 11
154.4759511319
 21
204.7193299763
 31
0.0
  0
LINE
  5
F0
330
1F
100
AcDbEntity
  8
0
  6
Continuous
 62
     7
370
    30
100
AcDbLine
 10
154.0259510814
 20
204.7193299763
 30
0.0
 11
154.0259510814
 21
200.1193303399
 31
0.0
  0
LINE
  5
F1
330
1F
100
AcDbEntity
  8
0
  6
Continuous
 62
     7
370
    30
100
AcDbLine
 10
150.8838486927
 20
200.1193303399
 30
0.0
 11
150.8838486927
 21
204.7193299763
 31
0.0
  0
LINE
  5
F2
330
1F
100
AcDbEntity
  8
0
  6
Continuous
 62
     7
370
    30
100
AcDbLine
 10
150.4338486422
 20
204.7193299763
 30
0.0
 11
150.4338486422
 21
200.1193303399
 31
0.0
  0
LINE
  5
F3
330
1F
100
AcDbEntity
  8
0
  6
Continuous
 62
     7
370
    30
100
AcDbLine
 10
157.9548998572
 20
204.7193299763
 30
0.0
 11
157.4998998851
 21
212.6193300605
 31
0.0
  0
LINE
  5
F4
330
1F
100
AcDbEntity
  8
0
  6
Continuous
 62
     7
370
    30
100
AcDbLine
 10
147.409899889
 20
212.6193300605
 30
0.0
 11
146.9548999168
 21
204.7193299763
 31
0.0
  0
LINE
  5
F5
330
1F
100
AcDbEntity
  8
0
  6
Continuous
 62
     7
370
    30
100
AcDbLine
 10
160.7548997574
 20
212.6804713875
 30
0.0
 11
160.7548997574
 21
214.6193300391
 31
0.0
  0
LINE
  5
F6
330
1F
100
AcDbEntity
  8
0
  6
Continuous
 62
     7
370
    30
100
AcDbLine
 10
144.1549000167
 20
214.6193300391
 30
0.0
 11
144.1549000167
 21
212.6804713875
 31
0.0
  0
LINE
  5
F7
330
1F
100
AcDbEntity
  8
0
  6
Continuous
 62
     7
370
    30
100
AcDbLine
 10
159.9048998043
 20
214.6193300391
 30
0.0
 11
159.9048998043
 21
217.6193299488
 31
0.0
  0
LINE
  5
F8
330
1F
100
AcDbEntity
  8
0
  6
Continuous
 62
     7
370
    30
100
AcDbLine
 10
145.0048999697
 20
217.6193299488
 30
0.0
 11
145.0048999697
 21
214.6193300391
 31
0.0
  0
ARC
  5
F9
330
1F
100
AcDbEntity
  8
0
  6
Continuous
 62
     7
370
    30
100
AcDbCircle
 10
152.454899887
 20
214.0193300106
 30
0.0
 40
7.900000000000013
100
AcDbArc
 50
27.109738075
 51
152.890261925
  0
LINE
  5
FA
330
1F
100
AcDbEntity
  8
0
  6
Continuous
 62
     7
370
    30
100
AcDbLine
 10
152.8548998769
 20
206.3193300523
 30
0.0
 11
152.6048998942
 21
206.3193300523
 31
0.0
  0
LINE
  5
FB
330
1F
100
AcDbEntity
  8
0
  6
Continuous
 62
     7
370
    30
100
AcDbLine
 10
152.6048998942
 20
206.5693300933
 30
0.0
 11
152.6048998942
 21
206.3193300523
 31
0.0
  0
LINE
  5
FC
330
1F
100
AcDbEntity
  8
0
  6
Continuous
 62
     7
370
    30
100
AcDbLine
 10
152.8548998769
 20
206.5693300933
 30
0.0
 11
152.8548998769
 21
206.3193300523
 31
0.0
  0
LINE
  5
FD
330
1F
100
AcDbEntity
  8
0
  6
Continuous
 62
     7
370
    30
100
AcDbLine
 10
152.6048998942
 20
206.3193300523
 30
0.0
 11
152.3048998799
 21
206.3193300523
 31
0.0
  0
LINE
  5
FE
330
1F
100
AcDbEntity
  8
0
  6
Continuous
 62
     7
370
    30
100
AcDbLine
 10
152.3048998799
 20
206.5693300933
 30
0.0
 11
152.3048998799
 21
206.3193300523
 31
0.0
  0
LINE
  5
FF
330
1F
100
AcDbEntity
  8
0
  6
Continuous
 62
     7
370
    30
100
AcDbLine
 10
152.0548998971
 20
206.5693300933
 30
0.0
 11
152.0548998971
 21
206.3193300523
 31
0.0
  0
LINE
  5
100
330
1F
100
AcDbEntity
  8
0
  6
Continuous
 62
     7
370
    30
100
AcDbLine
 10
152.3048998799
 20
206.3193300523
 30
0.0
 11
152.0548998971
 21
206.3193300523
 31
0.0
  0
LINE
  5
101
330
1F
100
AcDbEntity
  8
0
  6
Continuous
 62
     7
370
    30
100
AcDbLine
 10
154.410050048
 20
200.1193303399
 30
0.0
 11
154.4759511319
 21
200.1193303399
 31
0.0
  0
LINE
  5
102
330
1F
100
AcDbEntity
  8
0
  6
Continuous
 62
     7
370
    30
100
AcDbLine
 10
154.0259510814
 20
200.1193303399
 30
0.0
 11
154.410050048
 21
200.1193303399
 31
0.0
  0
LINE
  5
103
330
1F
100
AcDbEntity
  8
0
  6
Continuous
 62
     7
370
    30
100
AcDbLine
 10
152.5548998845
 20
205.6193303101
 30
0.0
 11
152.5548998845
 21
206.3193300523
 31
0.0
  0
LINE
  5
104
330
1F
100
AcDbEntity
  8
0
  6
Continuous
 62
     7
370
    30
100
AcDbLine
 10
152.3548998896
 20
206.3193300523
 30
0.0
 11
152.3548998896
 21
205.6193303101
 31
0.0
  0
LINE
  5
105
330
1F
100
AcDbEntity
  8
0
  6
Continuous
 62
     7
370
    30
100
AcDbLine
 10
152.5548998845
 20
205.6193303101
 30
0.0
 11
152.3548998896
 21
205.6193303101
 31
0.0
  0
LINE
  5
106
330
1F
100
AcDbEntity
  8
0
  6
Continuous
 62
     7
370
    30
100
AcDbLine
 10
152.0548998971
 20
205.6193303101
 30
0.0
 11
152.0548998971
 21
206.3193300523
 31
0.0
  0
LINE
  5
107
330
1F
100
AcDbEntity
  8
0
  6
Continuous
 62
     7
370
    30
100
AcDbLine
 10
152.3548998896
 20
205.6193303101
 30
0.0
 11
152.0548998971
 21
205.6193303101
 31
0.0
  0
LINE
  5
108
330
1F
100
AcDbEntity
  8
0
  6
Continuous
 62
     7
370
    30
100
AcDbLine
 10
152.8548998769
 20
206.3193300523
 30
0.0
 11
152.8548998769
 21
205.6193303101
 31
0.0
  0
LINE
  5
109
330
1F
100
AcDbEntity
  8
0
  6
Continuous
 62
     7
370
    30
100
AcDbLine
 10
152.8548998769
 20
205.6193303101
 30
0.0
 11
152.5548998845
 21
205.6193303101
 31
0.0
  0
LINE
  5
10A
330
1F
100
AcDbEntity
  8
0
  6
Continuous
 62
     7
370
    30
100
AcDbLine
 10
152.9521870263
 20
205.6193303101
 30
0.0
 11
152.8548998769
 21
205.6193303101
 31
0.0
  0
LINE
  5
10B
330
1F
100
AcDbEntity
  8
0
  6
Continuous
 62
     7
370
    30
100
AcDbLine
 10
152.8548998769
 20
206.3193300523
 30
0.0
 11
152.9136603942
 21
206.3193300523
 31
0.0
  0
LINE
  5
10C
330
1F
100
AcDbEntity
  8
0
  6
Continuous
 62
     7
370
    30
100
AcDbLine
 10
152.0548998971
 20
205.6193303101
 30
0.0
 11
151.9548091176
 21
205.6193303101
 31
0.0
  0
LINE
  5
10D
330
1F
100
AcDbEntity
  8
0
  6
Continuous
 62
     7
370
    30
100
AcDbLine
 10
151.9926309131
 20
206.3193300523
 30
0.0
 11
152.0548998971
 21
206.3193300523
 31
0.0
  0
LINE
  5
10E
330
1F
100
AcDbEntity
  8
0
  6
Continuous
 62
     7
370
    30
100
AcDbLine
 10
150.8179477253
 20
200.1193303399
 30
0.0
 11
150.8838486927
 21
200.1193303399
 31
0.0
  0
LINE
  5
10F
330
1F
100
AcDbEntity
  8
0
  6
Continuous
 62
     7
370
    30
100
AcDbLine
 10
150.4338486422
 20
200.1193303399
 30
0.0
 11
150.8179477253
 21
200.1193303399
 31
0.0
  0
LINE
  5
110
330
1F
100
AcDbEntity
  8
0
  6
Continuous
 62
     7
370
    30
100
AcDbLine
 10
159.4071511947
 20
214.6193300391
 30
0.0
 11
159.4071511947
 21
213.6193300207
 31
0.0
  0
LINE
  5
111
330
1F
100
AcDbEntity
  8
0
  6
Continuous
 62
     7
370
    30
100
AcDbLine
 10
145.5026485794
 20
213.6193300207
 30
0.0
 11
159.4071511947
 21
213.6193300207
 31
0.0
  0
LINE
  5
112
330
1F
100
AcDbEntity
  8
0
  6
Continuous
 62
     7
370
    30
100
AcDbLine
 10
145.5026485794
 20
214.6193300391
 30
0.0
 11
145.5026485794
 21
213.6193300207
 31
0.0
  0
LINE
  5
113
330
1F
100
AcDbEntity
  8
0
  6
Continuous
 62
     7
370
    30
100
AcDbLine
 10
158.7658033543
 20
212.6193300605
 30
0.0
 11
158.7658033543
 21
213.6193300207
 31
0.0
  0
LINE
  5
114
330
1F
100
AcDbEntity
  8
0
  6
Continuous
 62
     7
370
    30
100
AcDbLine
 10
146.1439964198
 20
212.6193300605
 30
0.0
 11
146.1439964198
 21
213.6193300207
 31
0.0
  0
LINE
  5
115
330
1F
100
AcDbEntity
  8
0
  6
Continuous
 62
     7
370
    30
100
AcDbLine
 10
146.1439964198
 20
212.6193300605
 30
0.0
 11
158.7658033543
 21
212.6193300605
 31
0.0
  0
LINE
  5
116
330
1F
100
AcDbEntity
  8
0
  6
Continuous
 62
     7
370
    30
100
AcDbLine
 10
152.9048998793
 20
206.5693300933
 30
0.0
 11
152.0048998948
 21
206.5693300933
 31
0.0
  0
SPLINE
  5
117
330
1F
100
AcDbEntity
  8
0
  6
Continuous
 62
     7
370
    30
100
AcDbSpline
210
0.0
220
0.0
230
1.0
 70
    24
 71
     3
 72
     8
 73
     4
 74
     0
 42
0.000000001
 43
0.00000001
 40
0.0000002005751174
 40
0.0000002005751174
 40
0.0000002005751174
 40
0.0000002005751174
 40
0.0018554801540311
 40
0.0018554801540311
 40
0.0018554801540311
 40
0.0018554801540311
 10
152.0048998870422
 20
206.5693300105993
 30
0.0
 10
151.9715672797234
 20
205.9526767752002
 30
0.0
 10
151.9382339279649
 20
205.3360097676696
 30
0.0
 10
151.9048998870422
 20
204.7193300105993
 30
0.0
  0
SPLINE
  5
118
330
1F
100
AcDbEntity
  8
0
  6
Continuous
 62
     7
370
    30
100
AcDbSpline
210
0.0
220
0.0
230
1.0
 70
    24
 71
     3
 72
     8
 73
     4
 74
     0
 42
0.000000001
 43
0.00000001
 40
0.0000002005664909
 40
0.0000002005664909
 40
0.0000002005664909
 40
0.0000002005664909
 40
0.0018554801454046
 40
0.0018554801454046
 40
0.0018554801454046
 40
0.0018554801454046
 10
153.0048998870422
 20
204.7193300105993
 30
0.0
 10
152.9715658461195
 20
205.3360097676696
 30
0.0
 10
152.9382324943611
 20
205.9526767752002
 30
0.0
 10
152.9048998870422
 20
206.5693300105993
 30
0.0
  0
LINE
  5
119
330
1F
100
AcDbEntity
  8
0
  6
Continuous
 62
     7
370
    30
100
AcDbLine
 10
146.9548999168
 20
204.7193299763
 30
0.0
 11
151.90489989
 21
204.7193299763
 31
0.0
  0
LINE
  5
11A
330
1F
100
AcDbEntity
  8
0
  6
Continuous
 62
     7
370
    30
100
AcDbLine
 10
153.0048998841
 20
204.7193299763
 30
0.0
 11
157.9548998572
 21
204.7193299763
 31
0.0
  0
LINE
  5
11B
330
1F
100
AcDbEntity
  8
0
  6
Continuous
 62
     7
370
    30
100
AcDbLine
 10
145.3134713531
 20
213.6193300207
 30
0.0
 11
145.3134713531
 21
214.6193300391
 31
0.0
  0
LINE
  5
11C
330
1F
100
AcDbEntity
  8
0
  6
Continuous
 62
     7
370
    30
100
AcDbLine
 10
145.3134713531
 20
214.6193300391
 30
0.0
 11
145.354110545
 21
214.6193300391
 31
0.0
  0
LINE
  5
11D
330
1F
100
AcDbEntity
  8
0
  6
Continuous
 62
     7
370
    30
100
AcDbLine
 10
145.5026485794
 20
213.6193300207
 30
0.0
 11
145.3134713531
 21
213.6193300207
 31
0.0
  0
LINE
  5
11E
330
1F
100
AcDbEntity
  8
0
  6
Continuous
 62
     7
370
    30
100
AcDbLine
 10
159.596328421
 20
213.6193300207
 30
0.0
 11
159.596328421
 21
214.6193300391
 31
0.0
  0
LINE
  5
11F
330
1F
100
AcDbEntity
  8
0
  6
Continuous
 62
     7
370
    30
100
AcDbLine
 10
159.596328421
 20
214.6193300391
 30
0.0
 11
159.5556892291
 21
214.6193300391
 31
0.0
  0
LINE
  5
120
330
1F
100
AcDbEntity
  8
0
  6
Continuous
 62
     7
370
    30
100
AcDbLine
 10
159.4071511947
 20
213.6193300207
 30
0.0
 11
159.596328421
 21
213.6193300207
 31
0.0
  0
LINE
  5
121
330
1F
100
AcDbEntity
  8
0
  6
Continuous
 62
     7
370
    30
100
AcDbLine
 10
160.0560511299
 20
214.6193300391
 30
0.0
 11
160.0560511299
 21
212.6193300605
 31
0.0
  0
LINE
  5
122
330
1F
100
AcDbEntity
  8
0
  6
Continuous
 62
     7
370
    30
100
AcDbLine
 10
160.0560511299
 20
212.6193300605
 30
0.0
 11
158.7658033543
 21
212.6193300605
 31
0.0
  0
LINE
  5
123
330
1F
100
AcDbEntity
  8
0
  6
Continuous
 62
     7
370
    30
100
AcDbLine
 10
160.0560511299
 20
214.6193300391
 30
0.0
 11
159.596328421
 21
214.6193300391
 31
0.0
  0
LINE
  5
124
330
1F
100
AcDbEntity
  8
0
  6
Continuous
 62
     7
370
    30
100
AcDbLine
 10
144.8537486442
 20
214.6193300391
 30
0.0
 11
144.8537486442
 21
212.6193300605
 31
0.0
  0
LINE
  5
125
330
1F
100
AcDbEntity
  8
0
  6
Continuous
 62
     7
370
    30
100
AcDbLine
 10
144.8537486442
 20
212.6193300605
 30
0.0
 11
146.1439964198
 21
212.6193300605
 31
0.0
  0
LINE
  5
126
330
1F
100
AcDbEntity
  8
0
  6
Continuous
 62
     7
370
    30
100
AcDbLine
 10
144.8537486442
 20
214.6193300391
 30
0.0
 11
145.3134713531
 21
214.6193300391
 31
0.0
  0
LINE
  5
127
330
1F
100
AcDbEntity
  8
0
  6
Continuous
 62
     7
370
    30
100
AcDbLine
 10
160.5433041998
 20
212.6619591395
 30
0.0
 11
160.5433041998
 21
214.6193300391
 31
0.0
  0
LWPOLYLINE
  5
128
330
1F
100
AcDbEntity
  8
0
  6
Continuous
 62
     7
370
    30
100
AcDbPolyline
 90
        8
 70
   128
 43
0.0
 10
160.0560511299
 20
212.6193300605
 10
160.1514981896
 20
212.6276805316
 10
160.2434350946
 20
212.6357240154
 10
160.3284797468
 20
212.6431644678
 10
160.4035052307
 20
212.6497283129
 10
160.4657511063
 20
212.6551741053
 10
160.5129300453
 20
212.6593017269
 10
160.5433041998
 20
212.6619591395
  0
LINE
  5
129
330
1F
100
AcDbEntity
  8
0
  6
Continuous
 62
     7
370
    30
100
AcDbLine
 10
160.5433041998
 20
214.6193300391
 30
0.0
 11
160.0560511299
 21
214.6193300391
 31
0.0
  0
LINE
  5
12A
330
1F
100
AcDbEntity
  8
0
  6
Continuous
 62
     7
370
    30
100
AcDbLine
 10
144.3664955743
 20
212.6619591395
 30
0.0
 11
144.3664955743
 21
214.6193300391
 31
0.0
  0
LWPOLYLINE
  5
12B
330
1F
100
AcDbEntity
  8
0
  6
Continuous
 62
     7
370
    30
100
AcDbPolyline
 90
        8
 70
   128
 43
0.0
 10
144.8537486442
 20
212.6193300605
 10
144.7583015845
 20
212.6276805316
 10
144.6663646795
 20
212.6357240154
 10
144.5813200273
 20
212.6431644678
 10
144.5062945433
 20
212.6497283129
 10
144.4440486677
 20
212.6551741053
 10
144.3968697288
 20
212.6593017269
 10
144.3664955743
 20
212.6619591395
  0
LINE
  5
12C
330
1F
100
AcDbEntity
  8
0
  6
Continuous
 62
     7
370
    30
100
AcDbLine
 10
144.3664955743
 20
214.6193300391
 30
0.0
 11
144.8537486442
 21
214.6193300391
 31
0.0
  0
LWPOLYLINE
  5
12D
330
1F
100
AcDbEntity
  8
0
  6
Continuous
 62
     7
370
    30
100
AcDbPolyline
 90
        5
 70
   128
 43
0.0
 10
160.5433041998
 20
212.6619591395
 10
160.6356550776
 20
212.6700387121
 10
160.7018311345
 20
212.6758285117
 10
160.7416218915
 20
212.679309679
 10
160.7548997574
 20
212.6804713875
  0
LINE
  5
12E
330
1F
100
AcDbEntity
  8
0
  6
Continuous
 62
     7
370
    30
100
AcDbLine
 10
160.7548997574
 20
214.6193300391
 30
0.0
 11
160.5433041998
 21
214.6193300391
 31
0.0
  0
LWPOLYLINE
  5
12F
330
1F
100
AcDbEntity
  8
0
  6
Continuous
 62
     7
370
    30
100
AcDbPolyline
 90
        5
 70
   128
 43
0.0
 10
144.3664955743
 20
212.6619591395
 10
144.2741446965
 20
212.6700387121
 10
144.2079686396
 20
212.6758285117
 10
144.1681778826
 20
212.679309679
 10
144.1549000167
 20
212.6804713875
  0
LINE
  5
130
330
1F
100
AcDbEntity
  8
0
  6
Continuous
 62
     7
370
    30
100
AcDbLine
 10
144.1549000167
 20
214.6193300391
 30
0.0
 11
144.3664955743
 21
214.6193300391
 31
0.0
  0
LINE
  5
131
330
1F
100
AcDbEntity
  8
0
  6
Continuous
 62
     7
370
    30
100
AcDbLine
 10
159.9048998043
 20
217.6193299488
 30
0.0
 11
145.0048999697
 21
217.6193299488
 31
0.0
  0
LINE
  5
132
330
1F
100
AcDbEntity
  8
0
  6
Continuous
 62
     7
370
    30
100
AcDbLine
 10
159.5556892291
 20
214.6193300391
 30
0.0
 11
145.354110545
 21
214.6193300391
 31
0.0
  0
LINE
  5
133
330
1F
100
AcDbEntity
  8
0
  6
Continuous
 62
     7
370
    30
100
AcDbLine
 10
145.7288309768
 20
211.6193298966
 30
0.0
 11
145.7288309768
 21
212.6193300605
 31
0.0
  0
LINE
  5
134
330
1F
100
AcDbEntity
  8
0
  6
Continuous
 62
     7
370
    30
100
AcDbLine
 10
159.1809687973
 20
211.6193298966
 30
0.0
 11
159.1809687973
 21
212.6193300605
 31
0.0
  0
LINE
  5
135
330
1F
100
AcDbEntity
  8
0
  6
Continuous
 62
     7
370
    30
100
AcDbLine
 10
144.8548997589
 20
212.5755857228
 30
0.0
 11
144.3548996769
 21
212.6193300605
 31
0.0
  0
LINE
  5
136
330
1F
100
AcDbEntity
  8
0
  6
Continuous
 62
     7
370
    30
100
AcDbLine
 10
144.8548997589
 20
212.5755857228
 30
0.0
 11
144.8548997589
 21
212.6193300605
 31
0.0
  0
LINE
  5
137
330
1F
100
AcDbEntity
  8
0
  6
Continuous
 62
     7
370
    30
100
AcDbLine
 10
145.1548997149
 20
211.6193298966
 30
0.0
 11
145.7288309768
 21
211.6193298966
 31
0.0
  0
LINE
  5
138
330
1F
100
AcDbEntity
  8
0
  6
Continuous
 62
     7
370
    30
100
AcDbLine
 10
145.1548997149
 20
211.6193298966
 30
0.0
 11
144.3548996769
 21
212.419330051
 31
0.0
  0
LINE
  5
139
330
1F
100
AcDbEntity
  8
0
  6
Continuous
 62
     7
370
    30
100
AcDbLine
 10
144.3548996769
 20
212.419330051
 30
0.0
 11
144.3548996769
 21
212.6193300605
 31
0.0
  0
LINE
  5
13A
330
1F
100
AcDbEntity
  8
0
  6
Continuous
 62
     7
370
    30
100
AcDbLine
 10
159.7549000592
 20
211.6193298966
 30
0.0
 11
160.5549000971
 21
212.419330051
 31
0.0
  0
LINE
  5
13B
330
1F
100
AcDbEntity
  8
0
  6
Continuous
 62
     7
370
    30
100
AcDbLine
 10
159.7549000592
 20
211.6193298966
 30
0.0
 11
159.1809687973
 21
211.6193298966
 31
0.0
  0
LINE
  5
13C
330
1F
100
AcDbEntity
  8
0
  6
Continuous
 62
     7
370
    30
100
AcDbLine
 10
160.0549000152
 20
212.5755857228
 30
0.0
 11
160.0549000152
 21
212.6193300605
 31
0.0
  0
LINE
  5
13D
330
1F
100
AcDbEntity
  8
0
  6
Continuous
 62
     7
370
    30
100
AcDbLine
 10
160.0549000152
 20
212.5755857228
 30
0.0
 11
160.5549000971
 21
212.6193300605
 31
0.0
  0
LINE
  5
13E
330
1F
100
AcDbEntity
  8
0
  6
Continuous
 62
     7
370
    30
100
AcDbLine
 10
160.5549000971
 20
212.419330051
 30
0.0
 11
160.5549000971
 21
212.6193300605
 31
0.0
  0
LINE
  5
13F
330
1F
100
AcDbEntity
  8
0
  6
CENTERX2
 62
     7
370
     0
100
AcDbLine
 10
152.454899887
 20
224.8142731191
 30
0.0
 11
152.454899887
 21
197.2908010429
 31
0.0
  0
CIRCLE
  5
140
330
1F
100
AcDbEntity
  8
0
  6
Continuous
 62
     7
370
     0
100
AcDbCircle
 10
152.454899887
 20
221.9193300106
 30
0.0
 40
0.0009999999999949
  0
CIRCLE
  5
141
330
1F
100
AcDbEntity
  8
0
  6
Continuous
 62
     7
370
     0
100
AcDbCircle
 10
145.4228304903
 20
217.6193300106
 30
0.0
 40
0.0010000000000304
  0
CIRCLE
  5
142
330
1F
100
AcDbEntity
  8
0
  6
Continuous
 62
     7
370
     0
100
AcDbCircle
 10
159.4869692837
 20
217.6193300106
 30
0.0
 40
0.0010000000000032
  0
DIMENSION
  5
143
330
1F
100
AcDbEntity
  8
0
  6
Continuous
 62
     7
370
     0
100
AcDbDimension
  2
_D_4
 10
181.7497202051
 20
204.7193300106
 30
0.0
 11
181.7497202051
 21
212.6981330565
 31
0.0
 70
   160
  1
<>
 71
     2
 42
-1.0
  3
SLDDIMSTYLE3
100
AcDbAlignedDimension
 13
152.454899887
 23
221.9193300106
 33
0.0
 14
157.954899887
 24
204.7193300106
 34
0.0
 50
90.0
100
AcDbRotatedDimension
  0
DIMENSION
  5
14E
330
1F
100
AcDbEntity
  8
0
  6
Continuous
 62
     7
370
     0
100
AcDbDimension
  2
_D_5
 10
159.904899887
 20
229.9062288092
 30
0.0
 11
169.0242371956
 21
229.9062288092
 31
0.0
 70
   160
  1
%%c<>
 71
     2
 42
-1.0
  3
SLDDIMSTYLE4
100
AcDbAlignedDimension
 13
145.004899887
 23
217.6193300106
 33
0.0
 14
159.904899887
 24
217.6193300106
 34
0.0
100
AcDbRotatedDimension
  0
DIMENSION
  5
15B
330
1F
100
AcDbEntity
  8
0
  6
Continuous
 62
     7
370
     0
100
AcDbDimension
  2
_D_6
 10
170.754899887
 20
200.1193300106
 30
0.0
 11
170.754899887
 21
193.3862634125
 31
0.0
 70
   160
  1
<>
 71
     2
 42
-1.0
  3
SLDDIMSTYLE3
100
AcDbAlignedDimension
 13
157.954899887
 23
204.7193300106
 33
0.0
 14
154.4759511113
 24
200.1193300106
 34
0.0
 50
90.0
100
AcDbRotatedDimension
  0
DIMENSION
  5
166
330
1F
100
AcDbEntity
  8
0
  6
Continuous
 62
     7
370
     0
100
AcDbDimension
  2
_D_7
 10
150.8838486628
 20
201.500186224
 30
0.0
 11
130.3125229143
 21
201.500186224
 31
0.0
 70
   160
  1
%%c<>
 71
     2
 42
-1.0
  3
SLDDIMSTYLE5
100
AcDbAlignedDimension
 13
150.4338486628
 23
200.1193300106
 33
0.0
 14
150.8838486628
 24
200.1193300106
 34
0.0
100
AcDbRotatedDimension
  0
DIMENSION
  5
173
330
1F
100
AcDbEntity
  8
0
  6
Continuous
 62
     7
370
     0
100
AcDbDimension
  2
_D_8
 10
157.954899887
 20
190.9858777805
 30
0.0
 11
151.1707470054
 21
190.9858777805
 31
0.0
 70
   160
  1
%%c<>
 71
     2
 42
-1.0
  3
SLDDIMSTYLE6
100
AcDbAlignedDimension
 13
146.954899887
 23
204.7193300106
 33
0.0
 14
157.954899887
 24
204.7193300106
 34
0.0
100
AcDbRotatedDimension
  0
DIMENSION
  5
181
330
1F
100
AcDbEntity
  8
0
  6
Continuous
 62
     7
370
     0
100
AcDbDimension
  2
_D_9
 10
170.2716967338
 20
204.7193300106
 30
0.0
 11
170.2716967338
 21
208.6092827301
 31
0.0
 70
   160
  1
<>
 71
     2
 42
-1.0
  3
SLDDIMSTYLE7
100
AcDbAlignedDimension
 13
160.0560511156
 23
212.6193300106
 33
0.0
 14
157.954899887
 24
204.7193300106
 34
0.0
 50
90.0
100
AcDbRotatedDimension
  0
DIMENSION
  5
18E
330
1F
100
AcDbEntity
  8
0
  6
Continuous
 62
     7
370
     0
100
AcDbDimension
  2
_D_10
 10
160.754899887
 20
240.9161821828
 30
0.0
 11
170.2716967338
 21
240.9161821828
 31
0.0
 70
   160
  1
<>
 71
     2
 42
-1.0
  3
SLDDIMSTYLE4
100
AcDbAlignedDimension
 13
144.154899887
 23
214.6193300106
 33
0.0
 14
160.754899887
 24
214.6193300106
 34
0.0
100
AcDbRotatedDimension
  0
MTEXT
  5
199
330
1F
100
AcDbEntity
  8
0
  6
Continuous
 62
     7
370
     0
100
AcDbMText
 10
164.0567822994
 20
228.9691344933
 30
0.0
 40
2.38125
 41
0.0
 71
     1
 72
     1
  1
(0.587 dia)
  7
SLDTEXTSTYLE0
 73
     1
 44
1.0
  0
MTEXT
  5
19A
330
1F
100
AcDbEntity
  8
0
  6
Continuous
 62
     7
370
     0
100
AcDbMText
 10
164.0567822994
 20
240.5806785148
 30
0.0
 40
2.38125
 41
0.0
 71
     1
 72
     1
  1
(0.654 dia)
  7
SLDTEXTSTYLE0
 73
     1
 44
1.0
  0
MTEXT
  5
19B
330
1F
100
AcDbEntity
  8
0
  6
Continuous
 62
     7
370
     0
100
AcDbMText
 10
145.7287582445
 20
190.3093448016
 30
0.0
 40
2.38125
 41
0.0
 71
     1
 72
     1
  1
(0.433 dia)
  7
SLDTEXTSTYLE0
 73
     1
 44
1.0
  0
MTEXT
  5
19C
330
1F
100
AcDbEntity
  8
0
  6
Continuous
 62
     7
370
     0
100
AcDbMText
 10
125.1407109337
 20
200.9181265926
 30
0.0
 40
2.38125
 41
0.0
 71
     1
 72
     1
  1
(0.018 dia)
  7
SLDTEXTSTYLE0
 73
     1
 44
1.0
  0
MTEXT
  5
19D
330
1F
100
AcDbEntity
  8
0
  6
Continuous
 62
     7
370
     0
100
AcDbMText
 10
182.0874938212
 20
208.4454699618
 30
0.0
 40
2.38125
 41
0.0
 71
     1
 72
     1
  1
(0.677)
  7
SLDTEXTSTYLE0
 11
-3.269436733918102E-15
 21
1.0
 31
0.0
 73
     1
 44
1.0
  0
MTEXT
  5
19E
330
1F
100
AcDbEntity
  8
0
  6
Continuous
 62
     7
370
     0
100
AcDbMText
 10
171.3403197803
 20
189.1988991405
 30
0.0
 40
2.38125
 41
0.0
 71
     1
 72
     1
  1
(0.181)
  7
SLDTEXTSTYLE0
 11
-3.269436733918102E-15
 21
1.0
 31
0.0
 73
     1
 44
1.0
  0
MTEXT
  5
19F
330
1F
100
AcDbEntity
  8
0
  6
Continuous
 62
     7
370
     0
100
AcDbMText
 10
171.0981688002
 20
205.0117692472
 30
0.0
 40
2.38125
 41
0.0
 71
     1
 72
     1
  1
(0.311)
  7
SLDTEXTSTYLE0
 11
-3.269436733918102E-15
 21
1.0
 31
0.0
 73
     1
 44
1.0
  0
LINE
  5
1A0
330
1F
100
AcDbEntity
  8
0
  6
Continuous
 62
     7
370
     0
100
AcDbLine
 10
138.8647162463
 20
217.6193300106
 30
0.0
 11
165.7821673053
 21
217.6193300106
 31
0.0
  0
LINE
  5
1A1
330
1F
100
AcDbEntity
  8
0
  6
Continuous
 62
     7
370
     0
100
AcDbLine
 10
140.8647162463
 20
211.6193300106
 30
0.0
 11
140.8647162463
 21
217.6193300106
 31
0.0
  0
INSERT
  5
1A2
330
1F
100
AcDbEntity
  8
0
  6
Continuous
 62
     7
370
     0
100
AcDbBlockReference
  2
_OPEN30
 10
140.8647162463
 20
217.6193300106
 30
0.0
 41
3.0
 42
3.0
 50
90.0
  0
LINE
  5
1A3
330
1F
100
AcDbEntity
  8
0
  6
Continuous
 62
     7
370
     0
100
AcDbLine
 10
163.7821673053
 20
211.6193300106
 30
0.0
 11
163.7821673053
 21
217.6193300106
 31
0.0
  0
INSERT
  5
1A4
330
1F
100
AcDbEntity
  8
0
  6
Continuous
 62
     7
370
     0
100
AcDbBlockReference
  2
_OPEN30
 10
163.7821673053
 20
217.6193300106
 30
0.0
 41
3.0
 42
3.0
 50
90.0
  0
MTEXT
  5
1A5
330
1F
100
AcDbEntity
  8
0
  6
Continuous
 62
     7
100
AcDbMText
 10
139.606639792
 20
212.2347080997
 30
0.0
 40
3.5
 41
0.0
 71
     1
 72
     1
  1
A
  7
SLDTEXTSTYLE0
 73
     1
 44
1.0
  0
MTEXT
  5
1A6
330
1F
100
AcDbEntity
  8
0
  6
Continuous
 62
     7
100
AcDbMText
 10
162.4996810001
 20
212.308715776
 30
0.0
 40
3.5
 41
0.0
 71
     1
 72
     1
  1
A
  7
SLDTEXTSTYLE0
 73
     1
 44
1.0
  0
LINE
  5
1A7
330
1F
100
AcDbEntity
  8
0
  6
Continuous
 62
     7
370
    30
100
AcDbLine
 10
144.3548996769
 20
261.5836540293
 30
0.0
 11
144.3548996769
 21
265.0836541373
 31
0.0
  0
LINE
  5
1A8
330
1F
100
AcDbEntity
  8
0
  6
Continuous
 62
     7
370
    30
100
AcDbLine
 10
160.5549000971
 20
261.5836540293
 30
0.0
 11
160.5549000971
 21
265.0836541373
 31
0.0
  0
LINE
  5
1A9
330
1F
100
AcDbEntity
  8
0
  6
Continuous
 62
     7
370
    30
100
AcDbLine
 10
159.596328421
 20
265.5836539864
 30
0.0
 11
160.0560511299
 21
265.5836539864
 31
0.0
  0
ARC
  5
1AA
330
1F
100
AcDbEntity
  8
0
  6
Continuous
 62
     7
370
    30
100
AcDbCircle
 10
160.0560511156
 20
265.0836540833
 30
0.0
 40
0.5
100
AcDbArc
 50
12.9651864231
 51
90.0
  0
ARC
  5
1AB
330
1F
100
AcDbEntity
  8
0
  6
Continuous
 62
     7
370
    30
100
AcDbCircle
 10
152.454899887
 20
263.3336540833
 30
0.0
 40
8.300000000000002
100
AcDbArc
 50
347.0348135769
 51
12.9651864231
  0
ARC
  5
1AC
330
1F
100
AcDbEntity
  8
0
  6
Continuous
 62
     7
370
    30
100
AcDbCircle
 10
160.0560511156
 20
261.5836540833
 30
0.0
 40
0.5
100
AcDbArc
 50
270.0
 51
347.0348135769
  0
LINE
  5
1AD
330
1F
100
AcDbEntity
  8
0
  6
Continuous
 62
     7
370
    30
100
AcDbLine
 10
160.0560511299
 20
261.0836541801
 30
0.0
 11
159.596328421
 21
261.0836541801
 31
0.0
  0
LWPOLYLINE
  5
1AE
330
1F
100
AcDbEntity
  8
0
  6
Continuous
 62
     7
370
    30
100
AcDbPolyline
 90
        3
 70
   128
 43
0.0
 10
159.596328421
 20
261.0836541801
 10
159.5654448331
 20
261.0812550932
 10
159.5556892291
 20
261.0794816222
  0
LWPOLYLINE
  5
1AF
330
1F
100
AcDbEntity
  8
0
  6
Continuous
 62
     7
370
    30
100
AcDbPolyline
 90
        3
 70
   128
 43
0.0
 10
145.3134713531
 20
261.0836541801
 10
145.344354941
 20
261.0812550932
 10
145.354110545
 20
261.0794816222
  0
LINE
  5
1B0
330
1F
100
AcDbEntity
  8
0
  6
Continuous
 62
     7
370
    30
100
AcDbLine
 10
144.8537486442
 20
261.0836541801
 30
0.0
 11
145.3134713531
 21
261.0836541801
 31
0.0
  0
ARC
  5
1B1
330
1F
100
AcDbEntity
  8
0
  6
Continuous
 62
     7
370
    30
100
AcDbCircle
 10
144.8537486584
 20
261.5836540833
 30
0.0
 40
0.5000000000000024
100
AcDbArc
 50
192.9651864231
 51
270.0
  0
ARC
  5
1B2
330
1F
100
AcDbEntity
  8
0
  6
Continuous
 62
     7
370
    30
100
AcDbCircle
 10
152.454899887
 20
263.3336540833
 30
0.0
 40
8.300000000000002
100
AcDbArc
 50
167.0348135769
 51
192.9651864231
  0
ARC
  5
1B3
330
1F
100
AcDbEntity
  8
0
  6
Continuous
 62
     7
370
    30
100
AcDbCircle
 10
144.8537486584
 20
265.0836540833
 30
0.0
 40
0.5000000000000152
100
AcDbArc
 50
90.0
 51
167.0348135769
  0
LINE
  5
1B4
330
1F
100
AcDbEntity
  8
0
  6
Continuous
 62
     7
370
    30
100
AcDbLine
 10
145.3134713531
 20
265.5836539864
 30
0.0
 11
144.8537486442
 21
265.5836539864
 31
0.0
  0
LWPOLYLINE
  5
1B5
330
1F
100
AcDbEntity
  8
0
  6
Continuous
 62
     7
370
    30
100
AcDbPolyline
 90
        3
 70
   128
 43
0.0
 10
145.354110545
 20
265.5878265444
 10
145.344354941
 20
265.5860530734
 10
145.3134713531
 20
265.5836539864
  0
LWPOLYLINE
  5
1B6
330
1F
100
AcDbEntity
  8
0
  6
Continuous
 62
     7
370
    30
100
AcDbPolyline
 90
        3
 70
   128
 43
0.0
 10
159.5556892291
 20
265.5878265444
 10
159.5654448331
 20
265.5860530734
 10
159.596328421
 20
265.5836539864
  0
LWPOLYLINE
  5
1B7
330
1F
100
AcDbEntity
  8
0
  6
Continuous
 62
     7
370
    30
100
AcDbPolyline
 90
       10
 70
   128
 43
0.0
 10
160.0549000152
 20
264.5836540553
 10
160.0624958821
 20
264.5912501551
 10
160.0850534462
 20
264.6138077192
 10
160.121887254
 20
264.6506414106
 10
160.1718778559
 20
264.700631896
 10
160.2335062646
 20
264.7622603047
 10
160.3048995905
 20
264.8336540963
 10
160.3838897147
 20
264.9126439877
 10
160.4680756875
 20
264.9968299605
 10
160.5549000971
 20
265.0836541373
  0
LINE
  5
1B8
330
1F
100
AcDbEntity
  8
0
  6
Continuous
 62
     7
370
    30
100
AcDbLine
 10
159.7992854961
 20
264.5836540553
 30
0.0
 11
160.0549000152
 21
264.5836540553
 31
0.0
  0
LWPOLYLINE
  5
1B9
330
1F
100
AcDbEntity
  8
0
  6
Continuous
 62
     7
370
    30
100
AcDbPolyline
 90
       10
 70
   128
 43
0.0
 10
144.8548997589
 20
264.5836540553
 10
144.847303892
 20
264.5912501551
 10
144.8247463279
 20
264.6138077192
 10
144.7879125201
 20
264.6506414106
 10
144.7379219182
 20
264.700631896
 10
144.6762935095
 20
264.7622603047
 10
144.6049001836
 20
264.8336540963
 10
144.5259100594
 20
264.9126439877
 10
144.4417240866
 20
264.9968299605
 10
144.3548996769
 20
265.0836541373
  0
LINE
  5
1BA
330
1F
100
AcDbEntity
  8
0
  6
Continuous
 62
     7
370
    30
100
AcDbLine
 10
145.110514278
 20
264.5836540553
 30
0.0
 11
144.8548997589
 21
264.5836540553
 31
0.0
  0
LWPOLYLINE
  5
1BB
330
1F
100
AcDbEntity
  8
0
  6
Continuous
 62
     7
370
    30
100
AcDbPolyline
 90
       10
 70
   128
 43
0.0
 10
160.5549000971
 20
261.5836540293
 10
160.4680756875
 20
261.6704782061
 10
160.3838897147
 20
261.7546641789
 10
160.3048995905
 20
261.8336540702
 10
160.2335062646
 20
261.9050478618
 10
160.1718778559
 20
261.9666762706
 10
160.121887254
 20
262.016666756
 10
160.0850534462
 20
262.0535004474
 10
160.0624958821
 20
262.0760580115
 10
160.0549000152
 20
262.0836541112
  0
LINE
  5
1BC
330
1F
100
AcDbEntity
  8
0
  6
Continuous
 62
     7
370
    30
100
AcDbLine
 10
160.0549000152
 20
264.5836540553
 30
0.0
 11
160.0549000152
 21
264.3336541308
 31
0.0
  0
LINE
  5
1BD
330
1F
100
AcDbEntity
  8
0
  6
Continuous
 62
     7
370
    30
100
AcDbLine
 10
160.0549000152
 20
262.3336540358
 30
0.0
 11
160.0549000152
 21
262.0836541112
 31
0.0
  0
LWPOLYLINE
  5
1BE
330
1F
100
AcDbEntity
  8
0
  6
Continuous
 62
     7
370
    30
100
AcDbPolyline
 90
       10
 70
   128
 43
0.0
 10
144.3548996769
 20
261.5836540293
 10
144.4417240866
 20
261.6704782061
 10
144.5259100594
 20
261.7546641789
 10
144.6049001836
 20
261.8336540702
 10
144.6762935095
 20
261.9050478618
 10
144.7379219182
 20
261.9666762706
 10
144.7879125201
 20
262.016666756
 10
144.8247463279
 20
262.0535004474
 10
144.847303892
 20
262.0760580115
 10
144.8548997589
 20
262.0836541112
  0
LINE
  5
1BF
330
1F
100
AcDbEntity
  8
0
  6
Continuous
 62
     7
370
    30
100
AcDbLine
 10
144.8548997589
 20
264.5836540553
 30
0.0
 11
144.8548997589
 21
264.3336541308
 31
0.0
  0
LINE
  5
1C0
330
1F
100
AcDbEntity
  8
0
  6
Continuous
 62
     7
370
    30
100
AcDbLine
 10
144.8548997589
 20
262.3336540358
 30
0.0
 11
144.8548997589
 21
262.0836541112
 31
0.0
  0
LINE
  5
1C1
330
1F
100
AcDbEntity
  8
0
  6
Continuous
 62
     7
370
    30
100
AcDbLine
 10
144.8548997589
 20
262.0836541112
 30
0.0
 11
145.110514278
 21
262.0836541112
 31
0.0
  0
LINE
  5
1C2
330
1F
100
AcDbEntity
  8
0
  6
Continuous
 62
     7
370
    30
100
AcDbLine
 10
160.0549000152
 20
262.0836541112
 30
0.0
 11
159.7992854961
 21
262.0836541112
 31
0.0
  0
CIRCLE
  5
1C3
330
1F
100
AcDbEntity
  8
0
  6
Continuous
 62
     7
370
    30
100
AcDbCircle
 10
152.454899887
 20
263.3336540833
 30
0.0
 40
7.032069396699683
  0
CIRCLE
  5
1C4
330
1F
100
AcDbEntity
  8
0
  6
Continuous
 62
     7
370
    30
100
AcDbCircle
 10
152.454899887
 20
263.3336540833
 30
0.0
 40
7.450000000000017
  0
LINE
  5
1C5
330
1F
100
AcDbEntity
  8
0
  6
Continuous
 62
     7
370
    30
100
AcDbLine
 10
144.8548997589
 20
264.3336541308
 30
0.0
 11
144.8548997589
 21
262.3336540358
 31
0.0
  0
LINE
  5
1C6
330
1F
100
AcDbEntity
  8
0
  6
Continuous
 62
     7
370
    30
100
AcDbLine
 10
144.8548997589
 20
262.3336540358
 30
0.0
 11
145.0723188766
 21
262.3336540358
 31
0.0
  0
LINE
  5
1C7
330
1F
100
AcDbEntity
  8
0
  6
Continuous
 62
     7
370
    30
100
AcDbLine
 10
145.0723188766
 20
264.3336541308
 30
0.0
 11
144.8548997589
 21
264.3336541308
 31
0.0
  0
LINE
  5
1C8
330
1F
100
AcDbEntity
  8
0
  6
Continuous
 62
     7
370
    30
100
AcDbLine
 10
160.0549000152
 20
264.3336541308
 30
0.0
 11
160.0549000152
 21
262.3336540358
 31
0.0
  0
LINE
  5
1C9
330
1F
100
AcDbEntity
  8
0
  6
Continuous
 62
     7
370
    30
100
AcDbLine
 10
160.0549000152
 20
262.3336540358
 30
0.0
 11
159.8374808975
 21
262.3336540358
 31
0.0
  0
LINE
  5
1CA
330
1F
100
AcDbEntity
  8
0
  6
Continuous
 62
     7
370
    30
100
AcDbLine
 10
159.8374808975
 20
264.3336541308
 30
0.0
 11
160.0549000152
 21
264.3336541308
 31
0.0
  0
LINE
  5
1CB
330
1F
100
AcDbEntity
  8
0
  6
Continuous
 62
     7
370
    30
100
AcDbLine
 10
144.3548996769
 20
265.0836541373
 30
0.0
 11
145.213353245
 21
265.0836541373
 31
0.0
  0
LINE
  5
1CC
330
1F
100
AcDbEntity
  8
0
  6
Continuous
 62
     7
370
    30
100
AcDbLine
 10
145.213353245
 20
261.5836540293
 30
0.0
 11
144.3548996769
 21
261.5836540293
 31
0.0
  0
LINE
  5
1CD
330
1F
100
AcDbEntity
  8
0
  6
Continuous
 62
     7
370
    30
100
AcDbLine
 10
159.6964465291
 20
261.5836540293
 30
0.0
 11
160.5549000971
 21
261.5836540293
 31
0.0
  0
LINE
  5
1CE
330
1F
100
AcDbEntity
  8
0
  6
Continuous
 62
     7
370
    30
100
AcDbLine
 10
160.5549000971
 20
265.0836541373
 30
0.0
 11
159.6964465291
 21
265.0836541373
 31
0.0
  0
LINE
  5
1CF
330
1F
100
AcDbEntity
  8
0
  6
CENTERX2
 62
     7
370
     0
100
AcDbLine
 10
141.3777580557
 20
263.3336540833
 30
0.0
 11
163.4346147233
 21
263.3336540833
 31
0.0
  0
LINE
  5
1D0
330
1F
100
AcDbEntity
  8
0
  6
CENTERX2
 62
     7
370
     0
100
AcDbLine
 10
152.454899887
 20
253.1905826559
 30
0.0
 11
152.454899887
 21
273.5404848529
 31
0.0
  0
ARC
  5
1D1
330
1F
100
AcDbEntity
  8
0
  6
Continuous
 62
     7
370
    30
100
AcDbCircle
 10
149.0249359205
 20
154.6116349812
 30
0.0
 40
0.2000000000000259
100
AcDbArc
 50
315.0
 51
42.5451104446
  0
ARC
  5
1D2
330
1F
100
AcDbEntity
  8
0
  6
Continuous
 62
     7
370
    30
100
AcDbCircle
 10
155.8848638536
 20
160.9058774894
 30
0.0
 40
0.200000000000005
100
AcDbArc
 50
135.0
 51
222.5451104446
  0
ARC
  5
1D3
330
1F
100
AcDbEntity
  8
0
  6
Continuous
 62
     7
370
    30
100
AcDbCircle
 10
148.0144309489
 20
156.3618809332
 30
0.0
 40
0.2000000000000112
100
AcDbArc
 50
17.4359383495
 51
105.0
  0
ARC
  5
1D4
330
1F
100
AcDbEntity
  8
0
  6
Continuous
 62
     7
370
    30
100
AcDbCircle
 10
156.8953688252
 20
159.1556315374
 30
0.0
 40
0.2000000000000084
100
AcDbArc
 50
197.4359383495
 51
285.0
  0
ARC
  5
1D5
330
1F
100
AcDbEntity
  8
0
  6
Continuous
 62
     7
370
    30
100
AcDbCircle
 10
152.454899887
 20
157.7587562353
 30
0.0
 40
4.455000000000008
100
AcDbArc
 50
197.4615312198
 51
222.5364900236
  0
ARC
  5
1D6
330
1F
100
AcDbEntity
  8
0
  6
Continuous
 62
     7
370
    30
100
AcDbCircle
 10
152.454899887
 20
157.7587562353
 30
0.0
 40
4.454999999999995
100
AcDbArc
 50
17.463532978
 51
42.5374361468
  0
LINE
  5
1D7
330
1F
100
AcDbEntity
  8
0
  6
Continuous
 62
     7
370
    30
100
AcDbLine
 10
153.5109374974
 20
156.048756253
 30
0.0
 11
153.5059040482
 21
156.048756253
 31
0.0
  0
LINE
  5
1D8
330
1F
100
AcDbEntity
  8
0
  6
Continuous
 62
     7
370
    30
100
AcDbLine
 10
153.5059040482
 20
159.4687562176
 30
0.0
 11
153.5109374974
 21
159.4687562176
 31
0.0
  0
LINE
  5
1D9
330
1F
100
AcDbEntity
  8
0
  6
Continuous
 62
     7
370
    30
100
AcDbLine
 10
154.1648998693
 20
158.8147938457
 30
0.0
 11
154.1648998693
 21
158.8097603964
 31
0.0
  0
LINE
  5
1DA
330
1F
100
AcDbEntity
  8
0
  6
Continuous
 62
     7
370
    30
100
AcDbLine
 10
154.1648998693
 20
156.7077520742
 30
0.0
 11
154.1648998693
 21
156.7027186249
 31
0.0
  0
LINE
  5
1DB
330
1F
100
AcDbEntity
  8
0
  6
Continuous
 62
     7
370
    30
100
AcDbLine
 10
152.0548998971
 20
162.8587564193
 30
0.0
 11
152.0548998971
 21
162.7911396065
 31
0.0
  0
ARC
  5
1DC
330
1F
100
AcDbEntity
  8
0
  6
Continuous
 62
     7
370
    30
100
AcDbCircle
 10
152.304899887
 20
162.8587562353
 30
0.0
 40
0.25
100
AcDbArc
 50
90.0
 51
180.0
  0
LINE
  5
1DD
330
1F
100
AcDbEntity
  8
0
  6
Continuous
 62
     7
370
    30
100
AcDbLine
 10
152.6048998942
 20
163.1087564603
 30
0.0
 11
152.3048998799
 21
163.1087564603
 31
0.0
  0
ARC
  5
1DE
330
1F
100
AcDbEntity
  8
0
  6
Continuous
 62
     7
370
    30
100
AcDbCircle
 10
152.604899887
 20
162.8587562353
 30
0.0
 40
0.25
100
AcDbArc
 50
360.0
 51
90.0
  0
LINE
  5
1DF
330
1F
100
AcDbEntity
  8
0
  6
Continuous
 62
     7
370
    30
100
AcDbLine
 10
152.8548998769
 20
162.7911396065
 30
0.0
 11
152.8548998769
 21
162.8587564193
 31
0.0
  0
CIRCLE
  5
1E0
330
1F
100
AcDbEntity
  8
0
  6
Continuous
 62
     7
370
    30
100
AcDbCircle
 10
154.2509511113
 20
155.9627050111
 30
0.0
 40
0.2250000000000058
  0
CIRCLE
  5
1E1
330
1F
100
AcDbEntity
  8
0
  6
Continuous
 62
     7
370
    30
100
AcDbCircle
 10
154.2509511113
 20
155.9627050111
 30
0.0
 40
0.7449999999999868
  0
CIRCLE
  5
1E2
330
1F
100
AcDbEntity
  8
0
  6
Continuous
 62
     7
370
    30
100
AcDbCircle
 10
154.2509511113
 20
159.5548074595
 30
0.0
 40
0.2250000000000058
  0
CIRCLE
  5
1E3
330
1F
100
AcDbEntity
  8
0
  6
Continuous
 62
     7
370
    30
100
AcDbCircle
 10
154.2509511113
 20
159.5548074595
 30
0.0
 40
0.7450000000000069
  0
CIRCLE
  5
1E4
330
1F
100
AcDbEntity
  8
0
  6
Continuous
 62
     7
370
    30
100
AcDbCircle
 10
150.6588486628
 20
155.9627050111
 30
0.0
 40
0.2249999999999857
  0
ARC
  5
1E5
330
1F
100
AcDbEntity
  8
0
  6
Continuous
 62
     7
370
    30
100
AcDbCircle
 10
152.554899887
 20
162.7911397142
 30
0.0
 40
0.2999999999999829
100
AcDbArc
 50
0.0
 51
90.0
  0
LINE
  5
1E6
330
1F
100
AcDbEntity
  8
0
  6
Continuous
 62
     7
370
    30
100
AcDbLine
 10
152.8548998769
 20
162.5579750837
 30
0.0
 11
152.8548998769
 21
162.7911396065
 31
0.0
  0
ARC
  5
1E7
330
1F
100
AcDbEntity
  8
0
  6
Continuous
 62
     7
370
    30
100
AcDbCircle
 10
153.154899887
 20
162.5579749217
 30
0.0
 40
0.3000000000000114
100
AcDbArc
 50
180.0
 51
261.7015230635
  0
ARC
  5
1E8
330
1F
100
AcDbEntity
  8
0
  6
Continuous
 62
     7
370
    30
100
AcDbCircle
 10
151.754899887
 20
162.5579749217
 30
0.0
 40
0.3000000000000058
100
AcDbArc
 50
278.2984769365
 51
0.0
  0
LINE
  5
1E9
330
1F
100
AcDbEntity
  8
0
  6
Continuous
 62
     7
370
    30
100
AcDbLine
 10
152.0548998971
 20
162.7911396065
 30
0.0
 11
152.0548998971
 21
162.5579750837
 31
0.0
  0
ARC
  5
1EA
330
1F
100
AcDbEntity
  8
0
  6
Continuous
 62
     7
370
    30
100
AcDbCircle
 10
152.354899887
 20
162.7911397142
 30
0.0
 40
0.2999999999999829
100
AcDbArc
 50
90.0
 51
180.0
  0
LINE
  5
1EB
330
1F
100
AcDbEntity
  8
0
  6
Continuous
 62
     7
370
    30
100
AcDbLine
 10
152.5548998845
 20
163.0911395625
 30
0.0
 11
152.3548998896
 21
163.0911395625
 31
0.0
  0
CIRCLE
  5
1EC
330
1F
100
AcDbEntity
  8
0
  6
Continuous
 62
     7
370
    30
100
AcDbCircle
 10
150.6588486628
 20
155.9627050111
 30
0.0
 40
0.7500000000000061
  0
CIRCLE
  5
1ED
330
1F
100
AcDbEntity
  8
0
  6
Continuous
 62
     7
370
    30
100
AcDbCircle
 10
154.2509511113
 20
155.9627050111
 30
0.0
 40
0.7500000000000061
  0
CIRCLE
  5
1EE
330
1F
100
AcDbEntity
  8
0
  6
Continuous
 62
     7
370
    30
100
AcDbCircle
 10
154.2509511113
 20
159.5548074595
 30
0.0
 40
0.7500000000000262
  0
ARC
  5
1EF
330
1F
100
AcDbEntity
  8
0
  6
Continuous
 62
     7
370
    30
100
AcDbCircle
 10
152.454899887
 20
157.7587562353
 30
0.0
 40
4.550000000000014
100
AcDbArc
 50
44.6568599166
 51
81.7015230635
  0
ARC
  5
1F0
330
1F
100
AcDbEntity
  8
0
  6
Continuous
 62
     7
370
    30
100
AcDbCircle
 10
152.454899887
 20
157.7587562353
 30
0.0
 40
4.550000000000021
100
AcDbArc
 50
224.6568599166
 51
15.3431400834
  0
ARC
  5
1F1
330
1F
100
AcDbEntity
  8
0
  6
Continuous
 62
     7
370
    30
100
AcDbCircle
 10
152.454899887
 20
157.7587562353
 30
0.0
 40
4.549999999999991
100
AcDbArc
 50
98.2984769365
 51
195.3431400834
  0
LINE
  5
1F2
330
1F
100
AcDbEntity
  8
0
  6
Continuous
 62
     7
370
    30
100
AcDbLine
 10
153.5112801077
 20
155.8737562011
 30
0.0
 11
153.5062443302
 21
155.8737562011
 31
0.0
  0
LINE
  5
1F3
330
1F
100
AcDbEntity
  8
0
  6
Continuous
 62
     7
370
    30
100
AcDbLine
 10
153.729899933
 20
155.4232555647
 30
0.0
 11
153.729899933
 21
155.4302290753
 31
0.0
  0
LINE
  5
1F4
330
1F
100
AcDbEntity
  8
0
  6
Continuous
 62
     7
370
    30
100
AcDbLine
 10
153.5075069707
 20
159.6537562293
 30
0.0
 11
153.512551363
 21
159.6537562293
 31
0.0
  0
LINE
  5
1F5
330
1F
100
AcDbEntity
  8
0
  6
Continuous
 62
     7
370
    30
100
AcDbLine
 10
153.729899933
 20
160.0872833953
 30
0.0
 11
153.729899933
 21
160.0942569059
 31
0.0
  0
LWPOLYLINE
  5
1F6
330
1F
100
AcDbEntity
  8
0
  6
Continuous
 62
     7
370
    30
100
AcDbPolyline
 90
        3
 70
   128
 43
0.0
 10
153.6693328828
 20
156.4282640322
 10
153.6691256635
 20
156.4298593878
 10
153.6682547605
 20
156.4348966787
  0
LINE
  5
1F7
330
1F
100
AcDbEntity
  8
0
  6
Continuous
 62
     7
370
    30
100
AcDbLine
 10
153.8091345294
 20
156.5687562545
 30
0.0
 11
153.8176765036
 21
156.5687562545
 31
0.0
  0
LINE
  5
1F8
330
1F
100
AcDbEntity
  8
0
  6
Continuous
 62
     7
370
    30
100
AcDbLine
 10
153.9698998979
 20
155.272751974
 30
0.0
 11
153.9698998979
 21
155.2673561238
 31
0.0
  0
LINE
  5
1F9
330
1F
100
AcDbEntity
  8
0
  6
Continuous
 62
     7
370
    30
100
AcDbLine
 10
153.9698998979
 20
160.2501563468
 30
0.0
 11
153.9698998979
 21
160.2447604966
 31
0.0
  0
LINE
  5
1FA
330
1F
100
AcDbEntity
  8
0
  6
Continuous
 62
     7
370
    30
100
AcDbLine
 10
153.6679113353
 20
159.0910299421
 30
0.0
 11
153.6663022427
 21
159.0850354844
 31
0.0
  0
LINE
  5
1FB
330
1F
100
AcDbEntity
  8
0
  6
Continuous
 62
     7
370
    30
100
AcDbLine
 10
153.804019473
 20
158.9587562923
 30
0.0
 11
153.7957336124
 21
158.9587562923
 31
0.0
  0
ARC
  5
1FC
330
1F
100
AcDbEntity
  8
0
  6
Continuous
 62
     7
370
    30
100
AcDbCircle
 10
152.454899887
 20
157.7587562353
 30
0.0
 40
4.650000000000036
100
AcDbArc
 50
96.7928220559
 51
263.2071779441
  0
LINE
  5
1FD
330
1F
100
AcDbEntity
  8
0
  6
Continuous
 62
     7
370
    30
100
AcDbLine
 10
151.90489989
 20
153.1413976774
 30
0.0
 11
151.90489989
 21
152.286325276
 31
0.0
  0
ARC
  5
1FE
330
1F
100
AcDbEntity
  8
0
  6
Continuous
 62
     7
370
    30
100
AcDbCircle
 10
152.454899887
 20
157.7587562353
 30
0.0
 40
5.500000000000012
100
AcDbArc
 50
95.7391704773
 51
264.2608295227
  0
LINE
  5
1FF
330
1F
100
AcDbEntity
  8
0
  6
Continuous
 62
     7
370
    30
100
AcDbLine
 10
151.90489989
 20
163.2311871947
 30
0.0
 11
151.90489989
 21
162.3761147932
 31
0.0
  0
LINE
  5
200
330
1F
100
AcDbEntity
  8
0
  6
Continuous
 62
     7
370
    30
100
AcDbLine
 10
152.9048998793
 20
153.1305817627
 30
0.0
 11
152.9048998793
 21
152.3841122837
 31
0.0
  0
ARC
  5
201
330
1F
100
AcDbEntity
  8
0
  6
Continuous
 62
     7
370
    30
100
AcDbCircle
 10
152.454899887
 20
157.7587562353
 30
0.0
 40
4.650000000000039
100
AcDbArc
 50
275.5534441957
 51
276.7928220559
  0
LINE
  5
202
330
1F
100
AcDbEntity
  8
0
  6
Continuous
 62
     7
370
    30
100
AcDbLine
 10
153.0048998841
 20
153.1413976774
 30
0.0
 11
153.0048998841
 21
152.286325276
 31
0.0
  0
SPLINE
  5
203
330
1F
100
AcDbEntity
  8
0
  6
Continuous
 62
     7
370
    30
100
AcDbSpline
210
0.0
220
0.0
230
1.0
 70
     8
 71
     3
 72
     8
 73
     4
 74
     0
 42
0.000000001
 43
0.00000001
 40
0.0000002005751174
 40
0.0000002005751174
 40
0.0000002005751174
 40
0.0000002005751174
 40
0.0018554801540311
 40
0.0018554801540311
 40
0.0018554801540311
 40
0.0018554801540311
 10
152.9048998870422
 20
152.3841124261513
 30
0.0
 10
152.9382324943611
 20
152.3512628751929
 30
0.0
 10
152.9715658461195
 20
152.3186716969037
 30
0.0
 10
153.0048998870422
 20
152.2863253312256
 30
0.0
  0
LINE
  5
204
330
1F
100
AcDbEntity
  8
0
  6
Continuous
 62
     7
370
    30
100
AcDbLine
 10
152.0048998948
 20
153.1305817627
 30
0.0
 11
152.0048998948
 21
152.3841122837
 31
0.0
  0
SPLINE
  5
205
330
1F
100
AcDbEntity
  8
0
  6
Continuous
 62
     7
370
    30
100
AcDbSpline
210
0.0
220
0.0
230
1.0
 70
     8
 71
     3
 72
     8
 73
     4
 74
     0
 42
0.000000001
 43
0.00000001
 40
0.0000002005664909
 40
0.0000002005664909
 40
0.0000002005664909
 40
0.0000002005664909
 40
0.0018554801454046
 40
0.0018554801454046
 40
0.0018554801454046
 40
0.0018554801454046
 10
151.9048998870422
 20
152.2863253312256
 30
0.0
 10
151.9382339279649
 20
152.3186716969037
 30
0.0
 10
151.9715672797234
 20
152.3512628751929
 30
0.0
 10
152.0048998870422
 20
152.3841124261513
 30
0.0
  0
ARC
  5
206
330
1F
100
AcDbEntity
  8
0
  6
Continuous
 62
     7
370
    30
100
AcDbCircle
 10
152.454899887
 20
157.7587562353
 30
0.0
 40
4.650000000000036
100
AcDbArc
 50
263.2071779441
 51
264.4465558043
  0
ARC
  5
207
330
1F
100
AcDbEntity
  8
0
  6
Continuous
 62
     7
370
    30
100
AcDbCircle
 10
152.454899887
 20
157.7587562353
 30
0.0
 40
4.650000000000039
100
AcDbArc
 50
276.7928220559
 51
83.2071779441
  0
LINE
  5
208
330
1F
100
AcDbEntity
  8
0
  6
Continuous
 62
     7
370
    30
100
AcDbLine
 10
153.0048998841
 20
163.2311871947
 30
0.0
 11
153.0048998841
 21
162.3761147932
 31
0.0
  0
ARC
  5
209
330
1F
100
AcDbEntity
  8
0
  6
Continuous
 62
     7
370
    30
100
AcDbCircle
 10
152.454899887
 20
157.7587562353
 30
0.0
 40
5.500000000000014
100
AcDbArc
 50
275.7391704773
 51
84.2608295227
  0
LINE
  5
20A
330
1F
100
AcDbEntity
  8
0
  6
Continuous
 62
     7
370
    30
100
AcDbLine
 10
152.0048998948
 20
163.133400187
 30
0.0
 11
152.0048998948
 21
162.392143786
 31
0.0
  0
SPLINE
  5
20B
330
1F
100
AcDbEntity
  8
0
  6
Continuous
 62
     7
370
    30
100
AcDbSpline
210
0.0
220
0.0
230
1.0
 70
     8
 71
     3
 72
     8
 73
     4
 74
     0
 42
0.000000001
 43
0.00000001
 40
0.0000002005751174
 40
0.0000002005751174
 40
0.0000002005751174
 40
0.0000002005751174
 40
0.0018554801540311
 40
0.0018554801540311
 40
0.0018554801540311
 40
0.0018554801540311
 10
152.0048998870422
 20
163.1334000444726
 30
0.0
 10
151.9715672797234
 20
163.166249595431
 30
0.0
 10
151.9382339279649
 20
163.1988407737202
 30
0.0
 10
151.9048998870422
 20
163.2311871393983
 30
0.0
  0
ARC
  5
20C
330
1F
100
AcDbEntity
  8
0
  6
Continuous
 62
     7
370
    30
100
AcDbCircle
 10
152.454899887
 20
157.7587562353
 30
0.0
 40
4.64999999999998
100
AcDbArc
 50
95.6004243141
 51
96.7928220559
  0
LINE
  5
20D
330
1F
100
AcDbEntity
  8
0
  6
Continuous
 62
     7
370
    30
100
AcDbLine
 10
152.9048998793
 20
163.133400187
 30
0.0
 11
152.9048998793
 21
162.392143786
 31
0.0
  0
ARC
  5
20E
330
1F
100
AcDbEntity
  8
0
  6
Continuous
 62
     7
370
    30
100
AcDbCircle
 10
152.454899887
 20
157.7587562353
 30
0.0
 40
4.649999999999983
100
AcDbArc
 50
83.2071779441
 51
84.3995756859
  0
SPLINE
  5
20F
330
1F
100
AcDbEntity
  8
0
  6
Continuous
 62
     7
370
    30
100
AcDbSpline
210
0.0
220
0.0
230
1.0
 70
     8
 71
     3
 72
     8
 73
     4
 74
     0
 42
0.000000001
 43
0.00000001
 40
0.0000002005664909
 40
0.0000002005664909
 40
0.0000002005664909
 40
0.0000002005664909
 40
0.0018554801454046
 40
0.0018554801454046
 40
0.0018554801454046
 40
0.0018554801454046
 10
153.0048998870422
 20
163.2311871393983
 30
0.0
 10
152.9715658461195
 20
163.1988407737202
 30
0.0
 10
152.9382324943611
 20
163.166249595431
 30
0.0
 10
152.9048998870422
 20
163.1334000444726
 30
0.0
  0
ARC
  5
210
330
1F
100
AcDbEntity
  8
0
  6
Continuous
 62
     7
370
    30
100
AcDbCircle
 10
152.454899887
 20
157.7587562353
 30
0.0
 40
5.393449367088598
100
AcDbArc
 50
85.2139888211
 51
94.7860111789
  0
ARC
  5
211
330
1F
100
AcDbEntity
  8
0
  6
Continuous
 62
     7
370
    30
100
AcDbCircle
 10
152.454899887
 20
157.7587562353
 30
0.0
 40
5.393449367088627
100
AcDbArc
 50
265.2139888211
 51
274.7860111789
  0
LINE
  5
212
330
1F
100
AcDbEntity
  8
0
  6
Continuous
 62
     7
370
    30
100
AcDbLine
 10
159.1548996814
 20
156.5087562633
 30
0.0
 11
159.1548996814
 21
159.0087562074
 31
0.0
  0
LINE
  5
213
330
1F
100
AcDbEntity
  8
0
  6
Continuous
 62
     7
370
    30
100
AcDbLine
 10
160.0549000152
 20
156.5087562633
 30
0.0
 11
159.1548996814
 21
156.5087562633
 31
0.0
  0
LINE
  5
214
330
1F
100
AcDbEntity
  8
0
  6
Continuous
 62
     7
370
    30
100
AcDbLine
 10
160.0549000152
 20
159.0087562074
 30
0.0
 11
160.0549000152
 21
158.7587562828
 31
0.0
  0
LINE
  5
215
330
1F
100
AcDbEntity
  8
0
  6
Continuous
 62
     7
370
    30
100
AcDbLine
 10
160.0549000152
 20
156.7587561878
 30
0.0
 11
160.0549000152
 21
156.5087562633
 31
0.0
  0
LINE
  5
216
330
1F
100
AcDbEntity
  8
0
  6
Continuous
 62
     7
370
    30
100
AcDbLine
 10
159.1548996814
 20
159.0087562074
 30
0.0
 11
160.0549000152
 21
159.0087562074
 31
0.0
  0
LINE
  5
217
330
1F
100
AcDbEntity
  8
0
  6
Continuous
 62
     7
370
    30
100
AcDbLine
 10
144.8548997589
 20
159.0087562074
 30
0.0
 11
144.8548997589
 21
158.7587562828
 31
0.0
  0
LINE
  5
218
330
1F
100
AcDbEntity
  8
0
  6
Continuous
 62
     7
370
    30
100
AcDbLine
 10
144.8548997589
 20
156.7587561878
 30
0.0
 11
144.8548997589
 21
156.5087562633
 31
0.0
  0
LINE
  5
219
330
1F
100
AcDbEntity
  8
0
  6
Continuous
 62
     7
370
    30
100
AcDbLine
 10
144.8548997589
 20
156.5087562633
 30
0.0
 11
145.7549000927
 21
156.5087562633
 31
0.0
  0
LINE
  5
21A
330
1F
100
AcDbEntity
  8
0
  6
Continuous
 62
     7
370
    30
100
AcDbLine
 10
145.7549000927
 20
156.5087562633
 30
0.0
 11
145.7549000927
 21
159.0087562074
 31
0.0
  0
LINE
  5
21B
330
1F
100
AcDbEntity
  8
0
  6
Continuous
 62
     7
370
    30
100
AcDbLine
 10
145.7549000927
 20
159.0087562074
 30
0.0
 11
144.8548997589
 21
159.0087562074
 31
0.0
  0
LINE
  5
21C
330
1F
100
AcDbEntity
  8
0
  6
Continuous
 62
     7
370
    30
100
AcDbLine
 10
144.8537486442
 20
160.0087561385
 30
0.0
 11
146.1439964198
 21
160.0087561385
 31
0.0
  0
ARC
  5
21D
330
1F
100
AcDbEntity
  8
0
  6
Continuous
 62
     7
370
    30
100
AcDbCircle
 10
152.454899887
 20
157.7587562353
 30
0.0
 40
6.700000000000029
100
AcDbArc
 50
19.6224639014
 51
160.3775360986
  0
LINE
  5
21E
330
1F
100
AcDbEntity
  8
0
  6
Continuous
 62
     7
370
    30
100
AcDbLine
 10
160.0560511299
 20
160.0087561385
 30
0.0
 11
158.7658033543
 21
160.0087561385
 31
0.0
  0
LINE
  5
21F
330
1F
100
AcDbEntity
  8
0
  6
Continuous
 62
     7
370
    30
100
AcDbLine
 10
160.0560511299
 20
160.0087561385
 30
0.0
 11
160.0560511299
 21
158.7587562828
 31
0.0
  0
LINE
  5
220
330
1F
100
AcDbEntity
  8
0
  6
Continuous
 62
     7
370
    30
100
AcDbLine
 10
160.0560511299
 20
156.7587561878
 30
0.0
 11
160.0560511299
 21
155.5087563322
 31
0.0
  0
LINE
  5
221
330
1F
100
AcDbEntity
  8
0
  6
Continuous
 62
     7
370
    30
100
AcDbLine
 10
158.7658033543
 20
155.5087563322
 30
0.0
 11
160.0560511299
 21
155.5087563322
 31
0.0
  0
ARC
  5
222
330
1F
100
AcDbEntity
  8
0
  6
Continuous
 62
     7
370
    30
100
AcDbCircle
 10
152.454899887
 20
157.7587562353
 30
0.0
 40
6.700000000000039
100
AcDbArc
 50
199.6224639015
 51
340.3775360986
  0
LINE
  5
223
330
1F
100
AcDbEntity
  8
0
  6
Continuous
 62
     7
370
    30
100
AcDbLine
 10
146.1439964198
 20
155.5087563322
 30
0.0
 11
144.8537486442
 21
155.5087563322
 31
0.0
  0
LINE
  5
224
330
1F
100
AcDbEntity
  8
0
  6
Continuous
 62
     7
370
    30
100
AcDbLine
 10
144.8537486442
 20
160.0087561385
 30
0.0
 11
144.8537486442
 21
158.7587562828
 31
0.0
  0
LINE
  5
225
330
1F
100
AcDbEntity
  8
0
  6
Continuous
 62
     7
370
    30
100
AcDbLine
 10
144.8537486442
 20
156.7587561878
 30
0.0
 11
144.8537486442
 21
155.5087563322
 31
0.0
  0
ARC
  5
226
330
1F
100
AcDbEntity
  8
0
  6
Continuous
 62
     7
370
    30
100
AcDbCircle
 10
152.454899887
 20
157.7587562353
 30
0.0
 40
8.300000000000008
100
AcDbArc
 50
347.0348135769
 51
12.9651864231
  0
ARC
  5
227
330
1F
100
AcDbEntity
  8
0
  6
Continuous
 62
     7
370
    30
100
AcDbCircle
 10
160.0560511156
 20
156.0087562353
 30
0.0
 40
0.5
100
AcDbArc
 50
270.0
 51
347.0348135769
  0
ARC
  5
228
330
1F
100
AcDbEntity
  8
0
  6
Continuous
 62
     7
370
    30
100
AcDbCircle
 10
160.0560511156
 20
159.5087562353
 30
0.0
 40
0.5
100
AcDbArc
 50
12.9651864231
 51
90.0
  0
ARC
  5
229
330
1F
100
AcDbEntity
  8
0
  6
Continuous
 62
     7
370
    30
100
AcDbCircle
 10
152.454899887
 20
157.7587562353
 30
0.0
 40
8.300000000000008
100
AcDbArc
 50
167.0348135769
 51
192.9651864231
  0
ARC
  5
22A
330
1F
100
AcDbEntity
  8
0
  6
Continuous
 62
     7
370
    30
100
AcDbCircle
 10
144.8537486584
 20
159.5087562353
 30
0.0
 40
0.5000000000000088
100
AcDbArc
 50
90.0
 51
167.0348135769
  0
ARC
  5
22B
330
1F
100
AcDbEntity
  8
0
  6
Continuous
 62
     7
370
    30
100
AcDbCircle
 10
144.8537486584
 20
156.0087562353
 30
0.0
 40
0.5000000000000152
100
AcDbArc
 50
192.9651864231
 51
270.0
  0
ARC
  5
22C
330
1F
100
AcDbEntity
  8
0
  6
Continuous
 62
     7
370
    30
100
AcDbCircle
 10
159.5963283156
 20
155.3087562353
 30
0.0
 40
0.1999999999999886
100
AcDbArc
 50
90.0
 51
161.0645140251
  0
ARC
  5
22D
330
1F
100
AcDbEntity
  8
0
  6
Continuous
 62
     7
370
    30
100
AcDbCircle
 10
152.454899887
 20
157.7587562353
 30
0.0
 40
7.350000000000034
100
AcDbArc
 50
198.9354859749
 51
341.0645140251
  0
ARC
  5
22E
330
1F
100
AcDbEntity
  8
0
  6
Continuous
 62
     7
370
    30
100
AcDbCircle
 10
145.3134714585
 20
155.3087562353
 30
0.0
 40
0.1999999999999886
100
AcDbArc
 50
18.9354859749
 51
90.0
  0
ARC
  5
22F
330
1F
100
AcDbEntity
  8
0
  6
Continuous
 62
     7
370
    30
100
AcDbCircle
 10
145.3134714585
 20
160.2087562353
 30
0.0
 40
0.1999999999999871
100
AcDbArc
 50
270.0
 51
341.0645140251
  0
ARC
  5
230
330
1F
100
AcDbEntity
  8
0
  6
Continuous
 62
     7
370
    30
100
AcDbCircle
 10
152.454899887
 20
157.7587562353
 30
0.0
 40
7.350000000000016
100
AcDbArc
 50
18.9354859749
 51
161.0645140251
  0
ARC
  5
231
330
1F
100
AcDbEntity
  8
0
  6
Continuous
 62
     7
370
    30
100
AcDbCircle
 10
159.5963283156
 20
160.2087562353
 30
0.0
 40
0.1999999999999602
100
AcDbArc
 50
198.9354859749
 51
270.0
  0
LINE
  5
232
330
1F
100
AcDbEntity
  8
0
  6
Continuous
 62
     7
370
    30
100
AcDbLine
 10
159.7549000592
 20
156.7587561878
 30
0.0
 11
159.7549000592
 21
158.7587562828
 31
0.0
  0
LINE
  5
233
330
1F
100
AcDbEntity
  8
0
  6
Continuous
 62
     7
370
    30
100
AcDbLine
 10
159.7549000592
 20
158.7587562828
 30
0.0
 11
159.1809687973
 21
158.7587562828
 31
0.0
  0
LINE
  5
234
330
1F
100
AcDbEntity
  8
0
  6
Continuous
 62
     7
370
    30
100
AcDbLine
 10
159.1809687973
 20
156.7587561878
 30
0.0
 11
159.7549000592
 21
156.7587561878
 31
0.0
  0
ARC
  5
235
330
1F
100
AcDbEntity
  8
0
  6
Continuous
 62
     7
370
    30
100
AcDbCircle
 10
152.454899887
 20
157.7587562353
 30
0.0
 40
6.800000000000021
100
AcDbArc
 50
351.5434806647
 51
8.4565193353
  0
LINE
  5
236
330
1F
100
AcDbEntity
  8
0
  6
Continuous
 62
     7
370
    30
100
AcDbLine
 10
144.3548996769
 20
158.7587562828
 30
0.0
 11
144.3548996769
 21
156.7587561878
 31
0.0
  0
LINE
  5
237
330
1F
100
AcDbEntity
  8
0
  6
Continuous
 62
     7
370
    30
100
AcDbLine
 10
145.1548997149
 20
156.7587561878
 30
0.0
 11
145.1548997149
 21
158.7587562828
 31
0.0
  0
LINE
  5
238
330
1F
100
AcDbEntity
  8
0
  6
Continuous
 62
     7
370
    30
100
AcDbLine
 10
145.1548997149
 20
158.7587562828
 30
0.0
 11
144.3548996769
 21
158.7587562828
 31
0.0
  0
LINE
  5
239
330
1F
100
AcDbEntity
  8
0
  6
Continuous
 62
     7
370
    30
100
AcDbLine
 10
144.3548996769
 20
156.7587561878
 30
0.0
 11
145.1548997149
 21
156.7587561878
 31
0.0
  0
LINE
  5
23A
330
1F
100
AcDbEntity
  8
0
  6
Continuous
 62
     7
370
    30
100
AcDbLine
 10
145.1548997149
 20
158.7587562828
 30
0.0
 11
145.7288309768
 21
158.7587562828
 31
0.0
  0
LINE
  5
23B
330
1F
100
AcDbEntity
  8
0
  6
Continuous
 62
     7
370
    30
100
AcDbLine
 10
145.7288309768
 20
156.7587561878
 30
0.0
 11
145.1548997149
 21
156.7587561878
 31
0.0
  0
ARC
  5
23C
330
1F
100
AcDbEntity
  8
0
  6
Continuous
 62
     7
370
    30
100
AcDbCircle
 10
152.454899887
 20
157.7587562353
 30
0.0
 40
6.79999999999998
100
AcDbArc
 50
171.5434806647
 51
188.4565193353
  0
LINE
  5
23D
330
1F
100
AcDbEntity
  8
0
  6
Continuous
 62
     7
370
    30
100
AcDbLine
 10
160.5549000971
 20
158.7587562828
 30
0.0
 11
160.5549000971
 21
156.7587561878
 31
0.0
  0
LINE
  5
23E
330
1F
100
AcDbEntity
  8
0
  6
Continuous
 62
     7
370
    30
100
AcDbLine
 10
159.7549000592
 20
158.7587562828
 30
0.0
 11
160.5549000971
 21
158.7587562828
 31
0.0
  0
LINE
  5
23F
330
1F
100
AcDbEntity
  8
0
  6
Continuous
 62
     7
370
    30
100
AcDbLine
 10
160.5549000971
 20
156.7587561878
 30
0.0
 11
159.7549000592
 21
156.7587561878
 31
0.0
  0
LINE
  5
240
330
1F
100
AcDbEntity
  8
0
  6
Continuous
 62
     7
370
    30
100
AcDbLine
 10
145.0723188766
 20
156.7587561878
 30
0.0
 11
145.110514278
 21
156.5087562633
 31
0.0
  0
ARC
  5
241
330
1F
100
AcDbEntity
  8
0
  6
Continuous
 62
     7
370
    30
100
AcDbCircle
 10
152.454899887
 20
157.7587562353
 30
0.0
 40
7.450000000000003
100
AcDbArc
 50
197.6122378128
 51
342.3877621872
  0
LINE
  5
242
330
1F
100
AcDbEntity
  8
0
  6
Continuous
 62
     7
370
    30
100
AcDbLine
 10
159.7992854961
 20
156.5087562633
 30
0.0
 11
159.8374808975
 21
156.7587561878
 31
0.0
  0
LINE
  5
243
330
1F
100
AcDbEntity
  8
0
  6
Continuous
 62
     7
370
    30
100
AcDbLine
 10
145.7288309768
 20
156.7587561878
 30
0.0
 11
145.7549000927
 21
156.5968612415
 31
0.0
  0
LINE
  5
244
330
1F
100
AcDbEntity
  8
0
  6
Continuous
 62
     7
370
    30
100
AcDbLine
 10
159.1548996814
 20
156.5968612415
 30
0.0
 11
159.1809687973
 21
156.7587561878
 31
0.0
  0
LINE
  5
245
330
1F
100
AcDbEntity
  8
0
  6
Continuous
 62
     7
370
    30
100
AcDbLine
 10
159.8374808975
 20
158.7587562828
 30
0.0
 11
159.7992854961
 21
159.0087562074
 31
0.0
  0
ARC
  5
246
330
1F
100
AcDbEntity
  8
0
  6
Continuous
 62
     7
370
    30
100
AcDbCircle
 10
152.454899887
 20
157.7587562353
 30
0.0
 40
7.449999999999975
100
AcDbArc
 50
17.6122378128
 51
162.3877621872
  0
LINE
  5
247
330
1F
100
AcDbEntity
  8
0
  6
Continuous
 62
     7
370
    30
100
AcDbLine
 10
145.110514278
 20
159.0087562074
 30
0.0
 11
145.0723188766
 21
158.7587562828
 31
0.0
  0
LINE
  5
248
330
1F
100
AcDbEntity
  8
0
  6
Continuous
 62
     7
370
    30
100
AcDbLine
 10
159.1809687973
 20
158.7587562828
 30
0.0
 11
159.1548996814
 21
158.9206512292
 31
0.0
  0
LINE
  5
249
330
1F
100
AcDbEntity
  8
0
  6
Continuous
 62
     7
370
    30
100
AcDbLine
 10
145.7549000927
 20
158.9206512292
 30
0.0
 11
145.7288309768
 21
158.7587562828
 31
0.0
  0
SPLINE
  5
24A
330
1F
100
AcDbEntity
  8
0
  6
Continuous
 62
     7
370
    30
100
AcDbSpline
210
0.0
220
0.0
230
1.0
 70
     8
 71
     3
 72
     8
 73
     4
 74
     0
 42
0.000000001
 43
0.00000001
 40
0.0
 40
0.0
 40
0.0
 40
0.0
 40
1.0
 40
1.0
 40
1.0
 40
1.0
 10
149.0313251948236
 20
154.6120696721474
 30
0.0
 10
149.1171259183163
 20
154.6941722934552
 30
0.0
 10
149.1722914043091
 20
154.7468387646687
 30
0.0
 10
149.1723027915016
 20
154.746849641267
 30
0.0
  0
SPLINE
  5
24B
330
1F
100
AcDbEntity
  8
0
  6
Continuous
 62
     7
370
    30
100
AcDbSpline
210
0.0
220
0.0
230
1.0
 70
     8
 71
     3
 72
     8
 73
     4
 74
     0
 42
0.000000001
 43
0.00000001
 40
0.0
 40
0.0
 40
0.0
 40
0.0
 40
1.0
 40
1.0
 40
1.0
 40
1.0
 10
155.8784745792608
 20
160.9054427984765
 30
0.0
 10
155.7924864303299
 20
160.8231608299656
 30
0.0
 10
155.7374855939691
 20
160.770651951401
 30
0.0
 10
155.7374969825752
 20
160.7706628293496
 30
0.0
  0
SPLINE
  5
24C
330
1F
100
AcDbEntity
  8
0
  6
Continuous
 62
     7
370
    30
100
AcDbSpline
210
0.0
220
0.0
230
1.0
 70
     8
 71
     3
 72
    10
 73
     6
 74
     0
 42
0.000000001
 43
0.00000001
 40
0.0
 40
0.0
 40
0.0
 40
0.0
 40
0.3213654554984254
 40
0.6436725559608834
 40
1.0
 40
1.0
 40
1.0
 40
1.0
 10
148.2051487848629
 20
156.4218780697093
 30
0.0
 10
148.2009326881598
 20
156.4206442223894
 30
0.0
 10
148.1924881410106
 20
156.4181729124073
 30
0.0
 10
148.1272557765945
 20
156.3990864868683
 30
0.0
 10
148.0556169192307
 20
156.3781761525049
 30
0.0
 10
148.0180018418004
 20
156.3671968617246
 30
0.0
  0
SPLINE
  5
24D
330
1F
100
AcDbEntity
  8
0
  6
Continuous
 62
     7
370
    30
100
AcDbSpline
210
0.0
220
0.0
230
1.0
 70
     8
 71
     3
 72
    12
 73
     8
 74
     0
 42
0.000000001
 43
0.00000001
 40
0.0
 40
0.0
 40
0.0
 40
0.0
 40
0.0009878985647168
 40
0.202018903482584
 40
0.5235450565873097
 40
0.8452792769871066
 40
1.0
 40
1.0
 40
1.0
 40
1.0
 10
156.7046509892215
 20
159.0956344009147
 30
0.0
 10
156.7046293326818
 20
159.0956280519753
 30
0.0
 10
156.7002007095796
 20
159.0943297347138
 30
0.0
 10
156.7150258122363
 20
159.0986726077514
 30
0.0
 10
156.7523160662382
 20
159.1095813691944
 30
0.0
 10
156.8226311242954
 20
159.1301343581494
 30
0.0
 10
156.8748430033954
 20
159.1453685586985
 30
0.0
 10
156.891797932284
 20
159.1503156088993
 30
0.0
  0
LINE
  5
24E
330
1F
100
AcDbEntity
  8
0
  6
CENTERX2
 62
     7
370
     0
100
AcDbLine
 10
152.454899887
 20
167.8284896078
 30
0.0
 11
152.454899887
 21
147.6298380673
 31
0.0
  0
LINE
  5
24F
330
1F
100
AcDbEntity
  8
0
  6
CENTERX2
 62
     7
370
     0
100
AcDbLine
 10
142.5166692754
 20
157.7587562353
 30
0.0
 11
162.4863688463
 21
157.7587562353
 31
0.0
  0
LINE
  5
250
330
1F
100
AcDbEntity
  8
0
  6
CENTERX2
 62
     7
370
     0
100
AcDbLine
 10
152.454899887
 20
157.7587562353
 30
0.0
 11
150.6588486628
 21
155.9627050111
 31
0.0
  0
LINE
  5
251
330
1F
100
AcDbEntity
  8
0
  6
CENTERX2
 62
     7
370
     0
100
AcDbLine
 10
154.2509511113
 20
155.9627050111
 30
0.0
 11
152.454899887
 21
157.7587562353
 31
0.0
  0
CIRCLE
  5
252
330
1F
100
AcDbEntity
  8
0
  6
CENTERX2
 62
     7
370
     0
100
AcDbCircle
 10
152.454899887
 20
157.7587562353
 30
0.0
 40
2.539999999999983
  0
DIMENSION
  5
253
330
1F
100
AcDbEntity
  8
0
  6
Continuous
 62
     7
370
     0
100
AcDbDimension
  2
_D_11
 10
154.3797535772
 20
156.1014879193
 30
0.0
 11
124.2101086402
 21
169.7491371989
 31
0.0
 70
   163
  1
P.D.C.<>
 71
     1
 42
-1.0
  3
SLDDIMSTYLE8
100
AcDbDiametricDimension
 15
150.5300461969
 25
159.4160245514
 35
0.0
 40
0.0
  0
DIMENSION
  5
260
330
1F
100
AcDbEntity
  8
0
  6
Continuous
 62
     7
370
     0
100
AcDbDimension
  2
_D_12
 10
152.454899887
 20
167.8284896078
 30
0.0
 11
139.8372585134
 21
136.8768590421
 31
0.0
 70
   162
  1
<>
 71
     1
 42
-1.0
  3
SLDDIMSTYLE9
100
AcDb2LineAngularDimension
 13
150.6588486628
 23
155.9627050111
 33
0.0
 14
152.454899887
 24
157.7587562353
 34
0.0
 15
152.454899887
 25
147.6298380673
 35
0.0
 16
143.1182200883
 26
135.2180172377
 36
0.0
  0
DIMENSION
  5
26B
330
1F
100
AcDbEntity
  8
0
  6
Continuous
 62
     7
370
     0
100
AcDbDimension
  2
_D_13
 10
152.454899887
 20
157.7587562353
 30
0.0
 11
157.9199812133
 21
133.8738957866
 31
0.0
 70
   162
  1
<>
 71
     1
 42
-1.0
  3
SLDDIMSTYLE9
100
AcDb2LineAngularDimension
 13
152.454899887
 23
167.8284896078
 33
0.0
 14
152.454899887
 24
147.6298380673
 34
0.0
 15
154.2509511113
 25
155.9627050111
 35
0.0
 16
161.8314536138
 26
135.1217530599
 36
0.0
  0
MTEXT
  5
275
330
1F
100
AcDbEntity
  8
0
  6
Continuous
 62
     7
370
     0
100
AcDbMText
 10
163.4655647221
 20
153.3316127327
 30
0.0
 40
3.5
 41
0.0
 71
     1
 72
     1
  1
OUT
  7
SLDTEXTSTYLE0
 73
     1
 44
1.0
  0
LEADER
  5
277
330
1F
100
AcDbEntity
  8
0
  6
Continuous
 62
     7
370
     0
100
AcDbLeader
  3
SLDDIMSTYLE10
 76
     3
 10
154.4747889673
 20
155.9855438861
 30
0.0
 10
162.9207870838
 20
148.7386478305
 30
0.0
 10
171.2916246216
 20
148.7386478305
 30
0.0
  0
MTEXT
  5
278
330
1F
100
AcDbEntity
  8
0
  6
Continuous
 62
     7
370
     0
100
AcDbMText
 10
133.1424025615
 20
153.3316127327
 30
0.0
 40
3.5
 41
0.0
 71
     1
 72
     1
  1
GND
  7
SLDTEXTSTYLE0
 73
     1
 44
1.0
  0
LEADER
  5
279
330
1F
100
AcDbEntity
  8
0
  6
Continuous
 62
     7
370
     0
100
AcDbLeader
  3
SLDDIMSTYLE10
 76
     3
 10
150.5791033708
 20
155.7523108847
 30
0.0
 10
141.6200807265
 20
148.7386478305
 30
0.0
 10
133.0474268416
 20
148.7386478305
 30
0.0
  0
MTEXT
  5
27A
330
1F
100
AcDbEntity
  8
0
  6
Continuous
 62
     7
370
     0
100
AcDbMText
 10
163.4825790542
 20
169.9291769251
 30
0.0
 40
3.5
 41
0.0
 71
     1
 72
     1
  1
VDD
  7
SLDTEXTSTYLE0
 73
     1
 44
1.0
  0
LEADER
  5
27B
330
1F
100
AcDbEntity
  8
0
  6
Continuous
 62
     7
370
     0
100
AcDbLeader
  3
SLDDIMSTYLE10
 76
     3
 10
154.4426359924
 20
159.6726289616
 30
0.0
 10
162.9207870838
 20
165.3884964682
 30
0.0
 10
171.2916246216
 20
165.3884964682
 30
0.0
  0
MTEXT
  5
27C
330
1F
100
AcDbEntity
  8
0
  6
Continuous
 62
     7
370
     0
100
AcDbMText
 10
160.3651906849
 20
138.500513026
 30
0.0
 40
2.6458333333
 41
0.0
 71
     1
 72
     1
  1
±4°
  7
SLDTEXTSTYLE0
 11
0.9063077870366496
 21
0.4226182617407003
 31
0.0
 73
     1
 44
1.0
  0
MTEXT
  5
27D
330
1F
100
AcDbEntity
  8
0
  6
Continuous
 62
     7
370
     0
100
AcDbMText
 10
144.369069445
 20
138.5917246854
 30
0.0
 40
2.6458333333
 41
0.0
 71
     1
 72
     1
  1
±4°
  7
SLDTEXTSTYLE0
 11
0.9659258262890682
 21
-0.2588190451025213
 31
0.0
 73
     1
 44
1.0
  0
MTEXT
  5
27E
330
1F
100
AcDbEntity
  8
0
  6
Continuous
 62
     7
370
     0
100
AcDbMText
 10
117.0854206538
 20
167.0342741338
 30
0.0
 40
2.38125
 41
0.0
 71
     1
 72
     1
  1
(0.2 dia)
  7
SLDTEXTSTYLE0
 73
     1
 44
1.0
  0
LINE
  5
27F
330
1F
100
AcDbEntity
  8
0
  6
Continuous
 62
     7
370
    30
100
AcDbLine
 10
51.2162792338
 20
241.0732436449
 30
0.0
 11
51.2162792338
 21
245.6732432813
 31
0.0
  0
LINE
  5
280
330
1F
100
AcDbEntity
  8
0
  6
Continuous
 62
     7
370
    30
100
AcDbLine
 10
50.7662791834
 20
245.6732432813
 30
0.0
 11
50.7662791834
 21
241.0732436449
 31
0.0
  0
LINE
  5
281
330
1F
100
AcDbEntity
  8
0
  6
Continuous
 62
     7
370
    30
100
AcDbLine
 10
47.6241767947
 20
241.0732436449
 30
0.0
 11
47.6241767947
 21
245.6732432813
 31
0.0
  0
LINE
  5
282
330
1F
100
AcDbEntity
  8
0
  6
Continuous
 62
     7
370
    30
100
AcDbLine
 10
47.1741767442
 20
245.6732432813
 30
0.0
 11
47.1741767442
 21
241.0732436449
 31
0.0
  0
LINE
  5
283
330
1F
100
AcDbEntity
  8
0
  6
Continuous
 62
     7
370
    30
100
AcDbLine
 10
54.6952279592
 20
245.6732432813
 30
0.0
 11
54.2402279871
 21
253.5732433655
 31
0.0
  0
LINE
  5
284
330
1F
100
AcDbEntity
  8
0
  6
Continuous
 62
     7
370
    30
100
AcDbLine
 10
44.150227991
 20
253.5732433655
 30
0.0
 11
43.6952280188
 21
245.6732432813
 31
0.0
  0
LINE
  5
285
330
1F
100
AcDbEntity
  8
0
  6
Continuous
 62
     7
370
    30
100
AcDbLine
 10
57.4952278594
 20
253.6343846925
 30
0.0
 11
57.4952278594
 21
255.573243344
 31
0.0
  0
LINE
  5
286
330
1F
100
AcDbEntity
  8
0
  6
Continuous
 62
     7
370
    30
100
AcDbLine
 10
40.8952281187
 20
255.573243344
 30
0.0
 11
40.8952281187
 21
253.6343846925
 31
0.0
  0
LINE
  5
287
330
1F
100
AcDbEntity
  8
0
  6
Continuous
 62
     7
370
    30
100
AcDbLine
 10
56.6452279063
 20
255.573243344
 30
0.0
 11
56.6452279063
 21
258.5732432537
 31
0.0
  0
LINE
  5
288
330
1F
100
AcDbEntity
  8
0
  6
Continuous
 62
     7
370
    30
100
AcDbLine
 10
41.7452280717
 20
258.5732432537
 30
0.0
 11
41.7452280717
 21
255.573243344
 31
0.0
  0
ARC
  5
289
330
1F
100
AcDbEntity
  8
0
  6
Continuous
 62
     7
370
    30
100
AcDbCircle
 10
49.195227989
 20
254.9732433155
 30
0.0
 40
7.899999999999999
100
AcDbArc
 50
27.109738075
 51
152.890261925
  0
LINE
  5
28A
330
1F
100
AcDbEntity
  8
0
  6
Continuous
 62
     7
370
    30
100
AcDbLine
 10
49.5952279789
 20
247.2732433573
 30
0.0
 11
49.3452279962
 21
247.2732433573
 31
0.0
  0
LINE
  5
28B
330
1F
100
AcDbEntity
  8
0
  6
Continuous
 62
     7
370
    30
100
AcDbLine
 10
49.3452279962
 20
247.5232433982
 30
0.0
 11
49.3452279962
 21
247.2732433573
 31
0.0
  0
LINE
  5
28C
330
1F
100
AcDbEntity
  8
0
  6
Continuous
 62
     7
370
    30
100
AcDbLine
 10
49.5952279789
 20
247.5232433982
 30
0.0
 11
49.5952279789
 21
247.2732433573
 31
0.0
  0
LINE
  5
28D
330
1F
100
AcDbEntity
  8
0
  6
Continuous
 62
     7
370
    30
100
AcDbLine
 10
49.3452279962
 20
247.2732433573
 30
0.0
 11
49.0452279819
 21
247.2732433573
 31
0.0
  0
LINE
  5
28E
330
1F
100
AcDbEntity
  8
0
  6
Continuous
 62
     7
370
    30
100
AcDbLine
 10
49.0452279819
 20
247.5232433982
 30
0.0
 11
49.0452279819
 21
247.2732433573
 31
0.0
  0
LINE
  5
28F
330
1F
100
AcDbEntity
  8
0
  6
Continuous
 62
     7
370
    30
100
AcDbLine
 10
48.7952279991
 20
247.5232433982
 30
0.0
 11
48.7952279991
 21
247.2732433573
 31
0.0
  0
LINE
  5
290
330
1F
100
AcDbEntity
  8
0
  6
Continuous
 62
     7
370
    30
100
AcDbLine
 10
49.0452279819
 20
247.2732433573
 30
0.0
 11
48.7952279991
 21
247.2732433573
 31
0.0
  0
LINE
  5
291
330
1F
100
AcDbEntity
  8
0
  6
Continuous
 62
     7
370
    30
100
AcDbLine
 10
51.15037815
 20
241.0732436449
 30
0.0
 11
51.2162792338
 21
241.0732436449
 31
0.0
  0
LINE
  5
292
330
1F
100
AcDbEntity
  8
0
  6
Continuous
 62
     7
370
    30
100
AcDbLine
 10
50.7662791834
 20
241.0732436449
 30
0.0
 11
51.15037815
 21
241.0732436449
 31
0.0
  0
LINE
  5
293
330
1F
100
AcDbEntity
  8
0
  6
Continuous
 62
     7
370
    30
100
AcDbLine
 10
49.2952279865
 20
246.5732436151
 30
0.0
 11
49.2952279865
 21
247.2732433573
 31
0.0
  0
LINE
  5
294
330
1F
100
AcDbEntity
  8
0
  6
Continuous
 62
     7
370
    30
100
AcDbLine
 10
49.0952279916
 20
247.2732433573
 30
0.0
 11
49.0952279916
 21
246.5732436151
 31
0.0
  0
LINE
  5
295
330
1F
100
AcDbEntity
  8
0
  6
Continuous
 62
     7
370
    30
100
AcDbLine
 10
49.2952279865
 20
246.5732436151
 30
0.0
 11
49.0952279916
 21
246.5732436151
 31
0.0
  0
LINE
  5
296
330
1F
100
AcDbEntity
  8
0
  6
Continuous
 62
     7
370
    30
100
AcDbLine
 10
48.7952279991
 20
246.5732436151
 30
0.0
 11
48.7952279991
 21
247.2732433573
 31
0.0
  0
LINE
  5
297
330
1F
100
AcDbEntity
  8
0
  6
Continuous
 62
     7
370
    30
100
AcDbLine
 10
49.0952279916
 20
246.5732436151
 30
0.0
 11
48.7952279991
 21
246.5732436151
 31
0.0
  0
LINE
  5
298
330
1F
100
AcDbEntity
  8
0
  6
Continuous
 62
     7
370
    30
100
AcDbLine
 10
49.5952279789
 20
247.2732433573
 30
0.0
 11
49.5952279789
 21
246.5732436151
 31
0.0
  0
LINE
  5
299
330
1F
100
AcDbEntity
  8
0
  6
Continuous
 62
     7
370
    30
100
AcDbLine
 10
49.5952279789
 20
246.5732436151
 30
0.0
 11
49.2952279865
 21
246.5732436151
 31
0.0
  0
LINE
  5
29A
330
1F
100
AcDbEntity
  8
0
  6
Continuous
 62
     7
370
    30
100
AcDbLine
 10
49.6925151283
 20
246.5732436151
 30
0.0
 11
49.5952279789
 21
246.5732436151
 31
0.0
  0
LINE
  5
29B
330
1F
100
AcDbEntity
  8
0
  6
Continuous
 62
     7
370
    30
100
AcDbLine
 10
49.5952279789
 20
247.2732433573
 30
0.0
 11
49.6539884962
 21
247.2732433573
 31
0.0
  0
LINE
  5
29C
330
1F
100
AcDbEntity
  8
0
  6
Continuous
 62
     7
370
    30
100
AcDbLine
 10
48.7952279991
 20
246.5732436151
 30
0.0
 11
48.6951372195
 21
246.5732436151
 31
0.0
  0
LINE
  5
29D
330
1F
100
AcDbEntity
  8
0
  6
Continuous
 62
     7
370
    30
100
AcDbLine
 10
48.7329590151
 20
247.2732433573
 30
0.0
 11
48.7952279991
 21
247.2732433573
 31
0.0
  0
LINE
  5
29E
330
1F
100
AcDbEntity
  8
0
  6
Continuous
 62
     7
370
    30
100
AcDbLine
 10
47.5582758272
 20
241.0732436449
 30
0.0
 11
47.6241767947
 21
241.0732436449
 31
0.0
  0
LINE
  5
29F
330
1F
100
AcDbEntity
  8
0
  6
Continuous
 62
     7
370
    30
100
AcDbLine
 10
47.1741767442
 20
241.0732436449
 30
0.0
 11
47.5582758272
 21
241.0732436449
 31
0.0
  0
LINE
  5
2A0
330
1F
100
AcDbEntity
  8
0
  6
Continuous
 62
     7
370
    30
100
AcDbLine
 10
56.1474792967
 20
255.573243344
 30
0.0
 11
56.1474792967
 21
254.5732433256
 31
0.0
  0
LINE
  5
2A1
330
1F
100
AcDbEntity
  8
0
  6
Continuous
 62
     7
370
    30
100
AcDbLine
 10
42.2429766814
 20
254.5732433256
 30
0.0
 11
56.1474792967
 21
254.5732433256
 31
0.0
  0
LINE
  5
2A2
330
1F
100
AcDbEntity
  8
0
  6
Continuous
 62
     7
370
    30
100
AcDbLine
 10
42.2429766814
 20
255.573243344
 30
0.0
 11
42.2429766814
 21
254.5732433256
 31
0.0
  0
LINE
  5
2A3
330
1F
100
AcDbEntity
  8
0
  6
Continuous
 62
     7
370
    30
100
AcDbLine
 10
55.5061314563
 20
253.5732433655
 30
0.0
 11
55.5061314563
 21
254.5732433256
 31
0.0
  0
LINE
  5
2A4
330
1F
100
AcDbEntity
  8
0
  6
Continuous
 62
     7
370
    30
100
AcDbLine
 10
42.8843245218
 20
253.5732433655
 30
0.0
 11
42.8843245218
 21
254.5732433256
 31
0.0
  0
LINE
  5
2A5
330
1F
100
AcDbEntity
  8
0
  6
Continuous
 62
     7
370
    30
100
AcDbLine
 10
42.8843245218
 20
253.5732433655
 30
0.0
 11
55.5061314563
 21
253.5732433655
 31
0.0
  0
LINE
  5
2A6
330
1F
100
AcDbEntity
  8
0
  6
Continuous
 62
     7
370
    30
100
AcDbLine
 10
49.6452279813
 20
247.5232433982
 30
0.0
 11
48.7452279968
 21
247.5232433982
 31
0.0
  0
SPLINE
  5
2A7
330
1F
100
AcDbEntity
  8
0
  6
Continuous
 62
     7
370
    30
100
AcDbSpline
210
0.0
220
0.0
230
1.0
 70
    24
 71
     3
 72
     8
 73
     4
 74
     0
 42
0.000000001
 43
0.00000001
 40
0.0000002005751174
 40
0.0000002005751174
 40
0.0000002005751174
 40
0.0000002005751174
 40
0.0018554801540311
 40
0.0018554801540311
 40
0.0018554801540311
 40
0.0018554801540311
 10
48.74522798903266
 20
247.5232433155431
 30
0.0
 10
48.71189538171377
 20
246.906590080144
 30
0.0
 10
48.67856202995537
 20
246.2899230726135
 30
0.0
 10
48.64522798903266
 20
245.6732433155431
 30
0.0
  0
SPLINE
  5
2A8
330
1F
100
AcDbEntity
  8
0
  6
Continuous
 62
     7
370
    30
100
AcDbSpline
210
0.0
220
0.0
230
1.0
 70
    24
 71
     3
 72
     8
 73
     4
 74
     0
 42
0.000000001
 43
0.00000001
 40
0.0000002005664909
 40
0.0000002005664909
 40
0.0000002005664909
 40
0.0000002005664909
 40
0.0018554801454046
 40
0.0018554801454046
 40
0.0018554801454046
 40
0.0018554801454046
 10
49.74522798903266
 20
245.6732433155431
 30
0.0
 10
49.71189394810994
 20
246.2899230726135
 30
0.0
 10
49.67856059635152
 20
246.906590080144
 30
0.0
 10
49.64522798903266
 20
247.5232433155432
 30
0.0
  0
LINE
  5
2A9
330
1F
100
AcDbEntity
  8
0
  6
Continuous
 62
     7
370
    30
100
AcDbLine
 10
43.6952280188
 20
245.6732432813
 30
0.0
 11
48.645227992
 21
245.6732432813
 31
0.0
  0
LINE
  5
2AA
330
1F
100
AcDbEntity
  8
0
  6
Continuous
 62
     7
370
    30
100
AcDbLine
 10
49.7452279861
 20
245.6732432813
 30
0.0
 11
54.6952279592
 21
245.6732432813
 31
0.0
  0
LINE
  5
2AB
330
1F
100
AcDbEntity
  8
0
  6
Continuous
 62
     7
370
    30
100
AcDbLine
 10
42.0537994551
 20
254.5732433256
 30
0.0
 11
42.0537994551
 21
255.573243344
 31
0.0
  0
LINE
  5
2AC
330
1F
100
AcDbEntity
  8
0
  6
Continuous
 62
     7
370
    30
100
AcDbLine
 10
42.0537994551
 20
255.573243344
 30
0.0
 11
42.094438647
 21
255.573243344
 31
0.0
  0
LINE
  5
2AD
330
1F
100
AcDbEntity
  8
0
  6
Continuous
 62
     7
370
    30
100
AcDbLine
 10
42.2429766814
 20
254.5732433256
 30
0.0
 11
42.0537994551
 21
254.5732433256
 31
0.0
  0
LINE
  5
2AE
330
1F
100
AcDbEntity
  8
0
  6
Continuous
 62
     7
370
    30
100
AcDbLine
 10
56.336656523
 20
254.5732433256
 30
0.0
 11
56.336656523
 21
255.573243344
 31
0.0
  0
LINE
  5
2AF
330
1F
100
AcDbEntity
  8
0
  6
Continuous
 62
     7
370
    30
100
AcDbLine
 10
56.336656523
 20
255.573243344
 30
0.0
 11
56.2960173311
 21
255.573243344
 31
0.0
  0
LINE
  5
2B0
330
1F
100
AcDbEntity
  8
0
  6
Continuous
 62
     7
370
    30
100
AcDbLine
 10
56.1474792967
 20
254.5732433256
 30
0.0
 11
56.336656523
 21
254.5732433256
 31
0.0
  0
LINE
  5
2B1
330
1F
100
AcDbEntity
  8
0
  6
Continuous
 62
     7
370
    30
100
AcDbLine
 10
56.7963792319
 20
255.573243344
 30
0.0
 11
56.7963792319
 21
253.5732433655
 31
0.0
  0
LINE
  5
2B2
330
1F
100
AcDbEntity
  8
0
  6
Continuous
 62
     7
370
    30
100
AcDbLine
 10
56.7963792319
 20
253.5732433655
 30
0.0
 11
55.5061314563
 21
253.5732433655
 31
0.0
  0
LINE
  5
2B3
330
1F
100
AcDbEntity
  8
0
  6
Continuous
 62
     7
370
    30
100
AcDbLine
 10
56.7963792319
 20
255.573243344
 30
0.0
 11
56.336656523
 21
255.573243344
 31
0.0
  0
LINE
  5
2B4
330
1F
100
AcDbEntity
  8
0
  6
Continuous
 62
     7
370
    30
100
AcDbLine
 10
41.5940767462
 20
255.573243344
 30
0.0
 11
41.5940767462
 21
253.5732433655
 31
0.0
  0
LINE
  5
2B5
330
1F
100
AcDbEntity
  8
0
  6
Continuous
 62
     7
370
    30
100
AcDbLine
 10
41.5940767462
 20
253.5732433655
 30
0.0
 11
42.8843245218
 21
253.5732433655
 31
0.0
  0
LINE
  5
2B6
330
1F
100
AcDbEntity
  8
0
  6
Continuous
 62
     7
370
    30
100
AcDbLine
 10
41.5940767462
 20
255.573243344
 30
0.0
 11
42.0537994551
 21
255.573243344
 31
0.0
  0
LINE
  5
2B7
330
1F
100
AcDbEntity
  8
0
  6
Continuous
 62
     7
370
    30
100
AcDbLine
 10
57.2836323018
 20
253.6158724444
 30
0.0
 11
57.2836323018
 21
255.573243344
 31
0.0
  0
LWPOLYLINE
  5
2B8
330
1F
100
AcDbEntity
  8
0
  6
Continuous
 62
     7
370
    30
100
AcDbPolyline
 90
        8
 70
   128
 43
0.0
 10
56.7963792319
 20
253.5732433655
 10
56.8918262916
 20
253.5815938365
 10
56.9837631965
 20
253.5896373203
 10
57.0688078488
 20
253.5970777728
 10
57.1438333327
 20
253.6036416179
 10
57.2060792083
 20
253.6090874102
 10
57.2532581473
 20
253.6132150319
 10
57.2836323018
 20
253.6158724444
  0
LINE
  5
2B9
330
1F
100
AcDbEntity
  8
0
  6
Continuous
 62
     7
370
    30
100
AcDbLine
 10
57.2836323018
 20
255.573243344
 30
0.0
 11
56.7963792319
 21
255.573243344
 31
0.0
  0
LINE
  5
2BA
330
1F
100
AcDbEntity
  8
0
  6
Continuous
 62
     7
370
    30
100
AcDbLine
 10
41.1068236763
 20
253.6158724444
 30
0.0
 11
41.1068236763
 21
255.573243344
 31
0.0
  0
LWPOLYLINE
  5
2BB
330
1F
100
AcDbEntity
  8
0
  6
Continuous
 62
     7
370
    30
100
AcDbPolyline
 90
        8
 70
   128
 43
0.0
 10
41.5940767462
 20
253.5732433655
 10
41.4986296865
 20
253.5815938365
 10
41.4066927815
 20
253.5896373203
 10
41.3216481293
 20
253.5970777728
 10
41.2466226453
 20
253.6036416179
 10
41.1843767697
 20
253.6090874102
 10
41.1371978308
 20
253.6132150319
 10
41.1068236763
 20
253.6158724444
  0
LINE
  5
2BC
330
1F
100
AcDbEntity
  8
0
  6
Continuous
 62
     7
370
    30
100
AcDbLine
 10
41.1068236763
 20
255.573243344
 30
0.0
 11
41.5940767462
 21
255.573243344
 31
0.0
  0
LWPOLYLINE
  5
2BD
330
1F
100
AcDbEntity
  8
0
  6
Continuous
 62
     7
370
    30
100
AcDbPolyline
 90
        5
 70
   128
 43
0.0
 10
57.2836323018
 20
253.6158724444
 10
57.3759831796
 20
253.623952017
 10
57.4421592364
 20
253.6297418166
 10
57.4819499934
 20
253.633222984
 10
57.4952278594
 20
253.6343846925
  0
LINE
  5
2BE
330
1F
100
AcDbEntity
  8
0
  6
Continuous
 62
     7
370
    30
100
AcDbLine
 10
57.4952278594
 20
255.573243344
 30
0.0
 11
57.2836323018
 21
255.573243344
 31
0.0
  0
LWPOLYLINE
  5
2BF
330
1F
100
AcDbEntity
  8
0
  6
Continuous
 62
     7
370
    30
100
AcDbPolyline
 90
        5
 70
   128
 43
0.0
 10
41.1068236763
 20
253.6158724444
 10
41.0144727985
 20
253.623952017
 10
40.9482967416
 20
253.6297418166
 10
40.9085059846
 20
253.633222984
 10
40.8952281187
 20
253.6343846925
  0
LINE
  5
2C0
330
1F
100
AcDbEntity
  8
0
  6
Continuous
 62
     7
370
    30
100
AcDbLine
 10
40.8952281187
 20
255.573243344
 30
0.0
 11
41.1068236763
 21
255.573243344
 31
0.0
  0
LINE
  5
2C1
330
1F
100
AcDbEntity
  8
0
  6
Continuous
 62
     7
370
    30
100
AcDbLine
 10
56.6452279063
 20
258.5732432537
 30
0.0
 11
41.7452280717
 21
258.5732432537
 31
0.0
  0
LINE
  5
2C2
330
1F
100
AcDbEntity
  8
0
  6
Continuous
 62
     7
370
    30
100
AcDbLine
 10
56.2960173311
 20
255.573243344
 30
0.0
 11
42.094438647
 21
255.573243344
 31
0.0
  0
LINE
  5
2C3
330
1F
100
AcDbEntity
  8
0
  6
Continuous
 62
     7
370
    30
100
AcDbLine
 10
42.4691590788
 20
252.5732432015
 30
0.0
 11
42.4691590788
 21
253.5732433655
 31
0.0
  0
LINE
  5
2C4
330
1F
100
AcDbEntity
  8
0
  6
Continuous
 62
     7
370
    30
100
AcDbLine
 10
55.9212968992
 20
252.5732432015
 30
0.0
 11
55.9212968992
 21
253.5732433655
 31
0.0
  0
LINE
  5
2C5
330
1F
100
AcDbEntity
  8
0
  6
Continuous
 62
     7
370
    30
100
AcDbLine
 10
41.5952278609
 20
253.5294990277
 30
0.0
 11
41.0952277789
 21
253.5732433655
 31
0.0
  0
LINE
  5
2C6
330
1F
100
AcDbEntity
  8
0
  6
Continuous
 62
     7
370
    30
100
AcDbLine
 10
41.5952278609
 20
253.5294990277
 30
0.0
 11
41.5952278609
 21
253.5732433655
 31
0.0
  0
LINE
  5
2C7
330
1F
100
AcDbEntity
  8
0
  6
Continuous
 62
     7
370
    30
100
AcDbLine
 10
41.8952278169
 20
252.5732432015
 30
0.0
 11
42.4691590788
 21
252.5732432015
 31
0.0
  0
LINE
  5
2C8
330
1F
100
AcDbEntity
  8
0
  6
Continuous
 62
     7
370
    30
100
AcDbLine
 10
41.8952278169
 20
252.5732432015
 30
0.0
 11
41.0952277789
 21
253.373243356
 31
0.0
  0
LINE
  5
2C9
330
1F
100
AcDbEntity
  8
0
  6
Continuous
 62
     7
370
    30
100
AcDbLine
 10
41.0952277789
 20
253.373243356
 30
0.0
 11
41.0952277789
 21
253.5732433655
 31
0.0
  0
LINE
  5
2CA
330
1F
100
AcDbEntity
  8
0
  6
Continuous
 62
     7
370
    30
100
AcDbLine
 10
56.4952281611
 20
252.5732432015
 30
0.0
 11
57.2952281991
 21
253.373243356
 31
0.0
  0
LINE
  5
2CB
330
1F
100
AcDbEntity
  8
0
  6
Continuous
 62
     7
370
    30
100
AcDbLine
 10
56.4952281611
 20
252.5732432015
 30
0.0
 11
55.9212968992
 21
252.5732432015
 31
0.0
  0
LINE
  5
2CC
330
1F
100
AcDbEntity
  8
0
  6
Continuous
 62
     7
370
    30
100
AcDbLine
 10
56.7952281172
 20
253.5294990277
 30
0.0
 11
56.7952281172
 21
253.5732433655
 31
0.0
  0
LINE
  5
2CD
330
1F
100
AcDbEntity
  8
0
  6
Continuous
 62
     7
370
    30
100
AcDbLine
 10
56.7952281172
 20
253.5294990277
 30
0.0
 11
57.2952281991
 21
253.5732433655
 31
0.0
  0
LINE
  5
2CE
330
1F
100
AcDbEntity
  8
0
  6
Continuous
 62
     7
370
    30
100
AcDbLine
 10
57.2952281991
 20
253.373243356
 30
0.0
 11
57.2952281991
 21
253.5732433655
 31
0.0
  0
LINE
  5
2CF
330
1F
100
AcDbEntity
  8
0
  6
CENTERX2
 62
     7
370
     0
100
AcDbLine
 10
49.195227989
 20
266.298044001
 30
0.0
 11
49.195227989
 21
238.3734455758
 31
0.0
  0
LINE
  5
2D0
330
1F
100
AcDbEntity
  8
0
  6
Continuous
 62
     7
370
     0
100
AcDbLine
 10
42.1631585923
 20
258.5732433155
 30
0.0
 11
36.695227989
 21
263.1613818681
 31
0.0
  0
LINE
  5
2D1
330
1F
100
AcDbEntity
  8
0
  6
Continuous
 62
     7
370
     0
100
AcDbLine
 10
36.695227989
 20
263.1613818681
 30
0.0
 11
36.695227989
 21
268.1613818681
 31
0.0
  0
LINE
  5
2D2
330
1F
100
AcDbEntity
  8
0
  6
Continuous
 62
     7
370
     0
100
AcDbLine
 10
36.695227989
 20
268.1613818681
 30
0.0
 11
61.695227989
 21
268.1613818681
 31
0.0
  0
LINE
  5
2D3
330
1F
100
AcDbEntity
  8
0
  6
Continuous
 62
     7
370
     0
100
AcDbLine
 10
61.695227989
 20
268.1613818681
 30
0.0
 11
61.695227989
 21
263.1613818681
 31
0.0
  0
LINE
  5
2D4
330
1F
100
AcDbEntity
  8
0
  6
Continuous
 62
     7
370
     0
100
AcDbLine
 10
61.695227989
 20
263.1613818681
 30
0.0
 11
56.2272973857
 21
258.5732433155
 31
0.0
  0
CIRCLE
  5
2D5
330
1F
100
AcDbEntity
  8
0
  6
Continuous
 62
     7
370
     0
100
AcDbCircle
 10
49.195227989
 20
262.8732433155
 30
0.0
 40
0.0000999999999962
  0
ARC
  5
2D6
330
1F
100
AcDbEntity
  8
0
  6
Continuous
 62
     7
370
     0
100
AcDbCircle
 10
49.195227989
 20
254.9732433155
 30
0.0
 40
7.900000000000009
100
AcDbArc
 50
25.4916622417
 51
154.5083377583
  0
HATCH
  5
2D7
330
1F
100
AcDbEntity
  8
0
  6
Continuous
 62
     7
100
AcDbHatch
 10
0.0
 20
0.0
 30
0.0
210
0.0
220
0.0
230
1.0
  2
ANSI31
 70
     0
 71
     0
 91
        1
 92
        0
 93
        8
 72
     2
 10
49.19522798903265
 20
254.9732433155432
 40
7.900000000000007
 50
270.0007252630327
 51
332.8902619249857
 73
     0
 72
     1
 10
56.22729738573233
 20
258.5732433155432
 11
61.69522798903267
 21
263.1613818680755
 72
     1
 10
61.69522798903267
 20
263.1613818680755
 11
61.69522798903267
 21
268.1613818680755
 72
     1
 10
61.69522798903267
 20
268.1613818680755
 11
36.69522798903267
 21
268.1613818680755
 72
     1
 10
36.69522798903267
 20
268.1613818680755
 11
36.69522798903269
 21
263.1613818680755
 72
     1
 10
36.69522798903269
 20
263.1613818680755
 11
42.16315859233299
 21
258.5732433155432
 72
     2
 10
49.19522798903265
 20
254.9732433155432
 40
7.900000000000007
 50
207.1097380750156
 51
269.9992747369691
 73
     0
 72
     2
 10
49.19522798903267
 20
262.8732433155432
 40
0.0000999999999959
 50
179.9996373780908
 51
360.00036262191
 73
     0
 97
        0
 75
     0
 76
     1
 52
0.0
 41
0.25
 77
     0
 78
     1
 53
45.0
 43
0.0
 44
0.0
 45
-0.561266007566822
 46
0.5612660075668221
 79
     0
 98
        1
 10
0.0
 20
0.0
  0
DIMENSION
  5
2D8
330
1F
100
AcDbEntity
  8
0
  6
Continuous
 62
     7
370
     0
100
AcDbDimension
  2
_D_14
 10
70.3227286595
 20
258.5732433155
 30
0.0
 11
70.3227286595
 21
248.5638454294
 31
0.0
 70
   160
  1
<>
 71
     2
 42
-1.0
  3
SLDDIMSTYLE4
100
AcDbAlignedDimension
 13
49.195227989
 23
262.8732433155
 33
0.0
 14
56.645227989
 24
258.5732433155
 34
0.0
 50
90.0
100
AcDbRotatedDimension
  0
MTEXT
  5
2E3
330
1F
100
AcDbEntity
  8
0
  6
Continuous
 62
     7
370
     0
100
AcDbMText
 10
52.8750498353
 20
245.4339505015
 30
0.0
 40
3.5
 41
0.0
 71
     1
 72
     1
  1
Note1
  7
SLDTEXTSTYLE0
 73
     1
 44
1.0
  0
LEADER
  5
2E4
330
1F
100
AcDbEntity
  8
0
  6
Continuous
 62
     7
370
     0
100
AcDbLeader
  3
SLDDIMSTYLE10
 76
     3
 10
66.4084117351
 20
246.7377771562
 30
0.0
 10
63.5171543895
 20
240.8678102926
 30
0.0
 10
52.8254288597
 20
240.8678102926
 30
0.0
  0
LINE
  5
2E5
330
1F
100
AcDbEntity
  8
0
  6
Continuous
 62
     7
370
    30
100
AcDbLine
 10
53.0668623574
 20
170.0219017416
 30
0.0
 11
53.0668623574
 21
174.6219013781
 31
0.0
  0
LINE
  5
2E6
330
1F
100
AcDbEntity
  8
0
  6
Continuous
 62
     7
370
    30
100
AcDbLine
 10
52.6168623069
 20
174.6219013781
 30
0.0
 11
52.6168623069
 21
170.0219017416
 31
0.0
  0
LINE
  5
2E7
330
1F
100
AcDbEntity
  8
0
  6
Continuous
 62
     7
370
    30
100
AcDbLine
 10
49.4747599182
 20
170.0219017416
 30
0.0
 11
49.4747599182
 21
174.6219013781
 31
0.0
  0
LINE
  5
2E8
330
1F
100
AcDbEntity
  8
0
  6
Continuous
 62
     7
370
    30
100
AcDbLine
 10
49.0247598677
 20
174.6219013781
 30
0.0
 11
49.0247598677
 21
170.0219017416
 31
0.0
  0
LINE
  5
2E9
330
1F
100
AcDbEntity
  8
0
  6
Continuous
 62
     7
370
    30
100
AcDbLine
 10
56.5458110827
 20
174.6219013781
 30
0.0
 11
56.0908111106
 21
182.5219014622
 31
0.0
  0
LINE
  5
2EA
330
1F
100
AcDbEntity
  8
0
  6
Continuous
 62
     7
370
    30
100
AcDbLine
 10
46.0008111145
 20
182.5219014622
 30
0.0
 11
45.5458111424
 21
174.6219013781
 31
0.0
  0
LINE
  5
2EB
330
1F
100
AcDbEntity
  8
0
  6
Continuous
 62
     7
370
    30
100
AcDbLine
 10
59.3458109829
 20
182.5830427893
 30
0.0
 11
59.3458109829
 21
184.5219014408
 31
0.0
  0
LINE
  5
2EC
330
1F
100
AcDbEntity
  8
0
  6
Continuous
 62
     7
370
    30
100
AcDbLine
 10
42.7458112422
 20
184.5219014408
 30
0.0
 11
42.7458112422
 21
182.5830427893
 31
0.0
  0
LINE
  5
2ED
330
1F
100
AcDbEntity
  8
0
  6
Continuous
 62
     7
370
    30
100
AcDbLine
 10
58.4958110298
 20
184.5219014408
 30
0.0
 11
58.4958110298
 21
187.5219013505
 31
0.0
  0
LINE
  5
2EE
330
1F
100
AcDbEntity
  8
0
  6
Continuous
 62
     7
370
    30
100
AcDbLine
 10
43.5958111953
 20
187.5219013505
 30
0.0
 11
43.5958111953
 21
184.5219014408
 31
0.0
  0
ARC
  5
2EF
330
1F
100
AcDbEntity
  8
0
  6
Continuous
 62
     7
370
    30
100
AcDbCircle
 10
51.0458111126
 20
183.9219014123
 30
0.0
 40
7.899999999999999
100
AcDbArc
 50
27.109738075
 51
152.890261925
  0
LINE
  5
2F0
330
1F
100
AcDbEntity
  8
0
  6
Continuous
 62
     7
370
    30
100
AcDbLine
 10
51.4458111024
 20
176.2219014541
 30
0.0
 11
51.1958111197
 21
176.2219014541
 31
0.0
  0
LINE
  5
2F1
330
1F
100
AcDbEntity
  8
0
  6
Continuous
 62
     7
370
    30
100
AcDbLine
 10
51.1958111197
 20
176.471901495
 30
0.0
 11
51.1958111197
 21
176.2219014541
 31
0.0
  0
LINE
  5
2F2
330
1F
100
AcDbEntity
  8
0
  6
Continuous
 62
     7
370
    30
100
AcDbLine
 10
51.4458111024
 20
176.471901495
 30
0.0
 11
51.4458111024
 21
176.2219014541
 31
0.0
  0
LINE
  5
2F3
330
1F
100
AcDbEntity
  8
0
  6
Continuous
 62
     7
370
    30
100
AcDbLine
 10
51.1958111197
 20
176.2219014541
 30
0.0
 11
50.8958111054
 21
176.2219014541
 31
0.0
  0
LINE
  5
2F4
330
1F
100
AcDbEntity
  8
0
  6
Continuous
 62
     7
370
    30
100
AcDbLine
 10
50.8958111054
 20
176.471901495
 30
0.0
 11
50.8958111054
 21
176.2219014541
 31
0.0
  0
LINE
  5
2F5
330
1F
100
AcDbEntity
  8
0
  6
Continuous
 62
     7
370
    30
100
AcDbLine
 10
50.6458111227
 20
176.471901495
 30
0.0
 11
50.6458111227
 21
176.2219014541
 31
0.0
  0
LINE
  5
2F6
330
1F
100
AcDbEntity
  8
0
  6
Continuous
 62
     7
370
    30
100
AcDbLine
 10
50.8958111054
 20
176.2219014541
 30
0.0
 11
50.6458111227
 21
176.2219014541
 31
0.0
  0
LINE
  5
2F7
330
1F
100
AcDbEntity
  8
0
  6
Continuous
 62
     7
370
    30
100
AcDbLine
 10
53.0009612735
 20
170.0219017416
 30
0.0
 11
53.0668623574
 21
170.0219017416
 31
0.0
  0
LINE
  5
2F8
330
1F
100
AcDbEntity
  8
0
  6
Continuous
 62
     7
370
    30
100
AcDbLine
 10
52.6168623069
 20
170.0219017416
 30
0.0
 11
53.0009612735
 21
170.0219017416
 31
0.0
  0
LINE
  5
2F9
330
1F
100
AcDbEntity
  8
0
  6
Continuous
 62
     7
370
    30
100
AcDbLine
 10
51.14581111
 20
175.5219017118
 30
0.0
 11
51.14581111
 21
176.2219014541
 31
0.0
  0
LINE
  5
2FA
330
1F
100
AcDbEntity
  8
0
  6
Continuous
 62
     7
370
    30
100
AcDbLine
 10
50.9458111151
 20
176.2219014541
 30
0.0
 11
50.9458111151
 21
175.5219017118
 31
0.0
  0
LINE
  5
2FB
330
1F
100
AcDbEntity
  8
0
  6
Continuous
 62
     7
370
    30
100
AcDbLine
 10
51.14581111
 20
175.5219017118
 30
0.0
 11
50.9458111151
 21
175.5219017118
 31
0.0
  0
LINE
  5
2FC
330
1F
100
AcDbEntity
  8
0
  6
Continuous
 62
     7
370
    30
100
AcDbLine
 10
50.6458111227
 20
175.5219017118
 30
0.0
 11
50.6458111227
 21
176.2219014541
 31
0.0
  0
LINE
  5
2FD
330
1F
100
AcDbEntity
  8
0
  6
Continuous
 62
     7
370
    30
100
AcDbLine
 10
50.9458111151
 20
175.5219017118
 30
0.0
 11
50.6458111227
 21
175.5219017118
 31
0.0
  0
LINE
  5
2FE
330
1F
100
AcDbEntity
  8
0
  6
Continuous
 62
     7
370
    30
100
AcDbLine
 10
51.4458111024
 20
176.2219014541
 30
0.0
 11
51.4458111024
 21
175.5219017118
 31
0.0
  0
LINE
  5
2FF
330
1F
100
AcDbEntity
  8
0
  6
Continuous
 62
     7
370
    30
100
AcDbLine
 10
51.4458111024
 20
175.5219017118
 30
0.0
 11
51.14581111
 21
175.5219017118
 31
0.0
  0
LINE
  5
300
330
1F
100
AcDbEntity
  8
0
  6
Continuous
 62
     7
370
    30
100
AcDbLine
 10
51.5430982518
 20
175.5219017118
 30
0.0
 11
51.4458111024
 21
175.5219017118
 31
0.0
  0
LINE
  5
301
330
1F
100
AcDbEntity
  8
0
  6
Continuous
 62
     7
370
    30
100
AcDbLine
 10
51.4458111024
 20
176.2219014541
 30
0.0
 11
51.5045716197
 21
176.2219014541
 31
0.0
  0
LINE
  5
302
330
1F
100
AcDbEntity
  8
0
  6
Continuous
 62
     7
370
    30
100
AcDbLine
 10
50.6458111227
 20
175.5219017118
 30
0.0
 11
50.5457203431
 21
175.5219017118
 31
0.0
  0
LINE
  5
303
330
1F
100
AcDbEntity
  8
0
  6
Continuous
 62
     7
370
    30
100
AcDbLine
 10
50.5835421386
 20
176.2219014541
 30
0.0
 11
50.6458111227
 21
176.2219014541
 31
0.0
  0
LINE
  5
304
330
1F
100
AcDbEntity
  8
0
  6
Continuous
 62
     7
370
    30
100
AcDbLine
 10
49.4088589508
 20
170.0219017416
 30
0.0
 11
49.4747599182
 21
170.0219017416
 31
0.0
  0
LINE
  5
305
330
1F
100
AcDbEntity
  8
0
  6
Continuous
 62
     7
370
    30
100
AcDbLine
 10
49.0247598677
 20
170.0219017416
 30
0.0
 11
49.4088589508
 21
170.0219017416
 31
0.0
  0
LINE
  5
306
330
1F
100
AcDbEntity
  8
0
  6
Continuous
 62
     7
370
    30
100
AcDbLine
 10
57.9980624202
 20
184.5219014408
 30
0.0
 11
57.9980624202
 21
183.5219014224
 31
0.0
  0
LINE
  5
307
330
1F
100
AcDbEntity
  8
0
  6
Continuous
 62
     7
370
    30
100
AcDbLine
 10
44.0935598049
 20
183.5219014224
 30
0.0
 11
57.9980624202
 21
183.5219014224
 31
0.0
  0
LINE
  5
308
330
1F
100
AcDbEntity
  8
0
  6
Continuous
 62
     7
370
    30
100
AcDbLine
 10
44.0935598049
 20
184.5219014408
 30
0.0
 11
44.0935598049
 21
183.5219014224
 31
0.0
  0
LINE
  5
309
330
1F
100
AcDbEntity
  8
0
  6
Continuous
 62
     7
370
    30
100
AcDbLine
 10
57.3567145798
 20
182.5219014622
 30
0.0
 11
57.3567145798
 21
183.5219014224
 31
0.0
  0
LINE
  5
30A
330
1F
100
AcDbEntity
  8
0
  6
Continuous
 62
     7
370
    30
100
AcDbLine
 10
44.7349076453
 20
182.5219014622
 30
0.0
 11
44.7349076453
 21
183.5219014224
 31
0.0
  0
LINE
  5
30B
330
1F
100
AcDbEntity
  8
0
  6
Continuous
 62
     7
370
    30
100
AcDbLine
 10
44.7349076453
 20
182.5219014622
 30
0.0
 11
57.3567145798
 21
182.5219014622
 31
0.0
  0
LINE
  5
30C
330
1F
100
AcDbEntity
  8
0
  6
Continuous
 62
     7
370
    30
100
AcDbLine
 10
51.4958111048
 20
176.471901495
 30
0.0
 11
50.5958111203
 21
176.471901495
 31
0.0
  0
SPLINE
  5
30D
330
1F
100
AcDbEntity
  8
0
  6
Continuous
 62
     7
370
    30
100
AcDbSpline
210
0.0
220
0.0
230
1.0
 70
    24
 71
     3
 72
     8
 73
     4
 74
     0
 42
0.000000001
 43
0.00000001
 40
0.0000002005751174
 40
0.0000002005751174
 40
0.0000002005751174
 40
0.0000002005751174
 40
0.0018554801540311
 40
0.0018554801540311
 40
0.0018554801540311
 40
0.0018554801540311
 10
50.59581111255012
 20
176.4719014123295
 30
0.0
 10
50.56247850523124
 20
175.8552481769304
 30
0.0
 10
50.52914515347284
 20
175.2385811693999
 30
0.0
 10
50.49581111255011
 20
174.6219014123295
 30
0.0
  0
SPLINE
  5
30E
330
1F
100
AcDbEntity
  8
0
  6
Continuous
 62
     7
370
    30
100
AcDbSpline
210
0.0
220
0.0
230
1.0
 70
    24
 71
     3
 72
     8
 73
     4
 74
     0
 42
0.000000001
 43
0.00000001
 40
0.0000002005664909
 40
0.0000002005664909
 40
0.0000002005664909
 40
0.0000002005664909
 40
0.0018554801454046
 40
0.0018554801454046
 40
0.0018554801454046
 40
0.0018554801454046
 10
51.59581111255012
 20
174.6219014123295
 30
0.0
 10
51.5624770716274
 20
175.2385811693999
 30
0.0
 10
51.52914371986899
 20
175.8552481769304
 30
0.0
 10
51.49581111255011
 20
176.4719014123296
 30
0.0
  0
LINE
  5
30F
330
1F
100
AcDbEntity
  8
0
  6
Continuous
 62
     7
370
    30
100
AcDbLine
 10
45.5458111424
 20
174.6219013781
 30
0.0
 11
50.4958111155
 21
174.6219013781
 31
0.0
  0
LINE
  5
310
330
1F
100
AcDbEntity
  8
0
  6
Continuous
 62
     7
370
    30
100
AcDbLine
 10
51.5958111096
 20
174.6219013781
 30
0.0
 11
56.5458110827
 21
174.6219013781
 31
0.0
  0
LINE
  5
311
330
1F
100
AcDbEntity
  8
0
  6
Continuous
 62
     7
370
    30
100
AcDbLine
 10
43.9043825786
 20
183.5219014224
 30
0.0
 11
43.9043825786
 21
184.5219014408
 31
0.0
  0
LINE
  5
312
330
1F
100
AcDbEntity
  8
0
  6
Continuous
 62
     7
370
    30
100
AcDbLine
 10
43.9043825786
 20
184.5219014408
 30
0.0
 11
43.9450217705
 21
184.5219014408
 31
0.0
  0
LINE
  5
313
330
1F
100
AcDbEntity
  8
0
  6
Continuous
 62
     7
370
    30
100
AcDbLine
 10
44.0935598049
 20
183.5219014224
 30
0.0
 11
43.9043825786
 21
183.5219014224
 31
0.0
  0
LINE
  5
314
330
1F
100
AcDbEntity
  8
0
  6
Continuous
 62
     7
370
    30
100
AcDbLine
 10
58.1872396465
 20
183.5219014224
 30
0.0
 11
58.1872396465
 21
184.5219014408
 31
0.0
  0
LINE
  5
315
330
1F
100
AcDbEntity
  8
0
  6
Continuous
 62
     7
370
    30
100
AcDbLine
 10
58.1872396465
 20
184.5219014408
 30
0.0
 11
58.1466004546
 21
184.5219014408
 31
0.0
  0
LINE
  5
316
330
1F
100
AcDbEntity
  8
0
  6
Continuous
 62
     7
370
    30
100
AcDbLine
 10
57.9980624202
 20
183.5219014224
 30
0.0
 11
58.1872396465
 21
183.5219014224
 31
0.0
  0
LINE
  5
317
330
1F
100
AcDbEntity
  8
0
  6
Continuous
 62
     7
370
    30
100
AcDbLine
 10
58.6469623554
 20
184.5219014408
 30
0.0
 11
58.6469623554
 21
182.5219014622
 31
0.0
  0
LINE
  5
318
330
1F
100
AcDbEntity
  8
0
  6
Continuous
 62
     7
370
    30
100
AcDbLine
 10
58.6469623554
 20
182.5219014622
 30
0.0
 11
57.3567145798
 21
182.5219014622
 31
0.0
  0
LINE
  5
319
330
1F
100
AcDbEntity
  8
0
  6
Continuous
 62
     7
370
    30
100
AcDbLine
 10
58.6469623554
 20
184.5219014408
 30
0.0
 11
58.1872396465
 21
184.5219014408
 31
0.0
  0
LINE
  5
31A
330
1F
100
AcDbEntity
  8
0
  6
Continuous
 62
     7
370
    30
100
AcDbLine
 10
43.4446598697
 20
184.5219014408
 30
0.0
 11
43.4446598697
 21
182.5219014622
 31
0.0
  0
LINE
  5
31B
330
1F
100
AcDbEntity
  8
0
  6
Continuous
 62
     7
370
    30
100
AcDbLine
 10
43.4446598697
 20
182.5219014622
 30
0.0
 11
44.7349076453
 21
182.5219014622
 31
0.0
  0
LINE
  5
31C
330
1F
100
AcDbEntity
  8
0
  6
Continuous
 62
     7
370
    30
100
AcDbLine
 10
43.4446598697
 20
184.5219014408
 30
0.0
 11
43.9043825786
 21
184.5219014408
 31
0.0
  0
LINE
  5
31D
330
1F
100
AcDbEntity
  8
0
  6
Continuous
 62
     7
370
    30
100
AcDbLine
 10
59.1342154253
 20
182.5645305412
 30
0.0
 11
59.1342154253
 21
184.5219014408
 31
0.0
  0
LWPOLYLINE
  5
31E
330
1F
100
AcDbEntity
  8
0
  6
Continuous
 62
     7
370
    30
100
AcDbPolyline
 90
        8
 70
   128
 43
0.0
 10
58.6469623554
 20
182.5219014622
 10
58.7424094151
 20
182.5302519333
 10
58.8343463201
 20
182.5382954171
 10
58.9193909723
 20
182.5457358696
 10
58.9944164562
 20
182.5522997147
 10
59.0566623318
 20
182.557745507
 10
59.1038412708
 20
182.5618731287
 10
59.1342154253
 20
182.5645305412
  0
LINE
  5
31F
330
1F
100
AcDbEntity
  8
0
  6
Continuous
 62
     7
370
    30
100
AcDbLine
 10
59.1342154253
 20
184.5219014408
 30
0.0
 11
58.6469623554
 21
184.5219014408
 31
0.0
  0
LINE
  5
320
330
1F
100
AcDbEntity
  8
0
  6
Continuous
 62
     7
370
    30
100
AcDbLine
 10
42.9574067998
 20
182.5645305412
 30
0.0
 11
42.9574067998
 21
184.5219014408
 31
0.0
  0
LWPOLYLINE
  5
321
330
1F
100
AcDbEntity
  8
0
  6
Continuous
 62
     7
370
    30
100
AcDbPolyline
 90
        8
 70
   128
 43
0.0
 10
43.4446598697
 20
182.5219014622
 10
43.34921281
 20
182.5302519333
 10
43.257275905
 20
182.5382954171
 10
43.1722312528
 20
182.5457358696
 10
43.0972057689
 20
182.5522997147
 10
43.0349598933
 20
182.557745507
 10
42.9877809543
 20
182.5618731287
 10
42.9574067998
 20
182.5645305412
  0
LINE
  5
322
330
1F
100
AcDbEntity
  8
0
  6
Continuous
 62
     7
370
    30
100
AcDbLine
 10
42.9574067998
 20
184.5219014408
 30
0.0
 11
43.4446598697
 21
184.5219014408
 31
0.0
  0
LWPOLYLINE
  5
323
330
1F
100
AcDbEntity
  8
0
  6
Continuous
 62
     7
370
    30
100
AcDbPolyline
 90
        5
 70
   128
 43
0.0
 10
59.1342154253
 20
182.5645305412
 10
59.2265663031
 20
182.5726101138
 10
59.29274236
 20
182.5783999134
 10
59.332533117
 20
182.5818810808
 10
59.3458109829
 20
182.5830427893
  0
LINE
  5
324
330
1F
100
AcDbEntity
  8
0
  6
Continuous
 62
     7
370
    30
100
AcDbLine
 10
59.3458109829
 20
184.5219014408
 30
0.0
 11
59.1342154253
 21
184.5219014408
 31
0.0
  0
LWPOLYLINE
  5
325
330
1F
100
AcDbEntity
  8
0
  6
Continuous
 62
     7
370
    30
100
AcDbPolyline
 90
        5
 70
   128
 43
0.0
 10
42.9574067998
 20
182.5645305412
 10
42.865055922
 20
182.5726101138
 10
42.7988798651
 20
182.5783999134
 10
42.7590891081
 20
182.5818810808
 10
42.7458112422
 20
182.5830427893
  0
LINE
  5
326
330
1F
100
AcDbEntity
  8
0
  6
Continuous
 62
     7
370
    30
100
AcDbLine
 10
42.7458112422
 20
184.5219014408
 30
0.0
 11
42.9574067998
 21
184.5219014408
 31
0.0
  0
LINE
  5
327
330
1F
100
AcDbEntity
  8
0
  6
Continuous
 62
     7
370
    30
100
AcDbLine
 10
58.4958110298
 20
187.5219013505
 30
0.0
 11
43.5958111953
 21
187.5219013505
 31
0.0
  0
LINE
  5
328
330
1F
100
AcDbEntity
  8
0
  6
Continuous
 62
     7
370
    30
100
AcDbLine
 10
58.1466004546
 20
184.5219014408
 30
0.0
 11
43.9450217705
 21
184.5219014408
 31
0.0
  0
LINE
  5
329
330
1F
100
AcDbEntity
  8
0
  6
Continuous
 62
     7
370
    30
100
AcDbLine
 10
44.3197422023
 20
181.5219012983
 30
0.0
 11
44.3197422023
 21
182.5219014622
 31
0.0
  0
LINE
  5
32A
330
1F
100
AcDbEntity
  8
0
  6
Continuous
 62
     7
370
    30
100
AcDbLine
 10
57.7718800228
 20
181.5219012983
 30
0.0
 11
57.7718800228
 21
182.5219014622
 31
0.0
  0
LINE
  5
32B
330
1F
100
AcDbEntity
  8
0
  6
Continuous
 62
     7
370
    30
100
AcDbLine
 10
43.4458109844
 20
182.4781571245
 30
0.0
 11
42.9458109024
 21
182.5219014622
 31
0.0
  0
LINE
  5
32C
330
1F
100
AcDbEntity
  8
0
  6
Continuous
 62
     7
370
    30
100
AcDbLine
 10
43.4458109844
 20
182.4781571245
 30
0.0
 11
43.4458109844
 21
182.5219014622
 31
0.0
  0
LINE
  5
32D
330
1F
100
AcDbEntity
  8
0
  6
Continuous
 62
     7
370
    30
100
AcDbLine
 10
43.7458109404
 20
181.5219012983
 30
0.0
 11
44.3197422023
 21
181.5219012983
 31
0.0
  0
LINE
  5
32E
330
1F
100
AcDbEntity
  8
0
  6
Continuous
 62
     7
370
    30
100
AcDbLine
 10
43.7458109404
 20
181.5219012983
 30
0.0
 11
42.9458109024
 21
182.3219014527
 31
0.0
  0
LINE
  5
32F
330
1F
100
AcDbEntity
  8
0
  6
Continuous
 62
     7
370
    30
100
AcDbLine
 10
42.9458109024
 20
182.3219014527
 30
0.0
 11
42.9458109024
 21
182.5219014622
 31
0.0
  0
LINE
  5
330
330
1F
100
AcDbEntity
  8
0
  6
Continuous
 62
     7
370
    30
100
AcDbLine
 10
58.3458112847
 20
181.5219012983
 30
0.0
 11
59.1458113227
 21
182.3219014527
 31
0.0
  0
LINE
  5
331
330
1F
100
AcDbEntity
  8
0
  6
Continuous
 62
     7
370
    30
100
AcDbLine
 10
58.3458112847
 20
181.5219012983
 30
0.0
 11
57.7718800228
 21
181.5219012983
 31
0.0
  0
LINE
  5
332
330
1F
100
AcDbEntity
  8
0
  6
Continuous
 62
     7
370
    30
100
AcDbLine
 10
58.6458112407
 20
182.4781571245
 30
0.0
 11
58.6458112407
 21
182.5219014622
 31
0.0
  0
LINE
  5
333
330
1F
100
AcDbEntity
  8
0
  6
Continuous
 62
     7
370
    30
100
AcDbLine
 10
58.6458112407
 20
182.4781571245
 30
0.0
 11
59.1458113227
 21
182.5219014622
 31
0.0
  0
LINE
  5
334
330
1F
100
AcDbEntity
  8
0
  6
Continuous
 62
     7
370
    30
100
AcDbLine
 10
59.1458113227
 20
182.3219014527
 30
0.0
 11
59.1458113227
 21
182.5219014622
 31
0.0
  0
LINE
  5
335
330
1F
100
AcDbEntity
  8
0
  6
CENTERX2
 62
     7
370
     0
100
AcDbLine
 10
51.0458111126
 20
195.2483681767
 30
0.0
 11
51.0458111126
 21
166.8944305565
 31
0.0
  0
LINE
  5
336
330
1F
100
AcDbEntity
  8
0
  6
Continuous
 62
     7
370
    30
100
AcDbLine
 10
58.7458111126
 20
186.0219014123
 30
0.0
 11
63.7458111126
 21
186.0219014123
 31
0.0
  0
LINE
  5
337
330
1F
100
AcDbEntity
  8
0
  6
Continuous
 62
     7
370
    30
100
AcDbLine
 10
58.7458111126
 20
187.5219014123
 30
0.0
 11
58.7458111126
 21
186.0219014123
 31
0.0
  0
LINE
  5
338
330
1F
100
AcDbEntity
  8
0
  6
Continuous
 62
     7
370
    30
100
AcDbLine
 10
58.7458111126
 20
187.5219014123
 30
0.0
 11
63.7458111126
 21
187.5219014123
 31
0.0
  0
LINE
  5
339
330
1F
100
AcDbEntity
  8
0
  6
Continuous
 62
     7
370
    30
100
AcDbLine
 10
43.3458111126
 20
187.5219014123
 30
0.0
 11
38.3458111126
 21
187.5219014123
 31
0.0
  0
LINE
  5
33A
330
1F
100
AcDbEntity
  8
0
  6
Continuous
 62
     7
370
    30
100
AcDbLine
 10
43.3458111126
 20
187.5219014123
 30
0.0
 11
43.3458111126
 21
186.0219014123
 31
0.0
  0
LINE
  5
33B
330
1F
100
AcDbEntity
  8
0
  6
Continuous
 62
     7
370
    30
100
AcDbLine
 10
43.3458111126
 20
186.0219014123
 30
0.0
 11
38.3458111126
 21
186.0219014123
 31
0.0
  0
SPLINE
  5
33C
330
1F
100
AcDbEntity
  8
0
  6
Continuous
 62
     7
370
    30
100
AcDbSpline
210
0.0
220
0.0
230
1.0
 70
     8
 71
     3
 72
     8
 73
     4
 74
     0
 42
0.000000001
 43
0.00000001
 40
0.0
 40
0.0
 40
0.0
 40
0.0
 40
1.0
 40
1.0
 40
1.0
 40
1.0
 10
38.34581111255012
 20
187.5219014123296
 30
0.0
 10
38.86096010683337
 20
187.0456356468107
 30
0.0
 10
37.40606809726493
 20
186.6067046374931
 30
0.0
 10
38.34581111255012
 20
186.0219014123296
 30
0.0
  0
SPLINE
  5
33D
330
1F
100
AcDbEntity
  8
0
  6
Continuous
 62
     7
370
    30
100
AcDbSpline
210
0.0
220
0.0
230
1.0
 70
     8
 71
     3
 72
     8
 73
     4
 74
     0
 42
0.000000001
 43
0.00000001
 40
0.0
 40
0.0
 40
0.0
 40
0.0
 40
1.0
 40
1.0
 40
1.0
 40
1.0
 10
63.74581111255012
 20
187.5219014123296
 30
0.0
 10
63.23066211826686
 20
187.0456356468108
 30
0.0
 10
64.6855541278353
 20
186.606704637493
 30
0.0
 10
63.74581111255012
 20
186.0219014123296
 30
0.0
  0
HATCH
  5
33E
330
1F
100
AcDbEntity
  8
0
  6
Continuous
 62
     7
100
AcDbHatch
 10
0.0
 20
0.0
 30
0.0
210
0.0
220
0.0
230
1.0
  2
ANSI31
 70
     0
 71
     0
 91
        1
 92
        0
 93
        4
 72
     1
 10
43.34581111255012
 20
187.5219014123296
 11
38.34581111255012
 21
187.5219014123296
 72
     4
 94
        3
 73
     1
 74
     0
 95
        8
 96
        4
 40
0.0
 40
0.0
 40
0.0
 40
0.0
 40
1.0
 40
1.0
 40
1.0
 40
1.0
 10
38.34581111255012
 20
187.5219014123296
 42
1.0
 10
38.86096010683337
 20
187.0456356468107
 42
1.0
 10
37.40606809726493
 20
186.6067046374931
 42
1.0
 10
38.34581111255012
 20
186.0219014123296
 42
1.0
 72
     1
 10
38.34581111255012
 20
186.0219014123296
 11
43.34581111255012
 21
186.0219014123296
 72
     1
 10
43.34581111255012
 20
186.0219014123296
 11
43.34581111255012
 21
187.5219014123296
 97
        0
 75
     0
 76
     1
 52
0.0
 41
0.25
 77
     0
 78
     1
 53
45.0
 43
0.0
 44
0.0
 45
-0.561266007566822
 46
0.5612660075668221
 79
     0
 98
        1
 10
0.0
 20
0.0
  0
HATCH
  5
33F
330
1F
100
AcDbEntity
  8
0
  6
Continuous
 62
     7
100
AcDbHatch
 10
0.0
 20
0.0
 30
0.0
210
0.0
220
0.0
230
1.0
  2
ANSI31
 70
     0
 71
     0
 91
        1
 92
        0
 93
        4
 72
     4
 94
        3
 73
     1
 74
     0
 95
        8
 96
        4
 40
0.0
 40
0.0
 40
0.0
 40
0.0
 40
1.0
 40
1.0
 40
1.0
 40
1.0
 10
63.74581111255012
 20
186.0219014123296
 42
1.0
 10
64.6855541278353
 20
186.606704637493
 42
1.0
 10
63.23066211826686
 20
187.0456356468108
 42
1.0
 10
63.74581111255012
 20
187.5219014123296
 42
1.0
 72
     1
 10
63.74581111255012
 20
187.5219014123296
 11
58.74581111255011
 21
187.5219014123296
 72
     1
 10
58.74581111255011
 20
187.5219014123296
 11
58.74581111255011
 21
186.0219014123296
 72
     1
 10
58.74581111255011
 20
186.0219014123296
 11
63.74581111255012
 21
186.0219014123296
 97
        0
 75
     0
 76
     1
 52
0.0
 41
0.25
 77
     0
 78
     1
 53
45.0
 43
0.0
 44
0.0
 45
-0.561266007566822
 46
0.5612660075668221
 79
     0
 98
        1
 10
0.0
 20
0.0
  0
DIMENSION
  5
340
330
1F
100
AcDbEntity
  8
0
  6
Continuous
 62
     7
370
     0
100
AcDbDimension
  2
_D_15
 10
58.7458111126
 20
199.0449738152
 30
0.0
 11
32.8254218041
 21
199.0449738152
 31
0.0
 70
   160
  1
%%c<>
 71
     2
 42
-1.0
  3
SLDDIMSTYLE11
100
AcDbAlignedDimension
 13
43.3458111126
 23
187.5219014123
 33
0.0
 14
58.7458111126
 24
187.5219014123
 34
0.0
100
AcDbRotatedDimension
  0
DIMENSION
  5
352
330
1F
100
AcDbEntity
  8
0
  6
Continuous
 62
     7
370
     0
100
AcDbDimension
  2
_D_16
 10
70.7104114283
 20
174.6219014123
 30
0.0
 11
70.7104114283
 21
180.7048407345
 31
0.0
 70
   160
  1
<>
 71
     2
 42
-1.0
  3
SLDDIMSTYLE7
100
AcDbAlignedDimension
 13
58.4958111126
 23
187.5219014123
 33
0.0
 14
56.5458111126
 24
174.6219014123
 34
0.0
 50
90.0
100
AcDbRotatedDimension
  0
MTEXT
  5
35E
330
1F
100
AcDbEntity
  8
0
  6
Continuous
 62
     7
370
     0
100
AcDbMText
 10
26.0013768277
 20
198.4426848434
 30
0.0
 40
2.38125
 41
0.0
 71
     1
 72
     1
  1
(0.606 dia)
  7
SLDTEXTSTYLE0
 73
     1
 44
1.0
  0
INSERT
  5
369
330
1F
100
AcDbEntity
  8
0
  6
Continuous
 62
     7
370
     0
100
AcDbBlockReference
  2
SW_NOTE_4
 10
65.3380423814
 20
193.8446014127
 30
0.0
  0
LEADER
  5
36A
330
1F
100
AcDbEntity
  8
0
  6
Continuous
 62
     7
370
     0
100
AcDbLeader
  3
SLDDIMSTYLE10
 76
     2
 10
58.7458111126
 20
187.5219014123
 30
0.0
 10
65.3380423814
 20
193.8446014127
 30
0.0
  0
SPLINE
  5
36B
330
1F
100
AcDbEntity
  8
0
  6
Continuous
 62
     7
370
    30
100
AcDbSpline
210
0.0
220
0.0
230
1.0
 70
     8
 71
     3
 72
     8
 73
     4
 74
     0
 42
0.000000001
 43
0.00000001
 40
0.0
 40
0.0
 40
0.0
 40
0.0
 40
1.0
 40
1.0
 40
1.0
 40
1.0
 10
159.166843822849
 20
111.0219980959388
 30
0.0
 10
159.1036996092351
 20
110.810647682542
 30
0.0
 10
159.0228625133752
 20
110.6082971379759
 30
0.0
 10
158.9260920784673
 20
110.4193344327287
 30
0.0
  0
SPLINE
  5
36C
330
1F
100
AcDbEntity
  8
0
  6
Continuous
 62
     7
370
    30
100
AcDbSpline
210
0.0
220
0.0
230
1.0
 70
     8
 71
     3
 72
     8
 73
     4
 74
     0
 42
0.000000001
 43
0.00000001
 40
0.0
 40
0.0
 40
0.0
 40
0.0
 40
1.0
 40
1.0
 40
1.0
 40
1.0
 10
158.4436381267451
 20
110.5486081231623
 30
0.0
 10
158.6039671606611
 20
110.5056481605838
 30
0.0
 10
158.7644347386947
 20
110.4626510647026
 30
0.0
 10
158.9260921792127
 20
110.419335123301
 30
0.0
  0
SPLINE
  5
36D
330
1F
100
AcDbEntity
  8
0
  6
Continuous
 62
     7
370
    30
100
AcDbSpline
210
0.0
220
0.0
230
1.0
 70
     8
 71
     3
 72
    10
 73
     6
 74
     0
 42
0.000000001
 43
0.00000001
 40
0.0
 40
0.0
 40
0.0
 40
0.0
 40
0.5
 40
0.5
 40
1.0
 40
1.0
 40
1.0
 40
1.0
 10
158.4436386001409
 20
113.7579611513955
 30
0.0
 10
158.5791178315475
 20
113.2523728143473
 30
0.0
 10
158.6548264707293
 20
112.7040923345919
 30
0.0
 10
158.6549723354871
 20
111.6039751901475
 30
0.0
 10
158.579355659701
 20
111.0552225688534
 30
0.0
 10
158.4436440778975
 20
110.5486047423146
 30
0.0
  0
SPLINE
  5
36E
330
1F
100
AcDbEntity
  8
0
  6
Continuous
 62
     7
370
    30
100
AcDbSpline
210
0.0
220
0.0
230
1.0
 70
     8
 71
     3
 72
     8
 73
     4
 74
     0
 42
0.000000001
 43
0.00000001
 40
0.0
 40
0.0
 40
0.0
 40
0.0
 40
1.0
 40
1.0
 40
1.0
 40
1.0
 10
158.443638164317
 20
113.7579632832488
 30
0.0
 10
158.6039658002733
 20
113.8009230164093
 30
0.0
 10
158.7644484328098
 20
113.8439242702662
 30
0.0
 10
158.9260921382293
 20
113.8872366098267
 30
0.0
  0
SPLINE
  5
36F
330
1F
100
AcDbEntity
  8
0
  6
Continuous
 62
     7
370
    30
100
AcDbSpline
210
0.0
220
0.0
230
1.0
 70
     8
 71
     3
 72
     8
 73
     4
 74
     0
 42
0.000000001
 43
0.00000001
 40
0.0
 40
0.0
 40
0.0
 40
0.0
 40
1.0
 40
1.0
 40
1.0
 40
1.0
 10
158.9260921100773
 20
113.8872372139157
 30
0.0
 10
159.0230260051771
 20
113.6979539360115
 30
0.0
 10
159.1037178169851
 20
113.4958438195804
 30
0.0
 10
159.1668449487515
 20
113.2845484535288
 30
0.0
  0
SPLINE
  5
370
330
1F
100
AcDbEntity
  8
0
  6
Continuous
 62
     7
370
    30
100
AcDbSpline
210
0.0
220
0.0
230
1.0
 70
     8
 71
     3
 72
     8
 73
     4
 74
     0
 42
0.000000001
 43
0.00000001
 40
0.0
 40
0.0
 40
0.0
 40
0.0
 40
1.0
 40
1.0
 40
1.0
 40
1.0
 10
147.2078297981287
 20
116.488981661466
 30
0.0
 10
147.3681894729366
 20
116.6404443555203
 30
0.0
 10
147.5393717313825
 20
116.7752665274883
 30
0.0
 10
147.717658735655
 20
116.8905278115164
 30
0.0
  0
SPLINE
  5
371
330
1F
100
AcDbEntity
  8
0
  6
Continuous
 62
     7
370
    30
100
AcDbSpline
210
0.0
220
0.0
230
1.0
 70
     8
 71
     3
 72
     8
 73
     4
 74
     0
 42
0.000000001
 43
0.00000001
 40
0.0
 40
0.0
 40
0.0
 40
0.0
 40
1.0
 40
1.0
 40
1.0
 40
1.0
 10
148.0708392723959
 20
116.5373465322429
 30
0.0
 10
147.9534706927892
 20
116.6547150127005
 30
0.0
 10
147.8359890983131
 20
116.7721965223892
 30
0.0
 10
147.7176583030529
 20
116.8905272640576
 30
0.0
  0
SPLINE
  5
372
330
1F
100
AcDbEntity
  8
0
  6
Continuous
 62
     7
370
    30
100
AcDbSpline
210
0.0
220
0.0
230
1.0
 70
     8
 71
     3
 72
    10
 73
     6
 74
     0
 42
0.000000001
 43
0.00000001
 40
0.0
 40
0.0
 40
0.0
 40
0.0
 40
0.5
 40
0.5
 40
1.0
 40
1.0
 40
1.0
 40
1.0
 10
146.4661623359651
 20
113.7579655166539
 30
0.0
 10
146.6016281617954
 20
114.2635578526239
 30
0.0
 10
146.8102032566473
 20
114.7762378396825
 30
0.0
 10
147.3601354877084
 20
115.7290396671437
 30
0.0
 10
147.6999992376832
 20
116.1664663722792
 30
0.0
 10
148.070835797056
 20
116.5373524587574
 30
0.0
  0
SPLINE
  5
373
330
1F
100
AcDbEntity
  8
0
  6
Continuous
 62
     7
370
    30
100
AcDbSpline
210
0.0
220
0.0
230
1.0
 70
     8
 71
     3
 72
     8
 73
     4
 74
     0
 42
0.000000001
 43
0.00000001
 40
0.0
 40
0.0
 40
0.0
 40
0.0
 40
1.0
 40
1.0
 40
1.0
 40
1.0
 10
145.9837075948633
 20
113.8872364585236
 30
0.0
 10
146.1452500323743
 20
113.8439513320449
 30
0.0
 10
146.3058371652405
 20
113.8009222015126
 30
0.0
 10
146.466161686366
 20
113.7579634481714
 30
0.0
  0
SPLINE
  5
374
330
1F
100
AcDbEntity
  8
0
  6
Continuous
 62
     7
370
    30
100
AcDbSpline
210
0.0
220
0.0
230
1.0
 70
     8
 71
     3
 72
     8
 73
     4
 74
     0
 42
0.000000001
 43
0.00000001
 40
0.0
 40
0.0
 40
0.0
 40
0.0
 40
1.0
 40
1.0
 40
1.0
 40
1.0
 10
145.9837073177855
 20
113.887235921203
 30
0.0
 10
145.9944017420977
 20
114.0996270080029
 30
0.0
 10
146.0255756446743
 20
114.315005411723
 30
0.0
 10
146.0765536244992
 20
114.5295561191013
 30
0.0
  0
SPLINE
  5
375
330
1F
100
AcDbEntity
  8
0
  6
Continuous
 62
     7
370
    30
100
AcDbSpline
210
0.0
220
0.0
230
1.0
 70
     8
 71
     3
 72
     8
 73
     4
 74
     0
 42
0.000000001
 43
0.00000001
 40
0.0
 40
0.0
 40
0.0
 40
0.0
 40
1.0
 40
1.0
 40
1.0
 40
1.0
 10
157.7019699759681
 20
107.8175899203732
 30
0.0
 10
157.5416103007249
 20
107.6661272258984
 30
0.0
 10
157.3704280426384
 20
107.531305054272
 30
0.0
 10
157.1921410384322
 20
107.4160437702991
 30
0.0
  0
SPLINE
  5
376
330
1F
100
AcDbEntity
  8
0
  6
Continuous
 62
     7
370
    30
100
AcDbSpline
210
0.0
220
0.0
230
1.0
 70
     8
 71
     3
 72
     8
 73
     4
 74
     0
 42
0.000000001
 43
0.00000001
 40
0.0
 40
0.0
 40
0.0
 40
0.0
 40
1.0
 40
1.0
 40
1.0
 40
1.0
 10
156.8389605016885
 20
107.7692250495804
 30
0.0
 10
156.9563290812945
 20
107.6518565691234
 30
0.0
 10
157.0738106757691
 20
107.5343750594363
 30
0.0
 10
157.1921414710316
 20
107.4160443177657
 30
0.0
  0
SPLINE
  5
377
330
1F
100
AcDbEntity
  8
0
  6
Continuous
 62
     7
370
    30
100
AcDbSpline
210
0.0
220
0.0
230
1.0
 70
     8
 71
     3
 72
    10
 73
     6
 74
     0
 42
0.000000001
 43
0.00000001
 40
0.0
 40
0.0
 40
0.0
 40
0.0
 40
0.5
 40
0.5
 40
1.0
 40
1.0
 40
1.0
 40
1.0
 10
158.4436374381193
 20
110.5486060651693
 30
0.0
 10
158.3081716122891
 20
110.0430137291993
 30
0.0
 10
158.0995965174373
 20
109.530333742141
 30
0.0
 10
157.5496642863762
 20
108.5775319146797
 30
0.0
 10
157.2098005364014
 20
108.1401052095442
 30
0.0
 10
156.8389639770284
 20
107.7692191230659
 30
0.0
  0
SPLINE
  5
378
330
1F
100
AcDbEntity
  8
0
  6
Continuous
 62
     7
370
    30
100
AcDbSpline
210
0.0
220
0.0
230
1.0
 70
     8
 71
     3
 72
     8
 73
     4
 74
     0
 42
0.000000001
 43
0.00000001
 40
0.0
 40
0.0
 40
0.0
 40
0.0
 40
1.0
 40
1.0
 40
1.0
 40
1.0
 10
158.9260924563001
 20
110.4193356606204
 30
0.0
 10
158.9153980320048
 20
110.2069445740572
 30
0.0
 10
158.8842241294892
 20
109.9915661703786
 30
0.0
 10
158.8332461496006
 20
109.7770154627469
 30
0.0
  0
SPLINE
  5
379
330
1F
100
AcDbEntity
  8
0
  6
Continuous
 62
     7
370
    30
100
AcDbSpline
210
0.0
220
0.0
230
1.0
 70
     8
 71
     3
 72
     8
 73
     4
 74
     0
 42
0.000000001
 43
0.00000001
 40
0.0
 40
0.0
 40
0.0
 40
0.0
 40
1.0
 40
1.0
 40
1.0
 40
1.0
 10
156.7905957575806
 20
117.4003558798376
 30
0.0
 10
156.9420584520554
 20
117.2399962045943
 30
0.0
 10
157.0768806236818
 20
117.0688139465078
 30
0.0
 10
157.1921419076548
 20
116.8905269423016
 30
0.0
  0
SPLINE
  5
37A
330
1F
100
AcDbEntity
  8
0
  6
Continuous
 62
     7
370
    30
100
AcDbSpline
210
0.0
220
0.0
230
1.0
 70
     8
 71
     3
 72
     8
 73
     4
 74
     0
 42
0.000000001
 43
0.00000001
 40
0.0
 40
0.0
 40
0.0
 40
0.0
 40
1.0
 40
1.0
 40
1.0
 40
1.0
 10
156.8389606283734
 20
116.5373464055579
 30
0.0
 10
156.9563291088299
 20
116.6547149851634
 30
0.0
 10
157.0738106185183
 20
116.7721965796393
 30
0.0
 10
157.1921413601882
 20
116.890527374901
 30
0.0
  0
SPLINE
  5
37B
330
1F
100
AcDbEntity
  8
0
  6
Continuous
 62
     7
370
    30
100
AcDbSpline
210
0.0
220
0.0
230
1.0
 70
     8
 71
     3
 72
    15
 73
    11
 74
     0
 42
0.000000001
 43
0.00000001
 40
0.0
 40
0.0
 40
0.0
 40
0.0
 40
0.0465950849465854
 40
0.2016154746309673
 40
0.3567500011766198
 40
0.511964965575749
 40
0.6339235243890438
 40
0.756024849282635
 40
0.8779504059474059
 40
1.0
 40
1.0
 40
1.0
 40
1.0
 10
154.3576002888848
 20
118.0505744672629
 30
0.0
 10
154.4002509329398
 20
118.0378340135531
 30
0.0
 10
154.584798935252
 20
117.9827064689922
 30
0.0
 10
154.9097492812211
 20
117.8511713478395
 30
0.0
 10
155.3255177020085
 20
117.6555894525219
 30
0.0
 10
155.6986593973512
 20
117.4423207812916
 30
0.0
 10
156.0283585906034
 20
117.2242654310909
 30
0.0
 10
156.3159271399759
 20
117.0084162787787
 30
0.0
 10
156.588706564783
 20
116.7796847861104
 30
0.0
 10
156.7555181397851
 20
116.6181555736106
 30
0.0
 10
156.8389663309325
 20
116.5373499064955
 30
0.0
  0
SPLINE
  5
37C
330
1F
100
AcDbEntity
  8
0
  6
Continuous
 62
     7
370
    30
100
AcDbSpline
210
0.0
220
0.0
230
1.0
 70
     8
 71
     3
 72
     9
 73
     5
 74
     0
 42
0.000000001
 43
0.00000001
 40
0.0
 40
0.0
 40
0.0
 40
0.0
 40
0.0221255396111803
 40
1.0
 40
1.0
 40
1.0
 40
1.0
 10
154.5414291624446
 20
118.5880225642833
 30
0.0
 10
154.543555172544
 20
118.5878049906397
 30
0.0
 10
154.6396436809713
 20
118.5779713934718
 30
0.0
 10
154.7364781654292
 20
118.5545424647471
 30
0.0
 10
154.8311701346655
 20
118.5316319137129
 30
0.0
  0
SPLINE
  5
37D
330
1F
100
AcDbEntity
  8
0
  6
Continuous
 62
     7
370
    30
100
AcDbSpline
210
0.0
220
0.0
230
1.0
 70
     8
 71
     3
 72
     8
 73
     4
 74
     0
 42
0.000000001
 43
0.00000001
 40
0.0
 40
0.0
 40
0.0
 40
0.0
 40
1.0
 40
1.0
 40
1.0
 40
1.0
 10
148.1192040165205
 20
106.9062157019681
 30
0.0
 10
147.9677413220389
 20
107.0665753772164
 30
0.0
 10
147.8329191504068
 20
107.2377576353089
 30
0.0
 10
147.7176578664297
 20
107.4160446395217
 30
0.0
  0
SPLINE
  5
37E
330
1F
100
AcDbEntity
  8
0
  6
Continuous
 62
     7
370
    30
100
AcDbSpline
210
0.0
220
0.0
230
1.0
 70
     8
 71
     3
 72
     8
 73
     4
 74
     0
 42
0.000000001
 43
0.00000001
 40
0.0
 40
0.0
 40
0.0
 40
0.0
 40
1.0
 40
1.0
 40
1.0
 40
1.0
 10
148.070839145711
 20
107.7692251762653
 30
0.0
 10
147.9534706652555
 20
107.6518565966607
 30
0.0
 10
147.8359891555674
 20
107.5343750021852
 30
0.0
 10
147.7176584138963
 20
107.4160442069223
 30
0.0
  0
SPLINE
  5
37F
330
1F
100
AcDbEntity
  8
0
  6
Continuous
 62
     7
370
    30
100
AcDbSpline
210
0.0
220
0.0
230
1.0
 70
     8
 71
     3
 72
    15
 73
    11
 74
     0
 42
0.000000001
 43
0.00000001
 40
0.0
 40
0.0
 40
0.0
 40
0.0
 40
0.0466389676859073
 40
0.2016522221864416
 40
0.3567796082948247
 40
0.5119874285543402
 40
0.6339403739335525
 40
0.7560360788219115
 40
0.8779560235716026
 40
0.9999999999999999
 40
0.9999999999999999
 40
0.9999999999999999
 40
0.9999999999999999
 10
150.5523256794085
 20
106.2559579990122
 30
0.0
 10
150.5096329496524
 20
106.2687109172323
 30
0.0
 10
150.325043018664
 20
106.3238505231465
 30
0.0
 10
150.0000503964061
 20
106.4553993269297
 30
0.0
 10
149.5842820981511
 20
106.650982374504
 30
0.0
 10
149.2111403713905
 20
106.8642507502904
 30
0.0
 10
148.881441184766
 20
107.0823061628156
 30
0.0
 10
148.5938726337663
 20
107.298155299826
 30
0.0
 10
148.321093209387
 20
107.526886796518
 30
0.0
 10
148.1542816343279
 20
107.6884160084811
 30
0.0
 10
148.0708334431519
 20
107.7692216753277
 30
0.0
  0
SPLINE
  5
380
330
1F
100
AcDbEntity
  8
0
  6
Continuous
 62
     7
370
    30
100
AcDbSpline
210
0.0
220
0.0
230
1.0
 70
     8
 71
     3
 72
     9
 73
     5
 74
     0
 42
0.000000001
 43
0.00000001
 40
0.0
 40
0.0
 40
0.0
 40
0.0
 40
0.0221255396111803
 40
1.0
 40
1.0
 40
1.0
 40
1.0
 10
150.3683706116398
 20
105.7185490175399
 30
0.0
 10
150.3662446015404
 20
105.7187665911836
 30
0.0
 10
150.2701560931131
 20
105.7286001883514
 30
0.0
 10
150.1733216086552
 20
105.7520291170761
 30
0.0
 10
150.0786296394189
 20
105.7749396681103
 30
0.0
  0
SPLINE
  5
381
330
1F
100
AcDbEntity
  8
0
  6
Continuous
 62
     7
370
    30
100
AcDbSpline
210
0.0
220
0.0
230
1.0
 70
     8
 71
     3
 72
     8
 73
     4
 74
     0
 42
0.000000001
 43
0.00000001
 40
0.0
 40
0.0
 40
0.0
 40
0.0
 40
1.0
 40
1.0
 40
1.0
 40
1.0
 10
154.8311479446787
 20
105.7749279796636
 30
0.0
 10
154.6165410306522
 20
105.7239372725884
 30
0.0
 10
154.4008817715512
 20
105.6927689788743
 30
0.0
 10
154.188850057664
 20
105.6820932813688
 30
0.0
  0
SPLINE
  5
382
330
1F
100
AcDbEntity
  8
0
  6
Continuous
 62
     7
370
    30
100
AcDbSpline
210
0.0
220
0.0
230
1.0
 70
     8
 71
     3
 72
     8
 73
     4
 74
     0
 42
0.000000001
 43
0.00000001
 40
0.0
 40
0.0
 40
0.0
 40
0.0
 40
1.0
 40
1.0
 40
1.0
 40
1.0
 10
154.0595773793794
 20
106.1645475136369
 30
0.0
 10
154.1025371125401
 20
106.0042198776799
 30
0.0
 10
154.1455383663965
 20
105.8437372451452
 30
0.0
 10
154.1888507059573
 20
105.6820935397246
 30
0.0
  0
SPLINE
  5
383
330
1F
100
AcDbEntity
  8
0
  6
Continuous
 62
     7
370
    30
100
AcDbSpline
210
0.0
220
0.0
230
1.0
 70
     8
 71
     3
 72
    10
 73
     6
 74
     0
 42
0.000000001
 43
0.00000001
 40
0.0
 40
0.0
 40
0.0
 40
0.0
 40
0.5
 40
0.5
 40
1.0
 40
1.0
 40
1.0
 40
1.0
 10
156.8389588746908
 20
107.7692236085299
 30
0.0
 10
156.4688460221287
 20
107.3991008668279
 30
0.0
 10
156.0318751611082
 20
107.0593948042832
 30
0.0
 10
155.0792188150884
 20
106.5092100935993
 30
0.0
 10
154.5661759187918
 20
106.3003195639612
 30
0.0
 10
154.059577428303
 20
106.1645406514616
 30
0.0
  0
SPLINE
  5
384
330
1F
100
AcDbEntity
  8
0
  6
Continuous
 62
     7
370
    30
100
AcDbSpline
210
0.0
220
0.0
230
1.0
 70
     8
 71
     3
 72
     8
 73
     4
 74
     0
 42
0.000000001
 43
0.00000001
 40
0.0
 40
0.0
 40
0.0
 40
0.0
 40
1.0
 40
1.0
 40
1.0
 40
1.0
 10
157.1921419797422
 20
107.4160446445201
 30
0.0
 10
157.0766847971661
 20
107.237455785675
 30
0.0
 10
156.9419982061082
 20
107.0665195682787
 30
0.0
 10
156.7905746213742
 20
106.9062021896273
 30
0.0
  0
SPLINE
  5
385
330
1F
100
AcDbEntity
  8
0
  6
Continuous
 62
     7
370
    30
100
AcDbSpline
210
0.0
220
0.0
230
1.0
 70
     8
 71
     3
 72
     8
 73
     4
 74
     0
 42
0.000000001
 43
0.00000001
 40
0.0
 40
0.0
 40
0.0
 40
0.0
 40
1.0
 40
1.0
 40
1.0
 40
1.0
 10
158.8332576982902
 20
114.5295338485482
 30
0.0
 10
158.8842484053654
 20
114.3149269345217
 30
0.0
 10
158.9154166990796
 20
114.0992676754207
 30
0.0
 10
158.9260923965851
 20
113.8872359615333
 30
0.0
  0
SPLINE
  5
386
330
1F
100
AcDbEntity
  8
0
  6
Continuous
 62
     7
370
    30
100
AcDbSpline
210
0.0
220
0.0
230
1.0
 70
     8
 71
     3
 72
    10
 73
     6
 74
     0
 42
0.000000001
 43
0.00000001
 40
0.0
 40
0.0
 40
0.0
 40
0.0
 40
0.5
 40
0.5
 40
1.0
 40
1.0
 40
1.0
 40
1.0
 10
156.838962069424
 20
116.5373447785602
 30
0.0
 10
157.2090848111261
 20
116.167231925998
 30
0.0
 10
157.548790873671
 20
115.7302610649773
 30
0.0
 10
158.0989755843548
 20
114.7776047189572
 30
0.0
 10
158.3078661139927
 20
114.2645618226611
 30
0.0
 10
158.4436450264923
 20
113.7579633321724
 30
0.0
  0
SPLINE
  5
387
330
1F
100
AcDbEntity
  8
0
  6
Continuous
 62
     7
370
    30
100
AcDbSpline
210
0.0
220
0.0
230
1.0
 70
     8
 71
     3
 72
     8
 73
     4
 74
     0
 42
0.000000001
 43
0.00000001
 40
0.0
 40
0.0
 40
0.0
 40
0.0
 40
1.0
 40
1.0
 40
1.0
 40
1.0
 10
157.1921410334338
 20
116.8905278836116
 30
0.0
 10
157.370729892278
 20
116.775070701036
 30
0.0
 10
157.5416661096734
 20
116.6403841099789
 30
0.0
 10
157.7019834883241
 20
116.4889605252459
 30
0.0
  0
SPLINE
  5
388
330
1F
100
AcDbEntity
  8
0
  6
Continuous
 62
     7
370
    30
100
AcDbSpline
210
0.0
220
0.0
230
1.0
 70
     8
 71
     3
 72
     8
 73
     4
 74
     0
 42
0.000000001
 43
0.00000001
 40
0.0
 40
0.0
 40
0.0
 40
0.0
 40
1.0
 40
1.0
 40
1.0
 40
1.0
 10
150.0786518293821
 20
118.531643602154
 30
0.0
 10
150.2932587434163
 20
118.5826343092325
 30
0.0
 10
150.5089180025254
 20
118.6138026029486
 30
0.0
 10
150.7209497164205
 20
118.6244783004545
 30
0.0
  0
SPLINE
  5
389
330
1F
100
AcDbEntity
  8
0
  6
Continuous
 62
     7
370
    30
100
AcDbSpline
210
0.0
220
0.0
230
1.0
 70
     8
 71
     3
 72
     8
 73
     4
 74
     0
 42
0.000000001
 43
0.00000001
 40
0.0
 40
0.0
 40
0.0
 40
0.0
 40
1.0
 40
1.0
 40
1.0
 40
1.0
 10
150.8502223947051
 20
118.1420240681864
 30
0.0
 10
150.8072626615443
 20
118.3023517041437
 30
0.0
 10
150.7642614076881
 20
118.4628343366776
 30
0.0
 10
150.7209490681271
 20
118.6244780420986
 30
0.0
  0
SPLINE
  5
38A
330
1F
100
AcDbEntity
  8
0
  6
Continuous
 62
     7
370
    30
100
AcDbSpline
210
0.0
220
0.0
230
1.0
 70
     8
 71
     3
 72
    10
 73
     6
 74
     0
 42
0.000000001
 43
0.00000001
 40
0.0
 40
0.0
 40
0.0
 40
0.0
 40
0.5
 40
0.5
 40
1.0
 40
1.0
 40
1.0
 40
1.0
 10
148.0708408993937
 20
116.5373479732934
 30
0.0
 10
148.4409537519558
 20
116.9074707149954
 30
0.0
 10
148.8779246129764
 20
117.2471767775402
 30
0.0
 10
149.8305809589962
 20
117.7973614882239
 30
0.0
 10
150.3436238552927
 20
118.0062520178621
 30
0.0
 10
150.8502223457814
 20
118.1420309303617
 30
0.0
  0
SPLINE
  5
38B
330
1F
100
AcDbEntity
  8
0
  6
Continuous
 62
     7
370
    30
100
AcDbSpline
210
0.0
220
0.0
230
1.0
 70
     8
 71
     3
 72
     8
 73
     4
 74
     0
 42
0.000000001
 43
0.00000001
 40
0.0
 40
0.0
 40
0.0
 40
0.0
 40
1.0
 40
1.0
 40
1.0
 40
1.0
 10
147.7176577943422
 20
116.8905269373032
 30
0.0
 10
147.8331149769184
 20
117.0691157961483
 30
0.0
 10
147.9678015679764
 20
117.2400520135446
 30
0.0
 10
148.1192251527103
 20
117.400369392196
 30
0.0
  0
SPLINE
  5
38C
330
1F
100
AcDbEntity
  8
0
  6
Continuous
 62
     7
370
    30
100
AcDbSpline
210
0.0
220
0.0
230
1.0
 70
     8
 71
     3
 72
     8
 73
     4
 74
     0
 42
0.000000001
 43
0.00000001
 40
0.0
 40
0.0
 40
0.0
 40
0.0
 40
1.0
 40
1.0
 40
1.0
 40
1.0
 10
146.0765420757998
 20
109.7770377332515
 30
0.0
 10
146.0255513687213
 20
109.9916446472857
 30
0.0
 10
145.9943830750053
 20
110.2073039063948
 30
0.0
 10
145.9837073774994
 20
110.4193356202899
 30
0.0
  0
SPLINE
  5
38D
330
1F
100
AcDbEntity
  8
0
  6
Continuous
 62
     7
370
    30
100
AcDbSpline
210
0.0
220
0.0
230
1.0
 70
     8
 71
     3
 72
     8
 73
     4
 74
     0
 42
0.000000001
 43
0.00000001
 40
0.0
 40
0.0
 40
0.0
 40
0.0
 40
1.0
 40
1.0
 40
1.0
 40
1.0
 10
146.4661616097675
 20
110.5486082985745
 30
0.0
 10
146.3058339738123
 20
110.5056485654142
 30
0.0
 10
146.1453513412778
 20
110.4626473115579
 30
0.0
 10
145.9837076358552
 20
110.4193349719965
 30
0.0
  0
SPLINE
  5
38E
330
1F
100
AcDbEntity
  8
0
  6
Continuous
 62
     7
370
    30
100
AcDbSpline
210
0.0
220
0.0
230
1.0
 70
     8
 71
     3
 72
    10
 73
     6
 74
     0
 42
0.000000001
 43
0.00000001
 40
0.0
 40
0.0
 40
0.0
 40
0.0
 40
0.5
 40
0.5
 40
1.0
 40
1.0
 40
1.0
 40
1.0
 10
148.0708377046605
 20
107.7692268032631
 30
0.0
 10
147.7007149629584
 20
108.1393396558252
 30
0.0
 10
147.3610089004137
 20
108.5763105168457
 30
0.0
 10
146.8108241897298
 20
109.5289668628657
 30
0.0
 10
146.6019336600918
 20
110.0420097591621
 30
0.0
 10
146.4661547475922
 20
110.5486082496508
 30
0.0
  0
SPLINE
  5
38F
330
1F
100
AcDbEntity
  8
0
  6
Continuous
 62
     7
370
    30
100
AcDbSpline
210
0.0
220
0.0
230
1.0
 70
     8
 71
     3
 72
     8
 73
     4
 74
     0
 42
0.000000001
 43
0.00000001
 40
0.0
 40
0.0
 40
0.0
 40
0.0
 40
1.0
 40
1.0
 40
1.0
 40
1.0
 10
147.7176587406506
 20
107.4160436982116
 30
0.0
 10
147.5390698818065
 20
107.5315008807872
 30
0.0
 10
147.3681336644111
 20
107.6661874718443
 30
0.0
 10
147.2078162857603
 20
107.8176110565774
 30
0.0
  0
SPLINE
  5
390
330
1F
100
AcDbEntity
  8
0
  6
Continuous
 62
     7
370
    30
100
AcDbSpline
210
0.0
220
0.0
230
1.0
 70
     8
 71
     3
 72
     8
 73
     4
 74
     0
 42
0.000000001
 43
0.00000001
 40
0.0
 40
0.0
 40
0.0
 40
0.0
 40
1.0
 40
1.0
 40
1.0
 40
1.0
 10
145.7429559592042
 20
113.2845735125619
 30
0.0
 10
145.8061001715841
 20
113.4959239160978
 30
0.0
 10
145.8869372647617
 20
113.6982744517433
 30
0.0
 10
145.9837076956194
 20
113.8872371490925
 30
0.0
  0
SPLINE
  5
391
330
1F
100
AcDbEntity
  8
0
  6
Continuous
 62
     7
370
    30
100
AcDbSpline
210
0.0
220
0.0
230
1.0
 70
     8
 71
     3
 72
    10
 73
     6
 74
     0
 42
0.000000001
 43
0.00000001
 40
0.0
 40
0.0
 40
0.0
 40
0.0
 40
0.5
 40
0.5
 40
1.0
 40
1.0
 40
1.0
 40
1.0
 10
146.4661611739436
 20
110.5486104304277
 30
0.0
 10
146.3306819425369
 20
111.054198767476
 30
0.0
 10
146.2549733033551
 20
111.6024792472315
 30
0.0
 10
146.2548274385974
 20
112.702596391676
 30
0.0
 10
146.3304441143835
 20
113.25134901297
 30
0.0
 10
146.466155696187
 20
113.7579668395087
 30
0.0
  0
SPLINE
  5
392
330
1F
100
AcDbEntity
  8
0
  6
Continuous
 62
     7
370
    30
100
AcDbSpline
210
0.0
220
0.0
230
1.0
 70
     8
 71
     3
 72
     8
 73
     4
 74
     0
 42
0.000000001
 43
0.00000001
 40
0.0
 40
0.0
 40
0.0
 40
0.0
 40
1.0
 40
1.0
 40
1.0
 40
1.0
 10
145.9837076640081
 20
110.4193343679081
 30
0.0
 10
145.8867737688051
 20
110.6086176460248
 30
0.0
 10
145.8060819570295
 20
110.8107277625213
 30
0.0
 10
145.7429548253347
 20
111.0220231283204
 30
0.0
  0
LINE
  5
393
330
1F
100
AcDbEntity
  8
0
  6
Continuous
 62
     7
370
    30
100
AcDbLine
 10
151.3236121111
 20
105.4413417845
 30
0.0
 11
151.045193111
 21
105.5398920111
 31
0.0
  0
SPLINE
  5
394
330
1F
100
AcDbEntity
  8
0
  6
Continuous
 62
     7
370
    30
100
AcDbSpline
210
0.0
220
0.0
230
1.0
 70
     8
 71
     3
 72
    15
 73
    11
 74
     0
 42
0.000000001
 43
0.00000001
 40
0.0
 40
0.0
 40
0.0
 40
0.0
 40
0.1552801100074358
 40
0.3104170069043714
 40
0.4656680070690658
 40
0.6209997838650332
 40
0.7430499842357704
 40
0.8652434377060866
 40
0.9872605763632932
 40
1.0
 40
1.0
 40
1.0
 40
1.0
 10
154.0595752023627
 20
106.1645472913298
 30
0.0
 10
153.9159268499598
 20
106.1291802245305
 30
0.0
 10
153.6287626304245
 20
106.0584787095825
 30
0.0
 10
153.1784102375057
 20
105.9903373439576
 30
0.0
 10
152.7198683488336
 20
105.9530912620648
 30
0.0
 10
152.2903177532951
 20
105.9509992114754
 30
0.0
 10
151.8955385320588
 20
105.974720158051
 30
0.0
 10
151.5392415760384
 20
106.0190528784289
 30
0.0
 10
151.2916064982163
 20
106.059176250597
 30
0.0
 10
151.166677953035
 20
106.0892194776423
 30
0.0
 10
151.154867636459
 20
106.0920596613798
 30
0.0
  0
SPLINE
  5
395
330
1F
100
AcDbEntity
  8
0
  6
Continuous
 62
     7
370
    30
100
AcDbSpline
210
0.0
220
0.0
230
1.0
 70
     8
 71
     3
 72
     8
 73
     4
 74
     0
 42
0.000000001
 43
0.00000001
 40
0.0
 40
0.0
 40
0.0
 40
0.0
 40
1.0
 40
1.0
 40
1.0
 40
1.0
 10
154.1888513100463
 20
105.6820935678765
 30
0.0
 10
153.9995680321421
 20
105.5851596727768
 30
0.0
 10
153.797457915711
 20
105.5044678609687
 30
0.0
 10
153.5861625496594
 20
105.4413407292024
 30
0.0
  0
LINE
  5
396
330
1F
100
AcDbEntity
  8
0
  6
Continuous
 62
     7
370
    30
100
AcDbLine
 10
153.586187663
 20
118.8652297973
 30
0.0
 11
153.8646066631
 21
118.7666795708
 31
0.0
  0
SPLINE
  5
397
330
1F
100
AcDbEntity
  8
0
  6
Continuous
 62
     7
370
    30
100
AcDbSpline
210
0.0
220
0.0
230
1.0
 70
     8
 71
     3
 72
    15
 73
    11
 74
     0
 42
0.000000001
 43
0.00000001
 40
0.0
 40
0.0
 40
0.0
 40
0.0
 40
0.1552801100074358
 40
0.3104170069043714
 40
0.4656680070690658
 40
0.6209997838650332
 40
0.7430499842357704
 40
0.8652434377060866
 40
0.9872605763632932
 40
1.0
 40
1.0
 40
1.0
 40
1.0
 10
150.8502245717217
 20
118.1420242904934
 30
0.0
 10
150.9938729241246
 20
118.1773913572927
 30
0.0
 10
151.2810371436599
 20
118.2480928722408
 30
0.0
 10
151.7313895365788
 20
118.3162342378657
 30
0.0
 10
152.1899314252508
 20
118.3534803197584
 30
0.0
 10
152.6194820207893
 20
118.3555723703479
 30
0.0
 10
153.0142612420257
 20
118.3318514237723
 30
0.0
 10
153.370558198046
 20
118.2875187033943
 30
0.0
 10
153.6181932758681
 20
118.2473953312263
 30
0.0
 10
153.7431218210494
 20
118.2173521041809
 30
0.0
 10
153.7549321376254
 20
118.2145119204435
 30
0.0
  0
SPLINE
  5
398
330
1F
100
AcDbEntity
  8
0
  6
Continuous
 62
     7
370
    30
100
AcDbSpline
210
0.0
220
0.0
230
1.0
 70
     8
 71
     3
 72
     8
 73
     4
 74
     0
 42
0.000000001
 43
0.00000001
 40
0.0
 40
0.0
 40
0.0
 40
0.0
 40
1.0
 40
1.0
 40
1.0
 40
1.0
 10
150.7209484640381
 20
118.6244780139467
 30
0.0
 10
150.9102317419433
 20
118.721411909047
 30
0.0
 10
151.1123418583756
 20
118.8021037208554
 30
0.0
 10
151.3236372244284
 20
118.8652308526218
 30
0.0
  0
CIRCLE
  5
399
330
1F
100
AcDbEntity
  8
0
  6
Continuous
 62
     7
370
    30
100
AcDbCircle
 10
152.454899887
 20
112.1532857909
 30
0.0
 40
7.032069396699683
  0
ARC
  5
39A
330
1F
100
AcDbEntity
  8
0
  6
Continuous
 62
     7
370
    30
100
AcDbCircle
 10
152.454899887
 20
112.1532857909
 30
0.0
 40
6.806614430096662
100
AcDbArc
 50
69.5669892082
 51
80.4328061059
  0
ARC
  5
39B
330
1F
100
AcDbEntity
  8
0
  6
Continuous
 62
     7
370
    30
100
AcDbCircle
 10
152.454899887
 20
112.1532857909
 30
0.0
 40
6.806614430096655
100
AcDbArc
 50
99.5669892225
 51
110.4328061027
  0
ARC
  5
39C
330
1F
100
AcDbEntity
  8
0
  6
Continuous
 62
     7
370
    30
100
AcDbCircle
 10
152.454899887
 20
112.1532857909
 30
0.0
 40
6.806614430096666
100
AcDbArc
 50
129.5669892162
 51
140.4328060981
  0
ARC
  5
39D
330
1F
100
AcDbEntity
  8
0
  6
Continuous
 62
     7
370
    30
100
AcDbCircle
 10
152.454899887
 20
112.1532857909
 30
0.0
 40
6.806614430096666
100
AcDbArc
 50
159.5669892079
 51
170.4328061056
  0
ARC
  5
39E
330
1F
100
AcDbEntity
  8
0
  6
Continuous
 62
     7
370
    30
100
AcDbCircle
 10
152.454899887
 20
112.1532857909
 30
0.0
 40
6.806614430096654
100
AcDbArc
 50
189.5669892223
 51
200.4328061027
  0
ARC
  5
39F
330
1F
100
AcDbEntity
  8
0
  6
Continuous
 62
     7
370
    30
100
AcDbCircle
 10
152.454899887
 20
112.1532857909
 30
0.0
 40
6.806614430096656
100
AcDbArc
 50
219.5669892163
 51
230.4328060985
  0
ARC
  5
3A0
330
1F
100
AcDbEntity
  8
0
  6
Continuous
 62
     7
370
    30
100
AcDbCircle
 10
152.454899887
 20
112.1532857909
 30
0.0
 40
6.806614430096646
100
AcDbArc
 50
249.5669892082
 51
260.4328061056
  0
ARC
  5
3A1
330
1F
100
AcDbEntity
  8
0
  6
Continuous
 62
     7
370
    30
100
AcDbCircle
 10
152.454899887
 20
112.1532857909
 30
0.0
 40
6.806614430096659
100
AcDbArc
 50
279.5669892225
 51
290.4328061024
  0
ARC
  5
3A2
330
1F
100
AcDbEntity
  8
0
  6
Continuous
 62
     7
370
    30
100
AcDbCircle
 10
152.454899887
 20
112.1532857909
 30
0.0
 40
6.806614430096665
100
AcDbArc
 50
309.5669892162
 51
320.4328060983
  0
ARC
  5
3A3
330
1F
100
AcDbEntity
  8
0
  6
Continuous
 62
     7
370
    30
100
AcDbCircle
 10
152.454899887
 20
112.1532857909
 30
0.0
 40
6.806614430096679
100
AcDbArc
 50
339.5669892082
 51
350.4328061056
  0
ARC
  5
3A4
330
1F
100
AcDbEntity
  8
0
  6
Continuous
 62
     7
370
    30
100
AcDbCircle
 10
152.454899887
 20
112.1532857909
 30
0.0
 40
6.806614430096668
100
AcDbArc
 50
9.5670605672
 51
20.4328061024
  0
ARC
  5
3A5
330
1F
100
AcDbEntity
  8
0
  6
Continuous
 62
     7
370
    30
100
AcDbCircle
 10
152.454899887
 20
112.1532857909
 30
0.0
 40
6.806614430096674
100
AcDbArc
 50
39.5669892163
 51
50.4328060983
  0
SPLINE
  5
3A6
330
1F
100
AcDbEntity
  8
0
  6
Continuous
 62
     7
370
    30
100
AcDbSpline
210
0.0
220
0.0
230
1.0
 70
     8
 71
     3
 72
     8
 73
     4
 74
     0
 42
0.000000001
 43
0.00000001
 40
0.0
 40
0.0
 40
0.0
 40
0.0
 40
1.0
 40
1.0
 40
1.0
 40
1.0
 10
157.253039192734
 20
108.2267276029845
 30
0.0
 10
157.0754461682143
 20
108.0916275036991
 30
0.0
 10
156.8855560704166
 20
107.9870017821476
 30
0.0
 10
156.6912465059247
 20
107.9169392529887
 30
0.0
  0
SPLINE
  5
3A7
330
1F
100
AcDbEntity
  8
0
  6
Continuous
 62
     7
370
    30
100
AcDbSpline
210
0.0
220
0.0
230
1.0
 70
    24
 71
     3
 72
    10
 73
     6
 74
     0
 42
0.000000001
 43
0.00000001
 40
0.0
 40
0.0
 40
0.0
 40
0.0
 40
0.5
 40
0.5
 40
1.0
 40
1.0
 40
1.0
 40
1.0
 10
155.4247483686398
 20
109.183437309313
 30
0.0
 10
155.6146070424847
 20
108.9935786354682
 30
0.0
 10
155.8173131325512
 20
108.7908725454016
 30
0.0
 10
156.2424029666032
 20
108.3657827113497
 30
0.0
 10
156.4645850292169
 20
108.143600648736
 30
0.0
 10
156.6912465144115
 20
107.9169391635414
 30
0.0
  0
SPLINE
  5
3A8
330
1F
100
AcDbEntity
  8
0
  6
Continuous
 62
     7
370
    30
100
AcDbSpline
210
0.0
220
0.0
230
1.0
 70
     8
 71
     3
 72
    14
 73
    10
 74
     0
 42
0.000000001
 43
0.00000001
 40
0.0
 40
0.0
 40
0.0
 40
0.0
 40
0.2500000000000001
 40
0.2500000000000001
 40
0.5000000000000002
 40
0.5000000000000002
 40
0.7500000000000001
 40
0.7500000000000001
 40
1.0
 40
1.0
 40
1.0
 40
1.0
 10
156.5117883552182
 20
111.0662458029333
 30
0.0
 10
156.466981406457
 20
110.8990241831933
 30
0.0
 10
156.4102576057949
 20
110.7287635381825
 30
0.0
 10
156.2699296996774
 20
110.3870279275932
 30
0.0
 10
156.1864926359703
 20
110.2164855804862
 30
0.0
 10
155.996716154379
 20
109.8880006499937
 30
0.0
 10
155.8903546707536
 20
109.7301723116415
 30
0.0
 10
155.6653561806385
 20
109.4390939624395
 30
0.0
 10
155.5468262717694
 20
109.3055144335284
 30
0.0
 10
155.4247481600163
 20
109.1834371058852
 30
0.0
  0
SPLINE
  5
3A9
330
1F
100
AcDbEntity
  8
0
  6
Continuous
 62
     7
370
    30
100
AcDbSpline
210
0.0
220
0.0
230
1.0
 70
    24
 71
     3
 72
    10
 73
     6
 74
     0
 42
0.000000001
 43
0.00000001
 40
0.0
 40
0.0
 40
0.0
 40
0.0
 40
0.5
 40
0.5
 40
1.0
 40
1.0
 40
1.0
 40
1.0
 10
156.5117883736059
 20
111.0662457971535
 30
0.0
 10
156.7710732622895
 20
110.9967706206212
 30
0.0
 10
157.0484928042079
 20
110.9224362783995
 30
0.0
 10
157.6286962068663
 20
110.7669712452114
 30
0.0
 10
157.9326923547271
 20
110.6855157228899
 30
0.0
 10
158.2418569997687
 20
110.6026753059228
 30
0.0
  0
SPLINE
  5
3AA
330
1F
100
AcDbEntity
  8
0
  6
Continuous
 62
     7
370
    30
100
AcDbSpline
210
0.0
220
0.0
230
1.0
 70
     8
 71
     3
 72
     8
 73
     4
 74
     0
 42
0.000000001
 43
0.00000001
 40
0.0
 40
0.0
 40
0.0
 40
0.0
 40
1.0
 40
1.0
 40
1.0
 40
1.0
 10
158.2418569962623
 20
110.6026753051164
 30
0.0
 10
158.2783382144207
 20
110.3993565644538
 30
0.0
 10
158.2826301635623
 20
110.182273887972
 30
0.0
 10
158.2544686800705
 20
109.9612543552489
 30
0.0
  0
SPLINE
  5
3AB
330
1F
100
AcDbEntity
  8
0
  6
Continuous
 62
     7
370
    30
100
AcDbSpline
210
0.0
220
0.0
230
1.0
 70
     8
 71
     3
 72
     8
 73
     4
 74
     0
 42
0.000000001
 43
0.00000001
 40
0.0
 40
0.0
 40
0.0
 40
0.0
 40
1.0
 40
1.0
 40
1.0
 40
1.0
 10
147.6567605813497
 20
116.0798439788379
 30
0.0
 10
147.8343536058696
 20
116.2149440781234
 30
0.0
 10
148.0242437036674
 20
116.3195697996751
 30
0.0
 10
148.2185532681593
 20
116.389632328834
 30
0.0
  0
SPLINE
  5
3AC
330
1F
100
AcDbEntity
  8
0
  6
Continuous
 62
     7
370
    30
100
AcDbSpline
210
0.0
220
0.0
230
1.0
 70
    24
 71
     3
 72
    10
 73
     6
 74
     0
 42
0.000000001
 43
0.00000001
 40
0.0
 40
0.0
 40
0.0
 40
0.0
 40
0.5
 40
0.5
 40
1.0
 40
1.0
 40
1.0
 40
1.0
 10
148.2185532596726
 20
116.3896324182812
 30
0.0
 10
148.4452147448669
 20
116.1629709330869
 30
0.0
 10
148.6673968074801
 20
115.9407888704737
 30
0.0
 10
149.0924866415315
 20
115.5156990364223
 30
0.0
 10
149.2951927315984
 20
115.3129929463554
 30
0.0
 10
149.4850514054441
 20
115.1231342725097
 30
0.0
  0
SPLINE
  5
3AD
330
1F
100
AcDbEntity
  8
0
  6
Continuous
 62
     7
370
    30
100
AcDbSpline
210
0.0
220
0.0
230
1.0
 70
     8
 71
     3
 72
    14
 73
    10
 74
     0
 42
0.000000001
 43
0.00000001
 40
0.0
 40
0.0
 40
0.0
 40
0.0
 40
0.25
 40
0.25
 40
0.5
 40
0.5
 40
0.75
 40
0.75
 40
1.0
 40
1.0
 40
1.0
 40
1.0
 10
148.3980114188658
 20
113.2403257788894
 30
0.0
 10
148.442818367627
 20
113.4075473986294
 30
0.0
 10
148.499542168289
 20
113.57780804364
 30
0.0
 10
148.6398700744064
 20
113.9195436542292
 30
0.0
 10
148.7233071381131
 20
114.0900860013356
 30
0.0
 10
148.9130836197048
 20
114.4185709318288
 30
0.0
 10
149.0194451033301
 20
114.5763992701808
 30
0.0
 10
149.2444435934453
 20
114.8674776193831
 30
0.0
 10
149.3629735023145
 20
115.0010571482942
 30
0.0
 10
149.4850516140676
 20
115.1231344759375
 30
0.0
  0
SPLINE
  5
3AE
330
1F
100
AcDbEntity
  8
0
  6
Continuous
 62
     7
370
    30
100
AcDbSpline
210
0.0
220
0.0
230
1.0
 70
    24
 71
     3
 72
    10
 73
     6
 74
     0
 42
0.000000001
 43
0.00000001
 40
0.0
 40
0.0
 40
0.0
 40
0.0
 40
0.5
 40
0.5
 40
1.0
 40
1.0
 40
1.0
 40
1.0
 10
148.3980114004781
 20
113.2403257846692
 30
0.0
 10
148.1387265117937
 20
113.3098009612018
 30
0.0
 10
147.8613069698764
 20
113.3841353034231
 30
0.0
 10
147.2811035672182
 20
113.5396003366111
 30
0.0
 10
146.9771074193573
 20
113.6210558589327
 30
0.0
 10
146.6679427743157
 20
113.7038962758998
 30
0.0
  0
SPLINE
  5
3AF
330
1F
100
AcDbEntity
  8
0
  6
Continuous
 62
     7
370
    30
100
AcDbSpline
210
0.0
220
0.0
230
1.0
 70
     8
 71
     3
 72
     8
 73
     4
 74
     0
 42
0.000000001
 43
0.00000001
 40
0.0
 40
0.0
 40
0.0
 40
0.0
 40
1.0
 40
1.0
 40
1.0
 40
1.0
 10
146.6679427778223
 20
113.7038962767062
 30
0.0
 10
146.6314615596638
 20
113.907215017369
 30
0.0
 10
146.6271696105221
 20
114.1242976938513
 30
0.0
 10
146.655331094014
 20
114.3453172265746
 30
0.0
  0
SPLINE
  5
3B0
330
1F
100
AcDbEntity
  8
0
  6
Continuous
 62
     7
370
    30
100
AcDbSpline
210
0.0
220
0.0
230
1.0
 70
     8
 71
     3
 72
     8
 73
     4
 74
     0
 42
0.000000001
 43
0.00000001
 40
0.0
 40
0.0
 40
0.0
 40
0.0
 40
1.0
 40
1.0
 40
1.0
 40
1.0
 10
156.3814580749684
 20
116.9514250966042
 30
0.0
 10
156.516558174254
 20
116.7738320720843
 30
0.0
 10
156.6211838958056
 20
116.5839419742864
 30
0.0
 10
156.6912464249645
 20
116.3896324097946
 30
0.0
  0
SPLINE
  5
3B1
330
1F
100
AcDbEntity
  8
0
  6
Continuous
 62
     7
370
    30
100
AcDbSpline
210
0.0
220
0.0
230
1.0
 70
    24
 71
     3
 72
    10
 73
     6
 74
     0
 42
0.000000001
 43
0.00000001
 40
0.0
 40
0.0
 40
0.0
 40
0.0
 40
0.5
 40
0.5
 40
1.0
 40
1.0
 40
1.0
 40
1.0
 10
155.4247483686399
 20
115.1231342725097
 30
0.0
 10
155.6146070424851
 20
115.3129929463549
 30
0.0
 10
155.817313132552
 20
115.5156990364217
 30
0.0
 10
156.2424029666038
 20
115.9407888704736
 30
0.0
 10
156.4645850292172
 20
116.1629709330869
 30
0.0
 10
156.6912465144115
 20
116.3896324182812
 30
0.0
  0
SPLINE
  5
3B2
330
1F
100
AcDbEntity
  8
0
  6
Continuous
 62
     7
370
    30
100
AcDbSpline
210
0.0
220
0.0
230
1.0
 70
     8
 71
     3
 72
    14
 73
    10
 74
     0
 42
0.000000001
 43
0.00000001
 40
0.0
 40
0.0
 40
0.0
 40
0.0
 40
0.2499999999999997
 40
0.2499999999999997
 40
0.4999999999999997
 40
0.4999999999999997
 40
0.7499999999999998
 40
0.7499999999999998
 40
1.0
 40
1.0
 40
1.0
 40
1.0
 10
153.5419398750202
 20
116.2101742590875
 30
0.0
 10
153.7091614947604
 20
116.1653673103263
 30
0.0
 10
153.8794221397714
 20
116.1086435096641
 30
0.0
 10
154.2211577503609
 20
115.9683156035465
 30
0.0
 10
154.391700097468
 20
115.8848785398394
 30
0.0
 10
154.7201850279606
 20
115.6951020582479
 30
0.0
 10
154.8780133663124
 20
115.5887405746226
 30
0.0
 10
155.1690917155139
 20
115.363742084508
 30
0.0
 10
155.3026712444247
 20
115.2452121756391
 30
0.0
 10
155.4247485720677
 20
115.1231340638862
 30
0.0
  0
SPLINE
  5
3B3
330
1F
100
AcDbEntity
  8
0
  6
Continuous
 62
     7
370
    30
100
AcDbSpline
210
0.0
220
0.0
230
1.0
 70
    24
 71
     3
 72
    10
 73
     6
 74
     0
 42
0.000000001
 43
0.00000001
 40
0.0
 40
0.0
 40
0.0
 40
0.0
 40
0.5
 40
0.5
 40
1.0
 40
1.0
 40
1.0
 40
1.0
 10
153.5419398808
 20
116.2101742774752
 30
0.0
 10
153.6114150573334
 20
116.4694591661626
 30
0.0
 10
153.6857493995545
 20
116.7468787080789
 30
0.0
 10
153.8412144327423
 20
117.3270821107364
 30
0.0
 10
153.9226699550636
 20
117.6310782585966
 30
0.0
 10
154.0055103720306
 20
117.9402429036376
 30
0.0
  0
SPLINE
  5
3B4
330
1F
100
AcDbEntity
  8
0
  6
Continuous
 62
     7
370
    30
100
AcDbSpline
210
0.0
220
0.0
230
1.0
 70
     8
 71
     3
 72
     8
 73
     4
 74
     0
 42
0.000000001
 43
0.00000001
 40
0.0
 40
0.0
 40
0.0
 40
0.0
 40
1.0
 40
1.0
 40
1.0
 40
1.0
 10
154.0055103728369
 20
117.9402429001315
 30
0.0
 10
154.2088291134997
 20
117.97672411829
 30
0.0
 10
154.425911789982
 20
117.9810160674317
 30
0.0
 10
154.6469313227054
 20
117.9528545839397
 30
0.0
  0
SPLINE
  5
3B5
330
1F
100
AcDbEntity
  8
0
  6
Continuous
 62
     7
370
    30
100
AcDbSpline
210
0.0
220
0.0
230
1.0
 70
     8
 71
     3
 72
     8
 73
     4
 74
     0
 42
0.000000001
 43
0.00000001
 40
0.0
 40
0.0
 40
0.0
 40
0.0
 40
1.0
 40
1.0
 40
1.0
 40
1.0
 10
148.5283416991173
 20
107.3551464852181
 30
0.0
 10
148.3932415998314
 20
107.5327395097381
 30
0.0
 10
148.2886158782794
 20
107.7226296075363
 30
0.0
 10
148.2185533491204
 20
107.9169391720287
 30
0.0
  0
SPLINE
  5
3B6
330
1F
100
AcDbEntity
  8
0
  6
Continuous
 62
     7
370
    30
100
AcDbSpline
210
0.0
220
0.0
230
1.0
 70
    24
 71
     3
 72
    10
 73
     6
 74
     0
 42
0.000000001
 43
0.00000001
 40
0.0
 40
0.0
 40
0.0
 40
0.0
 40
0.5
 40
0.5
 40
1.0
 40
1.0
 40
1.0
 40
1.0
 10
149.4850514054441
 20
109.1834373093132
 30
0.0
 10
149.2951927315993
 20
108.9935786354684
 30
0.0
 10
149.0924866415328
 20
108.7908725454019
 30
0.0
 10
148.667396807481
 20
108.3657827113501
 30
0.0
 10
148.4452147448673
 20
108.1436006487365
 30
0.0
 10
148.2185532596727
 20
107.9169391635419
 30
0.0
  0
SPLINE
  5
3B7
330
1F
100
AcDbEntity
  8
0
  6
Continuous
 62
     7
370
    30
100
AcDbSpline
210
0.0
220
0.0
230
1.0
 70
     8
 71
     3
 72
    14
 73
    10
 74
     0
 42
0.000000001
 43
0.00000001
 40
0.0
 40
0.0
 40
0.0
 40
0.0
 40
0.2499999999999999
 40
0.2499999999999999
 40
0.4999999999999998
 40
0.4999999999999998
 40
0.7499999999999999
 40
0.7499999999999999
 40
1.0
 40
1.0
 40
1.0
 40
1.0
 10
151.3678598990637
 20
108.0963973227354
 30
0.0
 10
151.2006382793238
 20
108.1412042714964
 30
0.0
 10
151.0303776343133
 20
108.1979280721585
 30
0.0
 10
150.6886420237246
 20
108.3382559782756
 30
0.0
 10
150.518099676618
 20
108.4216930419825
 30
0.0
 10
150.189614746125
 20
108.6114695235739
 30
0.0
 10
150.0317864077729
 20
108.7178310071992
 30
0.0
 10
149.7407080585707
 20
108.9428294973144
 30
0.0
 10
149.6071285296596
 20
109.0613594061836
 30
0.0
 10
149.4850512020163
 20
109.1834375179367
 30
0.0
  0
SPLINE
  5
3B8
330
1F
100
AcDbEntity
  8
0
  6
Continuous
 62
     7
370
    30
100
AcDbSpline
210
0.0
220
0.0
230
1.0
 70
    24
 71
     3
 72
    10
 73
     6
 74
     0
 42
0.000000001
 43
0.00000001
 40
0.0
 40
0.0
 40
0.0
 40
0.0
 40
0.5
 40
0.5
 40
1.0
 40
1.0
 40
1.0
 40
1.0
 10
151.3678598932839
 20
108.0963973043476
 30
0.0
 10
151.2983847167508
 20
107.8371124156614
 30
0.0
 10
151.2240503745292
 20
107.5596928737433
 30
0.0
 10
151.0685853413415
 20
106.9794894710861
 30
0.0
 10
150.9871298190202
 20
106.6754933232262
 30
0.0
 10
150.9042894020533
 20
106.3663286781854
 30
0.0
  0
SPLINE
  5
3B9
330
1F
100
AcDbEntity
  8
0
  6
Continuous
 62
     7
370
    30
100
AcDbSpline
210
0.0
220
0.0
230
1.0
 70
     8
 71
     3
 72
     8
 73
     4
 74
     0
 42
0.000000001
 43
0.00000001
 40
0.0
 40
0.0
 40
0.0
 40
0.0
 40
1.0
 40
1.0
 40
1.0
 40
1.0
 10
150.9042894012468
 20
106.3663286816922
 30
0.0
 10
150.7009706605836
 20
106.3298474635336
 30
0.0
 10
150.4838879841009
 20
106.3255555143921
 30
0.0
 10
150.2628684513772
 20
106.3537169978842
 30
0.0
  0
SPLINE
  5
3BA
330
1F
100
AcDbEntity
  8
0
  6
Continuous
 62
     7
370
    30
100
AcDbSpline
210
0.0
220
0.0
230
1.0
 70
     8
 71
     3
 72
     8
 73
     4
 74
     0
 42
0.000000001
 43
0.00000001
 40
0.0
 40
0.0
 40
0.0
 40
0.0
 40
1.0
 40
1.0
 40
1.0
 40
1.0
 10
158.5734895106315
 20
111.1518563035749
 30
0.0
 10
158.4935603337005
 20
110.9611415065256
 30
0.0
 10
158.3913995937318
 20
110.7878114574708
 30
0.0
 10
158.2708097703158
 20
110.6378190634315
 30
0.0
  0
SPLINE
  5
3BB
330
1F
100
AcDbEntity
  8
0
  6
Continuous
 62
     7
370
    30
100
AcDbSpline
210
0.0
220
0.0
230
1.0
 70
     8
 71
     3
 72
     8
 73
     4
 74
     0
 42
0.000000001
 43
0.00000001
 40
0.0
 40
0.0
 40
0.0
 40
0.0
 40
1.0
 40
1.0
 40
1.0
 40
1.0
 10
158.2708097703158
 20
110.6378190634315
 30
0.0
 10
158.2612734531925
 20
110.6259575730079
 30
0.0
 10
158.2516218853119
 20
110.6142420302881
 30
0.0
 10
158.2418569471898
 20
110.6026753792815
 30
0.0
  0
SPLINE
  5
3BC
330
1F
100
AcDbEntity
  8
0
  6
Continuous
 62
     7
370
    30
100
AcDbSpline
210
0.0
220
0.0
230
1.0
 70
     8
 71
     3
 72
    14
 73
    10
 74
     0
 42
0.000000001
 43
0.00000001
 40
0.0
 40
0.0
 40
0.0
 40
0.0
 40
0.25
 40
0.25
 40
0.5000000000000001
 40
0.5000000000000001
 40
0.7500000000000001
 40
0.7500000000000001
 40
1.0
 40
1.0
 40
1.0
 40
1.0
 10
156.5117883545213
 20
113.2403257814797
 30
0.0
 10
156.5565951998808
 20
113.0731041685826
 30
0.0
 10
156.5926012536269
 20
112.8972923335699
 30
0.0
 10
156.6419415412173
 20
112.5311766478011
 30
0.0
 10
156.6549541014204
 20
112.3417641555524
 30
0.0
 10
156.6548453286366
 20
111.9623996267155
 30
0.0
 10
156.6416477553854
 20
111.7725355422783
 30
0.0
 10
156.5923325806436
 20
111.4079552923161
 30
0.0
 10
156.5564724441918
 20
111.2330069542748
 30
0.0
 10
156.5117882799529
 20
111.0662455224813
 30
0.0
  0
SPLINE
  5
3BD
330
1F
100
AcDbEntity
  8
0
  6
Continuous
 62
     7
370
    30
100
AcDbSpline
210
0.0
220
0.0
230
1.0
 70
    24
 71
     3
 72
    10
 73
     6
 74
     0
 42
0.000000001
 43
0.00000001
 40
0.0
 40
0.0
 40
0.0
 40
0.0
 40
0.5
 40
0.5
 40
1.0
 40
1.0
 40
1.0
 40
1.0
 10
156.5117883582955
 20
113.2403257805673
 30
0.0
 10
156.771140129896
 20
113.3098188783233
 30
0.0
 10
157.0480417984289
 20
113.3840144567895
 30
0.0
 10
157.6287253106345
 20
113.539608134943
 30
0.0
 10
157.9322316524301
 20
113.6209324141249
 30
0.0
 10
158.2418569992655
 20
113.7038962757656
 30
0.0
  0
SPLINE
  5
3BE
330
1F
100
AcDbEntity
  8
0
  6
Continuous
 62
     7
370
    30
100
AcDbSpline
210
0.0
220
0.0
230
1.0
 70
     8
 71
     3
 72
     8
 73
     4
 74
     0
 42
0.000000001
 43
0.00000001
 40
0.0
 40
0.0
 40
0.0
 40
0.0
 40
1.0
 40
1.0
 40
1.0
 40
1.0
 10
158.2418569971351
 20
113.703896273449
 30
0.0
 10
158.3751100266536
 20
113.5460576910084
 30
0.0
 10
158.4873683023648
 20
113.3602045548779
 30
0.0
 10
158.5734895106315
 20
113.1547152782482
 30
0.0
  0
SPLINE
  5
3BF
330
1F
100
AcDbEntity
  8
0
  6
Continuous
 62
     7
370
    30
100
AcDbSpline
210
0.0
220
0.0
230
1.0
 70
     8
 71
     3
 72
     8
 73
     4
 74
     0
 42
0.000000001
 43
0.00000001
 40
0.0
 40
0.0
 40
0.0
 40
0.0
 40
1.0
 40
1.0
 40
1.0
 40
1.0
 10
153.4563293743777
 20
118.2718754145011
 30
0.0
 10
153.6470441714274
 20
118.1919462375701
 30
0.0
 10
153.8203742204824
 20
118.0897854976012
 30
0.0
 10
153.9703666145219
 20
117.9691956741851
 30
0.0
  0
SPLINE
  5
3C0
330
1F
100
AcDbEntity
  8
0
  6
Continuous
 62
     7
370
    30
100
AcDbSpline
210
0.0
220
0.0
230
1.0
 70
     8
 71
     3
 72
     8
 73
     4
 74
     0
 42
0.000000001
 43
0.00000001
 40
0.0
 40
0.0
 40
0.0
 40
0.0
 40
1.0
 40
1.0
 40
1.0
 40
1.0
 10
153.9703666145219
 20
117.9691956741851
 30
0.0
 10
153.9822281049456
 20
117.9596593570617
 30
0.0
 10
153.9939436476654
 20
117.9500077891811
 30
0.0
 10
154.0055102986721
 20
117.9402428510589
 30
0.0
  0
SPLINE
  5
3C1
330
1F
100
AcDbEntity
  8
0
  6
Continuous
 62
     7
370
    30
100
AcDbSpline
210
0.0
220
0.0
230
1.0
 70
     8
 71
     3
 72
    14
 73
    10
 74
     0
 42
0.000000001
 43
0.00000001
 40
0.0
 40
0.0
 40
0.0
 40
0.0
 40
0.25
 40
0.25
 40
0.5
 40
0.5
 40
0.75
 40
0.75
 40
1.0
 40
1.0
 40
1.0
 40
1.0
 10
151.3678598964744
 20
116.2101742583909
 30
0.0
 10
151.5350815093718
 20
116.2549811037504
 30
0.0
 10
151.7108933443847
 20
116.2909871574966
 30
0.0
 10
152.0770090301542
 20
116.3403274450869
 30
0.0
 10
152.2664215224038
 20
116.3533400052899
 30
0.0
 10
152.6457860512393
 20
116.3532312325059
 30
0.0
 10
152.8356501356763
 20
116.3400336592547
 30
0.0
 10
153.2002303856379
 20
116.2907184845129
 30
0.0
 10
153.375178723679
 20
116.2548583480611
 30
0.0
 10
153.5419401554723
 20
116.2101741838223
 30
0.0
  0
SPLINE
  5
3C2
330
1F
100
AcDbEntity
  8
0
  6
Continuous
 62
     7
370
    30
100
AcDbSpline
210
0.0
220
0.0
230
1.0
 70
    24
 71
     3
 72
    10
 73
     6
 74
     0
 42
0.000000001
 43
0.00000001
 40
0.0
 40
0.0
 40
0.0
 40
0.0
 40
0.5
 40
0.5
 40
1.0
 40
1.0
 40
1.0
 40
1.0
 10
151.3678598973868
 20
116.2101742621651
 30
0.0
 10
151.2983667996308
 20
116.469526033766
 30
0.0
 10
151.2241712211646
 20
116.7464277022989
 30
0.0
 10
151.068577543011
 20
117.3271112145043
 30
0.0
 10
150.9872532638293
 20
117.6306175562996
 30
0.0
 10
150.9042894021886
 20
117.9402429031348
 30
0.0
  0
SPLINE
  5
3C3
330
1F
100
AcDbEntity
  8
0
  6
Continuous
 62
     7
370
    30
100
AcDbSpline
210
0.0
220
0.0
230
1.0
 70
     8
 71
     3
 72
     8
 73
     4
 74
     0
 42
0.000000001
 43
0.00000001
 40
0.0
 40
0.0
 40
0.0
 40
0.0
 40
1.0
 40
1.0
 40
1.0
 40
1.0
 10
150.9042894045052
 20
117.9402429010044
 30
0.0
 10
151.0621279869459
 20
118.073495930523
 30
0.0
 10
151.2479811230767
 20
118.1857542062344
 30
0.0
 10
151.4534703997068
 20
118.271875414501
 30
0.0
  0
SPLINE
  5
3C4
330
1F
100
AcDbEntity
  8
0
  6
Continuous
 62
     7
370
    30
100
AcDbSpline
210
0.0
220
0.0
230
1.0
 70
     8
 71
     3
 72
     8
 73
     4
 74
     0
 42
0.000000001
 43
0.00000001
 40
0.0
 40
0.0
 40
0.0
 40
0.0
 40
1.0
 40
1.0
 40
1.0
 40
1.0
 10
146.3363102634526
 20
113.1547152782466
 30
0.0
 10
146.4162394403836
 20
113.3454300752962
 30
0.0
 10
146.5184001803525
 20
113.5187601243513
 30
0.0
 10
146.6389900037687
 20
113.6687525183909
 30
0.0
  0
SPLINE
  5
3C5
330
1F
100
AcDbEntity
  8
0
  6
Continuous
 62
     7
370
    30
100
AcDbSpline
210
0.0
220
0.0
230
1.0
 70
     8
 71
     3
 72
     8
 73
     4
 74
     0
 42
0.000000001
 43
0.00000001
 40
0.0
 40
0.0
 40
0.0
 40
0.0
 40
1.0
 40
1.0
 40
1.0
 40
1.0
 10
146.6389900037687
 20
113.6687525183909
 30
0.0
 10
146.648526320892
 20
113.6806140088145
 30
0.0
 10
146.6581778887726
 20
113.6923295515344
 30
0.0
 10
146.6679428268947
 20
113.703896202541
 30
0.0
  0
SPLINE
  5
3C6
330
1F
100
AcDbEntity
  8
0
  6
Continuous
 62
     7
370
    30
100
AcDbSpline
210
0.0
220
0.0
230
1.0
 70
     8
 71
     3
 72
    14
 73
    10
 74
     0
 42
0.000000001
 43
0.00000001
 40
0.0
 40
0.0
 40
0.0
 40
0.0
 40
0.2500000000000001
 40
0.2500000000000001
 40
0.5000000000000001
 40
0.5000000000000001
 40
0.7500000000000002
 40
0.7500000000000002
 40
1.0
 40
1.0
 40
1.0
 40
1.0
 10
148.3980114195627
 20
111.0662458003431
 30
0.0
 10
148.3532045742031
 20
111.2334674132407
 30
0.0
 10
148.3171985204569
 20
111.4092792482537
 30
0.0
 10
148.2678582328665
 20
111.7753949340235
 30
0.0
 10
148.2548456726635
 20
111.9648074262731
 30
0.0
 10
148.2549544454476
 20
112.3441719551098
 30
0.0
 10
148.2681520186988
 20
112.5340360395459
 30
0.0
 10
148.3174671934406
 20
112.8986162895073
 30
0.0
 10
148.3533273298923
 20
113.0735646275483
 30
0.0
 10
148.3980114941311
 20
113.2403260593415
 30
0.0
  0
SPLINE
  5
3C7
330
1F
100
AcDbEntity
  8
0
  6
Continuous
 62
     7
370
    30
100
AcDbSpline
210
0.0
220
0.0
230
1.0
 70
    24
 71
     3
 72
    10
 73
     6
 74
     0
 42
0.000000001
 43
0.00000001
 40
0.0
 40
0.0
 40
0.0
 40
0.0
 40
0.5
 40
0.5
 40
1.0
 40
1.0
 40
1.0
 40
1.0
 10
148.3980114157885
 20
111.0662458012555
 30
0.0
 10
148.1386596441883
 20
110.9967527034997
 30
0.0
 10
147.8617579756555
 20
110.9225571250335
 30
0.0
 10
147.2810744634499
 20
110.7669634468799
 30
0.0
 10
146.9775681216543
 20
110.6856391676981
 30
0.0
 10
146.6679427748189
 20
110.6026753060574
 30
0.0
  0
SPLINE
  5
3C8
330
1F
100
AcDbEntity
  8
0
  6
Continuous
 62
     7
370
    30
100
AcDbSpline
210
0.0
220
0.0
230
1.0
 70
     8
 71
     3
 72
     8
 73
     4
 74
     0
 42
0.000000001
 43
0.00000001
 40
0.0
 40
0.0
 40
0.0
 40
0.0
 40
1.0
 40
1.0
 40
1.0
 40
1.0
 10
146.6679427769496
 20
110.6026753083743
 30
0.0
 10
146.5346897474309
 20
110.7605138908152
 30
0.0
 10
146.4224314717194
 20
110.9463670269462
 30
0.0
 10
146.3363102634528
 20
111.1518563035762
 30
0.0
  0
SPLINE
  5
3C9
330
1F
100
AcDbEntity
  8
0
  6
Continuous
 62
     7
370
    30
100
AcDbSpline
210
0.0
220
0.0
230
1.0
 70
     8
 71
     3
 72
     8
 73
     4
 74
     0
 42
0.000000001
 43
0.00000001
 40
0.0
 40
0.0
 40
0.0
 40
0.0
 40
1.0
 40
1.0
 40
1.0
 40
1.0
 10
151.4534703997075
 20
106.034696167322
 30
0.0
 10
151.2627556026578
 20
106.114625344253
 30
0.0
 10
151.0894255536025
 20
106.2167860842219
 30
0.0
 10
150.9394331595628
 20
106.3373759076383
 30
0.0
  0
SPLINE
  5
3CA
330
1F
100
AcDbEntity
  8
0
  6
Continuous
 62
     7
370
    30
100
AcDbSpline
210
0.0
220
0.0
230
1.0
 70
     8
 71
     3
 72
     8
 73
     4
 74
     0
 42
0.000000001
 43
0.00000001
 40
0.0
 40
0.0
 40
0.0
 40
0.0
 40
1.0
 40
1.0
 40
1.0
 40
1.0
 10
150.9394331595628
 20
106.3373759076383
 30
0.0
 10
150.927571669139
 20
106.3469122247617
 30
0.0
 10
150.915856126419
 20
106.3565637926424
 30
0.0
 10
150.9042894754123
 20
106.3663287307646
 30
0.0
  0
SPLINE
  5
3CB
330
1F
100
AcDbEntity
  8
0
  6
Continuous
 62
     7
370
    30
100
AcDbSpline
210
0.0
220
0.0
230
1.0
 70
     8
 71
     3
 72
    14
 73
    10
 74
     0
 42
0.000000001
 43
0.00000001
 40
0.0
 40
0.0
 40
0.0
 40
0.0
 40
0.25
 40
0.25
 40
0.5
 40
0.5
 40
0.75
 40
0.75
 40
1.0
 40
1.0
 40
1.0
 40
1.0
 10
153.5419398776094
 20
108.0963973234318
 30
0.0
 10
153.3747182647122
 20
108.0515904780724
 30
0.0
 10
153.1989064296996
 20
108.0155844243263
 30
0.0
 10
152.8327907439308
 20
107.966244136736
 30
0.0
 10
152.6433782516813
 20
107.953231576533
 30
0.0
 10
152.2640137228462
 20
107.9533403493169
 30
0.0
 10
152.0741496384085
 20
107.9665379225681
 30
0.0
 10
151.7095693884464
 20
108.0158530973099
 30
0.0
 10
151.5346210504051
 20
108.0517132337617
 30
0.0
 10
151.3678596186116
 20
108.0963973980006
 30
0.0
  0
SPLINE
  5
3CC
330
1F
100
AcDbEntity
  8
0
  6
Continuous
 62
     7
370
    30
100
AcDbSpline
210
0.0
220
0.0
230
1.0
 70
    24
 71
     3
 72
    10
 73
     6
 74
     0
 42
0.000000001
 43
0.00000001
 40
0.0
 40
0.0
 40
0.0
 40
0.0
 40
0.5
 40
0.5
 40
1.0
 40
1.0
 40
1.0
 40
1.0
 10
153.541939876697
 20
108.0963973196576
 30
0.0
 10
153.6114329744526
 20
107.8370455480583
 30
0.0
 10
153.6856285529189
 20
107.5601438795253
 30
0.0
 10
153.8412222310725
 20
106.9794603673194
 30
0.0
 10
153.9225465102545
 20
106.6759540255235
 30
0.0
 10
154.0055103718953
 20
106.3663286786879
 30
0.0
  0
SPLINE
  5
3CD
330
1F
100
AcDbEntity
  8
0
  6
Continuous
 62
     7
370
    30
100
AcDbSpline
210
0.0
220
0.0
230
1.0
 70
     8
 71
     3
 72
     8
 73
     4
 74
     0
 42
0.000000001
 43
0.00000001
 40
0.0
 40
0.0
 40
0.0
 40
0.0
 40
1.0
 40
1.0
 40
1.0
 40
1.0
 10
154.0055103695783
 20
106.3663286808187
 30
0.0
 10
153.8476717871373
 20
106.2330756512999
 30
0.0
 10
153.6618186510063
 20
106.1208173755886
 30
0.0
 10
153.4563293743762
 20
106.0346961673219
 30
0.0
  0
SPLINE
  5
3CE
330
1F
100
AcDbEntity
  8
0
  6
Continuous
 62
     7
370
    30
100
AcDbSpline
210
0.0
220
0.0
230
1.0
 70
     8
 71
     3
 72
     8
 73
     4
 74
     0
 42
0.000000001
 43
0.00000001
 40
0.0
 40
0.0
 40
0.0
 40
0.0
 40
1.0
 40
1.0
 40
1.0
 40
1.0
 10
158.2544686800705
 20
114.3453172265745
 30
0.0
 10
158.2806053808694
 20
114.1401887789865
 30
0.0
 10
158.2787966093145
 20
113.9390001832814
 30
0.0
 10
158.249358955818
 20
113.7488080479609
 30
0.0
  0
SPLINE
  5
3CF
330
1F
100
AcDbEntity
  8
0
  6
Continuous
 62
     7
370
    30
100
AcDbSpline
210
0.0
220
0.0
230
1.0
 70
     8
 71
     3
 72
     8
 73
     4
 74
     0
 42
0.000000001
 43
0.00000001
 40
0.0
 40
0.0
 40
0.0
 40
0.0
 40
1.0
 40
1.0
 40
1.0
 40
1.0
 10
158.249358955818
 20
113.7488080479609
 30
0.0
 10
158.2470310081425
 20
113.7337675373657
 30
0.0
 10
158.2445302765314
 20
113.7187957958109
 30
0.0
 10
158.2418569175546
 20
113.7038963131414
 30
0.0
  0
SPLINE
  5
3D0
330
1F
100
AcDbEntity
  8
0
  6
Continuous
 62
     7
370
    30
100
AcDbSpline
210
0.0
220
0.0
230
1.0
 70
     8
 71
     3
 72
    14
 73
    10
 74
     0
 42
0.000000001
 43
0.00000001
 40
0.0
 40
0.0
 40
0.0
 40
0.0
 40
0.2499999999999999
 40
0.2499999999999999
 40
0.4999999999999998
 40
0.4999999999999998
 40
0.7499999999999999
 40
0.7499999999999999
 40
1.0
 40
1.0
 40
1.0
 40
1.0
 10
155.4247483649151
 20
115.1231342714128
 30
0.0
 10
155.5471630377696
 20
115.0007195292005
 30
0.0
 10
155.6662511125691
 20
114.8664650405922
 30
0.0
 10
155.8920388980353
 20
114.5740696996202
 30
0.0
 10
155.9980143519041
 20
114.4165399495459
 30
0.0
 10
156.187602416379
 20
114.0879462436964
 30
0.0
 10
156.2711050249029
 20
113.9169203365879
 30
0.0
 10
156.410686955755
 20
113.5765269908667
 30
0.0
 10
156.4671053356091
 20
113.4070872174683
 30
0.0
 10
156.5117884301035
 20
113.2403254989718
 30
0.0
  0
SPLINE
  5
3D1
330
1F
100
AcDbEntity
  8
0
  6
Continuous
 62
     7
370
    30
100
AcDbSpline
210
0.0
220
0.0
230
1.0
 70
     8
 71
     3
 72
     8
 73
     4
 74
     0
 42
0.000000001
 43
0.00000001
 40
0.0
 40
0.0
 40
0.0
 40
0.0
 40
1.0
 40
1.0
 40
1.0
 40
1.0
 10
156.6912465137248
 20
116.3896324152099
 30
0.0
 10
156.8855663136394
 20
116.3195667078782
 30
0.0
 10
157.0757114002559
 20
116.2147423084717
 30
0.0
 10
157.2530391927344
 20
116.0798439788382
 30
0.0
  0
SPLINE
  5
3D2
330
1F
100
AcDbEntity
  8
0
  6
Continuous
 62
     7
370
    30
100
AcDbSpline
210
0.0
220
0.0
230
1.0
 70
     8
 71
     3
 72
     8
 73
     4
 74
     0
 42
0.000000001
 43
0.00000001
 40
0.0
 40
0.0
 40
0.0
 40
0.0
 40
1.0
 40
1.0
 40
1.0
 40
1.0
 10
154.6469313227051
 20
106.3537169978834
 30
0.0
 10
154.4418028751172
 20
106.3275802970844
 30
0.0
 10
154.2406142794119
 20
106.3293890686393
 30
0.0
 10
154.0504221440911
 20
106.3588267221359
 30
0.0
  0
SPLINE
  5
3D3
330
1F
100
AcDbEntity
  8
0
  6
Continuous
 62
     7
370
    30
100
AcDbSpline
210
0.0
220
0.0
230
1.0
 70
     8
 71
     3
 72
     8
 73
     4
 74
     0
 42
0.000000001
 43
0.00000001
 40
0.0
 40
0.0
 40
0.0
 40
0.0
 40
1.0
 40
1.0
 40
1.0
 40
1.0
 10
154.0504221440911
 20
106.3588267221359
 30
0.0
 10
154.0353816334957
 20
106.3611546698114
 30
0.0
 10
154.0204098919408
 20
106.3636554014224
 30
0.0
 10
154.0055104092712
 20
106.3663287603993
 30
0.0
  0
SPLINE
  5
3D4
330
1F
100
AcDbEntity
  8
0
  6
Continuous
 62
     7
370
    30
100
AcDbSpline
210
0.0
220
0.0
230
1.0
 70
     8
 71
     3
 72
    14
 73
    10
 74
     0
 42
0.000000001
 43
0.00000001
 40
0.0
 40
0.0
 40
0.0
 40
0.0
 40
0.2499999999999999
 40
0.2499999999999999
 40
0.4999999999999999
 40
0.4999999999999999
 40
0.75
 40
0.75
 40
1.0
 40
1.0
 40
1.0
 40
1.0
 10
155.4247483675428
 20
109.1834373130378
 30
0.0
 10
155.3023336253307
 20
109.0610226401834
 30
0.0
 10
155.1680791367226
 20
108.9419345653842
 30
0.0
 10
154.8756837957509
 20
108.7161467799182
 30
0.0
 10
154.7181540456764
 20
108.6101713260493
 30
0.0
 10
154.3895603398269
 20
108.4205832615744
 30
0.0
 10
154.2185344327183
 20
108.3370806530504
 30
0.0
 10
153.8781410869967
 20
108.1974987221982
 30
0.0
 10
153.7087013135981
 20
108.1410803423441
 30
0.0
 10
153.5419395951015
 20
108.0963972478496
 30
0.0
  0
SPLINE
  5
3D5
330
1F
100
AcDbEntity
  8
0
  6
Continuous
 62
     7
370
    30
100
AcDbSpline
210
0.0
220
0.0
230
1.0
 70
     8
 71
     3
 72
     8
 73
     4
 74
     0
 42
0.000000001
 43
0.00000001
 40
0.0
 40
0.0
 40
0.0
 40
0.0
 40
1.0
 40
1.0
 40
1.0
 40
1.0
 10
156.6912465113397
 20
107.9169391642281
 30
0.0
 10
156.6211808040079
 20
107.7226193643134
 30
0.0
 10
156.5163564046013
 20
107.5324742776971
 30
0.0
 10
156.3814580749679
 20
107.3551464852188
 30
0.0
  0
SPLINE
  5
3D6
330
1F
100
AcDbEntity
  8
0
  6
Continuous
 62
     7
370
    30
100
AcDbSpline
210
0.0
220
0.0
230
1.0
 70
     8
 71
     3
 72
     8
 73
     4
 74
     0
 42
0.000000001
 43
0.00000001
 40
0.0
 40
0.0
 40
0.0
 40
0.0
 40
1.0
 40
1.0
 40
1.0
 40
1.0
 10
150.2628684513791
 20
117.9528545839398
 30
0.0
 10
150.4679968989671
 20
117.9789912847388
 30
0.0
 10
150.6691854946724
 20
117.9771825131838
 30
0.0
 10
150.859377629993
 20
117.9477448596873
 30
0.0
  0
SPLINE
  5
3D7
330
1F
100
AcDbEntity
  8
0
  6
Continuous
 62
     7
370
    30
100
AcDbSpline
210
0.0
220
0.0
230
1.0
 70
     8
 71
     3
 72
     8
 73
     4
 74
     0
 42
0.000000001
 43
0.00000001
 40
0.0
 40
0.0
 40
0.0
 40
0.0
 40
1.0
 40
1.0
 40
1.0
 40
1.0
 10
150.859377629993
 20
117.9477448596873
 30
0.0
 10
150.8744181405884
 20
117.9454169120118
 30
0.0
 10
150.8893898821432
 20
117.9429161804007
 30
0.0
 10
150.9042893648128
 20
117.9402428214239
 30
0.0
  0
SPLINE
  5
3D8
330
1F
100
AcDbEntity
  8
0
  6
Continuous
 62
     7
370
    30
100
AcDbSpline
210
0.0
220
0.0
230
1.0
 70
     8
 71
     3
 72
    14
 73
    10
 74
     0
 42
0.000000001
 43
0.00000001
 40
0.0
 40
0.0
 40
0.0
 40
0.0
 40
0.2500000000000001
 40
0.2500000000000001
 40
0.5000000000000001
 40
0.5000000000000001
 40
0.7500000000000002
 40
0.7500000000000002
 40
1.0
 40
1.0
 40
1.0
 40
1.0
 10
149.4850514065411
 20
115.1231342687849
 30
0.0
 10
149.6074661487532
 20
115.2455489416394
 30
0.0
 10
149.7417206373614
 20
115.3646370164386
 30
0.0
 10
150.0341159783332
 20
115.5904248019047
 30
0.0
 10
150.1916457284079
 20
115.6964002557738
 30
0.0
 10
150.5202394342573
 20
115.8859883202485
 30
0.0
 10
150.6912653413663
 20
115.9694909287727
 30
0.0
 10
151.0316586870875
 20
116.1090728596247
 30
0.0
 10
151.2010984604859
 20
116.1654912394787
 30
0.0
 10
151.3678601789823
 20
116.2101743339731
 30
0.0
  0
SPLINE
  5
3D9
330
1F
100
AcDbEntity
  8
0
  6
Continuous
 62
     7
370
    30
100
AcDbSpline
210
0.0
220
0.0
230
1.0
 70
     8
 71
     3
 72
     8
 73
     4
 74
     0
 42
0.000000001
 43
0.00000001
 40
0.0
 40
0.0
 40
0.0
 40
0.0
 40
1.0
 40
1.0
 40
1.0
 40
1.0
 10
148.2185532627442
 20
116.3896324175944
 30
0.0
 10
148.2886189700759
 20
116.5839522175091
 30
0.0
 10
148.3934433694825
 20
116.7740973041255
 30
0.0
 10
148.528341699116
 20
116.951425096604
 30
0.0
  0
SPLINE
  5
3DA
330
1F
100
AcDbEntity
  8
0
  6
Continuous
 62
     7
370
    30
100
AcDbSpline
210
0.0
220
0.0
230
1.0
 70
     8
 71
     3
 72
     8
 73
     4
 74
     0
 42
0.000000001
 43
0.00000001
 40
0.0
 40
0.0
 40
0.0
 40
0.0
 40
1.0
 40
1.0
 40
1.0
 40
1.0
 10
146.6553310940146
 20
109.961254355247
 30
0.0
 10
146.6291943932155
 20
110.1663828028352
 30
0.0
 10
146.6310031647704
 20
110.3675713985407
 30
0.0
 10
146.6604408182669
 20
110.5577635338617
 30
0.0
  0
SPLINE
  5
3DB
330
1F
100
AcDbEntity
  8
0
  6
Continuous
 62
     7
370
    30
100
AcDbSpline
210
0.0
220
0.0
230
1.0
 70
     8
 71
     3
 72
     8
 73
     4
 74
     0
 42
0.000000001
 43
0.00000001
 40
0.0
 40
0.0
 40
0.0
 40
0.0
 40
1.0
 40
1.0
 40
1.0
 40
1.0
 10
146.6604408182669
 20
110.5577635338617
 30
0.0
 10
146.6627687659424
 20
110.572804044457
 30
0.0
 10
146.6652694975535
 20
110.5877757860118
 30
0.0
 10
146.6679428565303
 20
110.6026752686814
 30
0.0
  0
SPLINE
  5
3DC
330
1F
100
AcDbEntity
  8
0
  6
Continuous
 62
     7
370
    30
100
AcDbSpline
210
0.0
220
0.0
230
1.0
 70
     8
 71
     3
 72
    14
 73
    10
 74
     0
 42
0.000000001
 43
0.00000001
 40
0.0
 40
0.0
 40
0.0
 40
0.0
 40
0.2500000000000002
 40
0.2500000000000002
 40
0.5000000000000004
 40
0.5000000000000004
 40
0.7500000000000004
 40
0.7500000000000004
 40
1.0
 40
1.0
 40
1.0
 40
1.0
 10
149.4850514091688
 20
109.1834373104101
 30
0.0
 10
149.3626367363143
 20
109.3058520526224
 30
0.0
 10
149.243548661515
 20
109.4401065412306
 30
0.0
 10
149.0177608760487
 20
109.7325018822026
 30
0.0
 10
148.9117854221798
 20
109.8900316322771
 30
0.0
 10
148.7221973577051
 20
110.2186253381263
 30
0.0
 10
148.638694749181
 20
110.3896512452351
 30
0.0
 10
148.499112818329
 20
110.7300445909563
 30
0.0
 10
148.4426944384749
 20
110.8994843643546
 30
0.0
 10
148.3980113439805
 20
111.066246082851
 30
0.0
  0
SPLINE
  5
3DD
330
1F
100
AcDbEntity
  8
0
  6
Continuous
 62
     7
370
    30
100
AcDbSpline
210
0.0
220
0.0
230
1.0
 70
     8
 71
     3
 72
     8
 73
     4
 74
     0
 42
0.000000001
 43
0.00000001
 40
0.0
 40
0.0
 40
0.0
 40
0.0
 40
1.0
 40
1.0
 40
1.0
 40
1.0
 10
148.2185532603596
 20
107.9169391666139
 30
0.0
 10
148.0242334604445
 20
107.9870048739458
 30
0.0
 10
147.8340883738277
 20
108.0918292733526
 30
0.0
 10
147.656760581349
 20
108.2267276029864
 30
0.0
  0
SPLINE
  5
3DE
330
1F
100
AcDbEntity
  8
0
  6
Continuous
 62
     7
370
    30
100
AcDbSpline
210
0.0
220
0.0
230
1.0
 70
     8
 71
     3
 72
     8
 73
     4
 74
     0
 42
0.000000001
 43
0.00000001
 40
0.0
 40
0.0
 40
0.0
 40
0.0
 40
1.0
 40
1.0
 40
1.0
 40
1.0
 10
151.1351980685495
 20
116.1405639534644
 30
0.0
 10
151.2204482997006
 20
116.1196650950835
 30
0.0
 10
151.3036705396317
 20
116.0932246542516
 30
0.0
 10
151.3843799214009
 20
116.0614713686804
 30
0.0
  0
SPLINE
  5
3DF
330
1F
100
AcDbEntity
  8
0
  6
Continuous
 62
     7
370
    30
100
AcDbSpline
210
0.0
220
0.0
230
1.0
 70
     8
 71
     3
 72
    12
 73
     8
 74
     0
 42
0.000000001
 43
0.00000001
 40
0.0
 40
0.0
 40
0.0
 40
0.0
 40
0.5
 40
0.5
 40
0.75
 40
0.75
 40
1.0
 40
1.0
 40
1.0
 40
1.0
 10
151.4681120581361
 20
113.1400736198179
 30
0.0
 10
151.4681119330467
 20
113.5956614795071
 30
0.0
 10
151.4615887599288
 20
114.0673113583239
 30
0.0
 10
151.4396192221386
 20
114.8039058570669
 30
0.0
 10
151.4303279249247
 20
115.0552981968487
 30
0.0
 10
151.4090595176409
 20
115.5582490636032
 30
0.0
 10
151.3971252950845
 20
115.8098249405845
 30
0.0
 10
151.3843801872102
 20
116.0614719560746
 30
0.0
  0
SPLINE
  5
3E0
330
1F
100
AcDbEntity
  8
0
  6
Continuous
 62
     7
370
    30
100
AcDbSpline
210
0.0
220
0.0
230
1.0
 70
     8
 71
     3
 72
    10
 73
     6
 74
     0
 42
0.000000001
 43
0.00000001
 40
0.0
 40
0.0
 40
0.0
 40
0.0
 40
0.5000000000000001
 40
0.5000000000000001
 40
1.0
 40
1.0
 40
1.0
 40
1.0
 10
148.5467137218783
 20
113.2238054907439
 30
0.0
 10
149.051746764255
 20
113.1982271996893
 30
0.0
 10
149.5506750910428
 20
113.1762381781876
 30
0.0
 10
150.5263563309468
 20
113.1469246445299
 30
0.0
 10
151.0034290615254
 20
113.1400737474045
 30
0.0
 10
151.4681120581361
 20
113.1400736198179
 30
0.0
  0
SPLINE
  5
3E1
330
1F
100
AcDbEntity
  8
0
  6
Continuous
 62
     7
370
    30
100
AcDbSpline
210
0.0
220
0.0
230
1.0
 70
     8
 71
     3
 72
     8
 73
     4
 74
     0
 42
0.000000001
 43
0.00000001
 40
0.0
 40
0.0
 40
0.0
 40
0.0
 40
1.0
 40
1.0
 40
1.0
 40
1.0
 10
148.5467140197633
 20
113.2238056253606
 30
0.0
 10
148.5149479185883
 20
113.3045481075118
 30
0.0
 10
148.4885119221017
 20
113.3877727067581
 30
0.0
 10
148.4676217263739
 20
113.4729876016737
 30
0.0
  0
SPLINE
  5
3E2
330
1F
100
AcDbEntity
  8
0
  6
Continuous
 62
     7
370
    30
100
AcDbSpline
210
0.0
220
0.0
230
1.0
 70
     8
 71
     3
 72
     8
 73
     4
 74
     0
 42
0.000000001
 43
0.00000001
 40
0.0
 40
0.0
 40
0.0
 40
0.0
 40
1.0
 40
1.0
 40
1.0
 40
1.0
 10
148.4676217244905
 20
110.8335839724229
 30
0.0
 10
148.4885205828712
 20
110.9188342035726
 30
0.0
 10
148.5149610237028
 20
111.0020564435024
 30
0.0
 10
148.5467143092735
 20
111.0827658252704
 30
0.0
  0
SPLINE
  5
3E3
330
1F
100
AcDbEntity
  8
0
  6
Continuous
 62
     7
370
    30
100
AcDbSpline
210
0.0
220
0.0
230
1.0
 70
     8
 71
     3
 72
    12
 73
     8
 74
     0
 42
0.000000001
 43
0.00000001
 40
0.0
 40
0.0
 40
0.0
 40
0.0
 40
0.4999999999999999
 40
0.4999999999999999
 40
0.7499999999999999
 40
0.7499999999999999
 40
1.0
 40
1.0
 40
1.0
 40
1.0
 10
151.468112058136
 20
111.1664979620054
 30
0.0
 10
151.0125241984467
 20
111.1664978369161
 30
0.0
 10
150.5408743196299
 20
111.1599746637982
 30
0.0
 10
149.8042798208869
 20
111.138005126008
 30
0.0
 10
149.5528874811052
 20
111.1287138287941
 30
0.0
 10
149.0499366143507
 20
111.1074454215103
 30
0.0
 10
148.7983607373693
 20
111.095511198954
 30
0.0
 10
148.5467137218793
 20
111.0827660910796
 30
0.0
  0
SPLINE
  5
3E4
330
1F
100
AcDbEntity
  8
0
  6
Continuous
 62
     7
370
    30
100
AcDbSpline
210
0.0
220
0.0
230
1.0
 70
     8
 71
     3
 72
    10
 73
     6
 74
     0
 42
0.000000001
 43
0.00000001
 40
0.0
 40
0.0
 40
0.0
 40
0.0
 40
0.5
 40
0.5
 40
1.0
 40
1.0
 40
1.0
 40
1.0
 10
151.38438018721
 20
108.2450996257477
 30
0.0
 10
151.4099584782645
 20
108.7501326681244
 30
0.0
 10
151.4319474997662
 20
109.2490609949121
 30
0.0
 10
151.4612610334239
 20
110.2247422348161
 30
0.0
 10
151.4681119305494
 20
110.7018149653948
 30
0.0
 10
151.468112058136
 20
111.1664979620054
 30
0.0
  0
SPLINE
  5
3E5
330
1F
100
AcDbEntity
  8
0
  6
Continuous
 62
     7
370
    30
100
AcDbSpline
210
0.0
220
0.0
230
1.0
 70
     8
 71
     3
 72
     8
 73
     4
 74
     0
 42
0.000000001
 43
0.00000001
 40
0.0
 40
0.0
 40
0.0
 40
0.0
 40
1.0
 40
1.0
 40
1.0
 40
1.0
 10
151.3843800525933
 20
108.2450999236328
 30
0.0
 10
151.3036375704434
 20
108.2133338224582
 30
0.0
 10
151.2204129711984
 20
108.186897825972
 30
0.0
 10
151.1351980762842
 20
108.1660076302443
 30
0.0
  0
SPLINE
  5
3E6
330
1F
100
AcDbEntity
  8
0
  6
Continuous
 62
     7
370
    30
100
AcDbSpline
210
0.0
220
0.0
230
1.0
 70
     8
 71
     3
 72
     8
 73
     4
 74
     0
 42
0.000000001
 43
0.00000001
 40
0.0
 40
0.0
 40
0.0
 40
0.0
 40
1.0
 40
1.0
 40
1.0
 40
1.0
 10
156.4421780495945
 20
113.4729876094024
 30
0.0
 10
156.4212791912137
 20
113.387737378252
 30
0.0
 10
156.394838750382
 20
113.3045151383216
 30
0.0
 10
156.363085464811
 20
113.223805756553
 30
0.0
  0
SPLINE
  5
3E7
330
1F
100
AcDbEntity
  8
0
  6
Continuous
 62
     7
370
    30
100
AcDbSpline
210
0.0
220
0.0
230
1.0
 70
     8
 71
     3
 72
    10
 73
     6
 74
     0
 42
0.000000001
 43
0.00000001
 40
0.0
 40
0.0
 40
0.0
 40
0.0
 40
0.5000000000000001
 40
0.5000000000000001
 40
1.0
 40
1.0
 40
1.0
 40
1.0
 10
156.3630860522062
 20
113.2238054907437
 30
0.0
 10
155.8580530098295
 20
113.1982271996892
 30
0.0
 10
155.3591246830418
 20
113.1762381781875
 30
0.0
 10
154.3834434431378
 20
113.1469246445299
 30
0.0
 10
153.906370712559
 20
113.1400737474045
 30
0.0
 10
153.4416877159484
 20
113.1400736198179
 30
0.0
  0
SPLINE
  5
3E8
330
1F
100
AcDbEntity
  8
0
  6
Continuous
 62
     7
370
    30
100
AcDbSpline
210
0.0
220
0.0
230
1.0
 70
     8
 71
     3
 72
    12
 73
     8
 74
     0
 42
0.000000001
 43
0.00000001
 40
0.0
 40
0.0
 40
0.0
 40
0.0
 40
0.5000000000000002
 40
0.5000000000000002
 40
0.7500000000000001
 40
0.7500000000000001
 40
1.0
 40
1.0
 40
1.0
 40
1.0
 10
153.4416877159484
 20
113.1400736198179
 30
0.0
 10
153.4416878410378
 20
113.5956614795071
 30
0.0
 10
153.4482110141557
 20
114.0673113583239
 30
0.0
 10
153.470180551946
 20
114.8039058570669
 30
0.0
 10
153.4794718491599
 20
115.0552981968486
 30
0.0
 10
153.5007402564436
 20
115.5582490636031
 30
0.0
 10
153.5126744790001
 20
115.8098249405845
 30
0.0
 10
153.5254195868744
 20
116.0614719560745
 30
0.0
  0
SPLINE
  5
3E9
330
1F
100
AcDbEntity
  8
0
  6
Continuous
 62
     7
370
    30
100
AcDbSpline
210
0.0
220
0.0
230
1.0
 70
     8
 71
     3
 72
     8
 73
     4
 74
     0
 42
0.000000001
 43
0.00000001
 40
0.0
 40
0.0
 40
0.0
 40
0.0
 40
1.0
 40
1.0
 40
1.0
 40
1.0
 10
153.5254197214912
 20
116.0614716581905
 30
0.0
 10
153.606162203643
 20
116.0932377593658
 30
0.0
 10
153.68938680289
 20
116.1196737558526
 30
0.0
 10
153.7746016978064
 20
116.1405639515804
 30
0.0
  0
SPLINE
  5
3EA
330
1F
100
AcDbEntity
  8
0
  6
Continuous
 62
     7
370
    30
100
AcDbSpline
210
0.0
220
0.0
230
1.0
 70
     8
 71
     3
 72
     8
 73
     4
 74
     0
 42
0.000000001
 43
0.00000001
 40
0.0
 40
0.0
 40
0.0
 40
0.0
 40
1.0
 40
1.0
 40
1.0
 40
1.0
 10
153.7746017055289
 20
108.1660076283604
 30
0.0
 10
153.6893514743799
 20
108.186906486741
 30
0.0
 10
153.6061292344509
 20
108.2133469275724
 30
0.0
 10
153.5254198526835
 20
108.2451002131428
 30
0.0
  0
SPLINE
  5
3EB
330
1F
100
AcDbEntity
  8
0
  6
Continuous
 62
     7
370
    30
100
AcDbSpline
210
0.0
220
0.0
230
1.0
 70
     8
 71
     3
 72
    12
 73
     8
 74
     0
 42
0.000000001
 43
0.00000001
 40
0.0
 40
0.0
 40
0.0
 40
0.0
 40
0.4999999999999999
 40
0.4999999999999999
 40
0.7499999999999999
 40
0.7499999999999999
 40
1.0
 40
1.0
 40
1.0
 40
1.0
 10
153.4416877159485
 20
111.1664979620054
 30
0.0
 10
153.4416878410378
 20
110.7109101023161
 30
0.0
 10
153.4482110141557
 20
110.2392602234994
 30
0.0
 10
153.4701805519459
 20
109.5026657247563
 30
0.0
 10
153.4794718491598
 20
109.2512733849746
 30
0.0
 10
153.5007402564435
 20
108.7483225182201
 30
0.0
 10
153.5126744789999
 20
108.4967466412387
 30
0.0
 10
153.5254195868743
 20
108.2450996257486
 30
0.0
  0
SPLINE
  5
3EC
330
1F
100
AcDbEntity
  8
0
  6
Continuous
 62
     7
370
    30
100
AcDbSpline
210
0.0
220
0.0
230
1.0
 70
     8
 71
     3
 72
    10
 73
     6
 74
     0
 42
0.000000001
 43
0.00000001
 40
0.0
 40
0.0
 40
0.0
 40
0.0
 40
0.5
 40
0.5
 40
1.0
 40
1.0
 40
1.0
 40
1.0
 10
156.3630860522061
 20
111.0827660910794
 30
0.0
 10
155.8580530098295
 20
111.108344382134
 30
0.0
 10
155.3591246830418
 20
111.1303334036356
 30
0.0
 10
154.3834434431378
 20
111.1596469372934
 30
0.0
 10
153.9063707125591
 20
111.1664978344188
 30
0.0
 10
153.4416877159485
 20
111.1664979620054
 30
0.0
  0
SPLINE
  5
3ED
330
1F
100
AcDbEntity
  8
0
  6
Continuous
 62
     7
370
    30
100
AcDbSpline
210
0.0
220
0.0
230
1.0
 70
     8
 71
     3
 72
     8
 73
     4
 74
     0
 42
0.000000001
 43
0.00000001
 40
0.0
 40
0.0
 40
0.0
 40
0.0
 40
1.0
 40
1.0
 40
1.0
 40
1.0
 10
156.3630857543211
 20
111.0827659564627
 30
0.0
 10
156.3948518554959
 20
111.0020234743121
 30
0.0
 10
156.4212878519823
 20
110.9187988750665
 30
0.0
 10
156.4421780477101
 20
110.8335839801515
 30
0.0
  0
SPLINE
  5
3EE
330
1F
100
AcDbEntity
  8
0
  6
Continuous
 62
     7
370
    30
100
AcDbSpline
210
0.0
220
0.0
230
1.0
 70
    24
 71
     3
 72
     8
 73
     4
 74
     0
 42
0.000000001
 43
0.00000001
 40
0.0
 40
0.0
 40
0.0
 40
0.0
 40
1.0
 40
1.0
 40
1.0
 40
1.0
 10
151.5710164105152
 20
111.2694023143854
 30
0.0
 10
151.5368053033222
 20
111.235191207193
 30
0.0
 10
151.5024955257774
 20
111.2008814296487
 30
0.0
 10
151.4681120581347
 20
111.1664979620054
 30
0.0
  0
SPLINE
  5
3EF
330
1F
100
AcDbEntity
  8
0
  6
Continuous
 62
     7
370
    30
100
AcDbSpline
210
0.0
220
0.0
230
1.0
 70
     8
 71
     3
 72
    10
 73
     6
 74
     0
 42
0.000000001
 43
0.00000001
 40
0.0
 40
0.0
 40
0.0
 40
0.0
 40
0.5
 40
0.5
 40
1.0
 40
1.0
 40
1.0
 40
1.0
 10
148.5467142382493
 20
111.0827663917619
 30
0.0
 10
148.3724090638621
 20
111.4079547009722
 30
0.0
 10
148.2792742257935
 20
111.7807638112941
 30
0.0
 10
148.2792090567239
 20
112.5254200779051
 30
0.0
 10
148.3719007244874
 20
112.8976719858434
 30
0.0
 10
148.5467137342156
 20
113.2238054835359
 30
0.0
  0
SPLINE
  5
3F0
330
1F
100
AcDbEntity
  8
0
  6
Continuous
 62
     7
370
    30
100
AcDbSpline
210
0.0
220
0.0
230
1.0
 70
    24
 71
     3
 72
     8
 73
     4
 74
     0
 42
0.000000001
 43
0.00000001
 40
0.0
 40
0.0
 40
0.0
 40
0.0
 40
1.0
 40
1.0
 40
1.0
 40
1.0
 10
151.4681120581201
 20
113.1400736198334
 30
0.0
 10
151.50249364229
 20
113.1056920356636
 30
0.0
 10
151.5368064356553
 20
113.0713792422978
 30
0.0
 10
151.571016410448
 20
113.0371692675067
 30
0.0
  0
SPLINE
  5
3F1
330
1F
100
AcDbEntity
  8
0
  6
Continuous
 62
     7
370
    30
100
AcDbSpline
210
0.0
220
0.0
230
1.0
 70
     8
 71
     3
 72
    14
 73
    10
 74
     0
 42
0.000000001
 43
0.00000001
 40
0.0
 40
0.0
 40
0.0
 40
0.0
 40
0.2499999999999999
 40
0.2499999999999999
 40
0.4999999999999999
 40
0.4999999999999999
 40
0.7499999999999999
 40
0.7499999999999999
 40
1.0
 40
1.0
 40
1.0
 40
1.0
 10
151.5710156039092
 20
111.2693999154389
 30
0.0
 10
151.4608230104938
 20
111.3795959478239
 30
0.0
 10
151.3685122319181
 20
111.5134971456893
 30
0.0
 10
151.2399728737252
 20
111.8163701257315
 30
0.0
 10
151.2048612391869
 20
111.9845227295846
 30
0.0
 10
151.2049385939873
 20
112.3226211651496
 30
0.0
 10
151.2403174175317
 20
112.4911100831861
 30
0.0
 10
151.3683513039
 20
112.7926111339578
 30
0.0
 10
151.4609118284635
 20
112.9270840594768
 30
0.0
 10
151.5710149267983
 20
113.0371753571085
 30
0.0
  0
SPLINE
  5
3F2
330
1F
100
AcDbEntity
  8
0
  6
Continuous
 62
     7
370
    30
100
AcDbSpline
210
0.0
220
0.0
230
1.0
 70
     8
 71
     3
 72
    10
 73
     6
 74
     0
 42
0.000000001
 43
0.00000001
 40
0.0
 40
0.0
 40
0.0
 40
0.0
 40
0.5000000000000001
 40
0.5000000000000001
 40
1.0
 40
1.0
 40
1.0
 40
1.0
 10
151.3843804878925
 20
116.0614714397046
 30
0.0
 10
151.7095687971028
 20
116.2357766140918
 30
0.0
 10
152.0823779074246
 20
116.3289114521604
 30
0.0
 10
152.8270341740357
 20
116.32897662123
 30
0.0
 10
153.199286081974
 20
116.2362849534665
 30
0.0
 10
153.5254195796665
 20
116.0614719437382
 30
0.0
  0
SPLINE
  5
3F3
330
1F
100
AcDbEntity
  8
0
  6
Continuous
 62
     7
370
    30
100
AcDbSpline
210
0.0
220
0.0
230
1.0
 70
    24
 71
     3
 72
     8
 73
     4
 74
     0
 42
0.000000001
 43
0.00000001
 40
0.0
 40
0.0
 40
0.0
 40
0.0
 40
1.0
 40
1.0
 40
1.0
 40
1.0
 10
153.3387833635715
 20
113.0371692674402
 30
0.0
 10
153.3729944707638
 20
113.0713803746319
 30
0.0
 10
153.4073042483078
 20
113.1056901521754
 30
0.0
 10
153.4416877159497
 20
113.1400736198178
 30
0.0
  0
SPLINE
  5
3F4
330
1F
100
AcDbEntity
  8
0
  6
Continuous
 62
     7
370
    30
100
AcDbSpline
210
0.0
220
0.0
230
1.0
 70
     8
 71
     3
 72
    14
 73
    10
 74
     0
 42
0.000000001
 43
0.00000001
 40
0.0
 40
0.0
 40
0.0
 40
0.0
 40
0.2500000000000001
 40
0.2500000000000001
 40
0.5000000000000001
 40
0.5000000000000001
 40
0.75
 40
0.75
 40
1.0
 40
1.0
 40
1.0
 40
1.0
 10
151.5710140115555
 20
113.037170074035
 30
0.0
 10
151.6812100439369
 20
113.14736266745
 30
0.0
 10
151.8151112417994
 20
113.2396734460271
 30
0.0
 10
152.1179842218373
 20
113.3682128042244
 30
0.0
 10
152.2861368256908
 20
113.4033244387666
 30
0.0
 10
152.6242352612627
 20
113.4032470839713
 30
0.0
 10
152.7927241793013
 20
113.3678682604281
 30
0.0
 10
153.0942252300755
 20
113.2398343740624
 30
0.0
 10
153.2286981555949
 20
113.1472738495004
 30
0.0
 10
153.3387894532271
 20
113.0371707511674
 30
0.0
  0
SPLINE
  5
3F5
330
1F
100
AcDbEntity
  8
0
  6
Continuous
 62
     7
370
    30
100
AcDbSpline
210
0.0
220
0.0
230
1.0
 70
     8
 71
     3
 72
    10
 73
     6
 74
     0
 42
0.000000001
 43
0.00000001
 40
0.0
 40
0.0
 40
0.0
 40
0.0
 40
0.5
 40
0.5
 40
1.0
 40
1.0
 40
1.0
 40
1.0
 10
156.3630855358352
 20
113.2238051900613
 30
0.0
 10
156.5373907102225
 20
112.898616880851
 30
0.0
 10
156.630525548291
 20
112.5258077705292
 30
0.0
 10
156.6305907173606
 20
111.7811515039182
 30
0.0
 10
156.5378990495971
 20
111.4088995959799
 30
0.0
 10
156.3630860398689
 20
111.0827660982874
 30
0.0
  0
SPLINE
  5
3F6
330
1F
100
AcDbEntity
  8
0
  6
Continuous
 62
     7
370
    30
100
AcDbSpline
210
0.0
220
0.0
230
1.0
 70
    24
 71
     3
 72
     8
 73
     4
 74
     0
 42
0.000000001
 43
0.00000001
 40
0.0
 40
0.0
 40
0.0
 40
0.0
 40
1.0
 40
1.0
 40
1.0
 40
1.0
 10
153.3387833635686
 20
111.2694023143846
 30
0.0
 10
153.3729944707609
 20
111.2351912071916
 30
0.0
 10
153.4073042483052
 20
111.2008814296468
 30
0.0
 10
153.4416877159485
 20
111.1664979620041
 30
0.0
  0
SPLINE
  5
3F7
330
1F
100
AcDbEntity
  8
0
  6
Continuous
 62
     7
370
    30
100
AcDbSpline
210
0.0
220
0.0
230
1.0
 70
     8
 71
     3
 72
    14
 73
    10
 74
     0
 42
0.000000001
 43
0.00000001
 40
0.0
 40
0.0
 40
0.0
 40
0.0
 40
0.25
 40
0.25
 40
0.5
 40
0.5
 40
0.75
 40
0.75
 40
1.0
 40
1.0
 40
1.0
 40
1.0
 10
153.3387841701774
 20
113.0371716663866
 30
0.0
 10
153.4489767636293
 20
112.9269756339646
 30
0.0
 10
153.5412875422277
 20
112.7930744360481
 30
0.0
 10
153.6698269004247
 20
112.4902014558877
 30
0.0
 10
153.7049385349357
 20
112.3220488519685
 30
0.0
 10
153.704861180059
 20
111.9839504163909
 30
0.0
 10
153.6694823564884
 20
111.8154614984369
 30
0.0
 10
153.5414484701253
 20
111.513960447784
 30
0.0
 10
153.4488879455893
 20
111.3794875223217
 30
0.0
 10
153.3387848472956
 20
111.2693962247291
 30
0.0
  0
SPLINE
  5
3F8
330
1F
100
AcDbEntity
  8
0
  6
Continuous
 62
     7
370
    30
100
AcDbSpline
210
0.0
220
0.0
230
1.0
 70
     8
 71
     3
 72
    10
 73
     6
 74
     0
 42
0.000000001
 43
0.00000001
 40
0.0
 40
0.0
 40
0.0
 40
0.0
 40
0.5
 40
0.5
 40
1.0
 40
1.0
 40
1.0
 40
1.0
 10
153.5254192861919
 20
108.2451001421186
 30
0.0
 10
153.2002309769816
 20
108.0707949677314
 30
0.0
 10
152.8274218666598
 20
107.9776601296629
 30
0.0
 10
152.0827656000488
 20
107.9775949605933
 30
0.0
 10
151.7105136921105
 20
108.0702866283568
 30
0.0
 10
151.384380194418
 20
108.245099638085
 30
0.0
  0
SPLINE
  5
3F9
330
1F
100
AcDbEntity
  8
0
  6
Continuous
 62
     7
370
    30
100
AcDbSpline
210
0.0
220
0.0
230
1.0
 70
     8
 71
     3
 72
    14
 73
    10
 74
     0
 42
0.000000001
 43
0.00000001
 40
0.0
 40
0.0
 40
0.0
 40
0.0
 40
0.25
 40
0.25
 40
0.5
 40
0.5
 40
0.75
 40
0.75
 40
1.0
 40
1.0
 40
1.0
 40
1.0
 10
153.338785762515
 20
111.2694015077787
 30
0.0
 10
153.2285897300912
 20
111.1592089143252
 30
0.0
 10
153.0946885321735
 20
111.0668981357265
 30
0.0
 10
152.791815552012
 20
110.9383587775301
 30
0.0
 10
152.6236629480943
 20
110.9032471430205
 30
0.0
 10
152.2855645125234
 20
110.9033244978969
 30
0.0
 10
152.1170755945703
 20
110.9387033214663
 30
0.0
 10
151.8155745439171
 20
111.066737207828
 30
0.0
 10
151.6811016184535
 20
111.1592977323639
 30
0.0
 10
151.5710103208596
 20
111.2694008306582
 30
0.0
  0
LINE
  5
3FA
330
1F
100
AcDbEntity
  8
0
  6
Continuous
 62
     7
370
    30
100
AcDbLine
 10
151.0209925775
 20
106.222315368
 30
0.0
 11
150.731214818
 21
106.299961128
 31
0.0
  0
ARC
  5
3FB
330
1F
100
AcDbEntity
  8
0
  6
Continuous
 62
     7
370
    30
100
AcDbCircle
 10
150.9692287768
 20
106.0291302285
 30
0.0
 40
0.2000000000000149
100
AcDbArc
 50
345.0
 51
75.0
  0
LINE
  5
3FC
330
1F
100
AcDbEntity
  8
0
  6
Continuous
 62
     7
370
    30
100
AcDbLine
 10
151.0353372735
 20
105.5031098916
 30
0.0
 11
151.1624139105
 21
105.977366355
 31
0.0
  0
ARC
  5
3FD
330
1F
100
AcDbEntity
  8
0
  6
Continuous
 62
     7
370
    30
100
AcDbCircle
 10
152.454899887
 20
112.1532857909
 30
0.0
 40
6.799999999999997
100
AcDbArc
 50
257.950351143
 51
72.049648857
  0
LINE
  5
3FE
330
1F
100
AcDbEntity
  8
0
  6
Continuous
 62
     7
370
    30
100
AcDbLine
 10
154.423533969
 20
118.1480317868
 30
0.0
 11
154.550610606
 21
118.6222887158
 31
0.0
  0
ARC
  5
3FF
330
1F
100
AcDbEntity
  8
0
  6
Continuous
 62
     7
370
    30
100
AcDbCircle
 10
154.2303487451
 20
118.1997956398
 30
0.0
 40
0.2000000000000149
100
AcDbArc
 50
255.0
 51
345.0
  0
LINE
  5
400
330
1F
100
AcDbEntity
  8
0
  6
Continuous
 62
     7
370
    30
100
AcDbLine
 10
154.1785849561
 20
118.0066104538
 30
0.0
 11
153.8888071966
 21
118.0842562138
 31
0.0
  0
ARC
  5
401
330
1F
100
AcDbEntity
  8
0
  6
Continuous
 62
     7
370
    30
100
AcDbCircle
 10
153.9405709972
 20
118.2774413533
 30
0.0
 40
0.1999999999999975
100
AcDbArc
 50
165.0
 51
255.0
  0
LINE
  5
402
330
1F
100
AcDbEntity
  8
0
  6
Continuous
 62
     7
370
    30
100
AcDbLine
 10
153.7473858636
 20
118.3292052268
 30
0.0
 11
153.8744625006
 21
118.8034616902
 31
0.0
  0
ARC
  5
403
330
1F
100
AcDbEntity
  8
0
  6
Continuous
 62
     7
370
    30
100
AcDbCircle
 10
152.454899887
 20
112.1532857909
 30
0.0
 40
6.8
100
AcDbArc
 50
77.950351143
 51
252.049648857
  0
LINE
  5
404
330
1F
100
AcDbEntity
  8
0
  6
Continuous
 62
     7
370
    30
100
AcDbLine
 10
150.359189168
 20
105.6842828661
 30
0.0
 11
150.486265805
 21
106.1585397951
 31
0.0
  0
ARC
  5
405
330
1F
100
AcDbEntity
  8
0
  6
Continuous
 62
     7
370
    30
100
AcDbCircle
 10
150.679451029
 20
106.1067759421
 30
0.0
 40
0.2000000000000149
100
AcDbArc
 50
75.0
 51
165.0
  0
LINE
  5
406
330
1F
100
AcDbEntity
  8
0
  6
CENTERX2
 62
     7
370
     0
100
AcDbLine
 10
152.454899887
 20
121.2852559737
 30
0.0
 11
152.454899887
 21
103.025568917
 31
0.0
  0
LINE
  5
407
330
1F
100
AcDbEntity
  8
0
  6
CENTERX2
 62
     7
370
     0
100
AcDbLine
 10
143.3282763722
 20
112.1532857909
 30
0.0
 11
161.4347781348
 21
112.1532857909
 31
0.0
  0
INSERT
  5
40E
330
1F
100
AcDbEntity
  8
0
  6
Continuous
 62
     7
370
     0
100
AcDbBlockReference
  2
SW_NOTE_5
 10
139.1694837086
 20
97.0127191731
 30
0.0
  0
ENDSEC
  0
SECTION
  2
OBJECTS
  0
DICTIONARY
  5
C
330
0
100
AcDbDictionary
281
     1
  3
ACAD_GROUP
350
D
  3
ACAD_LAYOUT
350
1A
  3
ACAD_MLINESTYLE
350
17
  3
ACAD_PLOTSETTINGS
350
19
  3
ACAD_PLOTSTYLENAME
350
E
  3
ACAD_SCALELIST
350
47
  0
DICTIONARY
  5
D
102
{ACAD_REACTORS
330
C
102
}
330
C
100
AcDbDictionary
281
     1
  0
DICTIONARY
  5
1A
102
{ACAD_REACTORS
330
C
102
}
330
C
100
AcDbDictionary
281
     1
  3
Layout1
350
1E
  3
Layout2
350
26
  3
Model
350
22
  0
DICTIONARY
  5
17
102
{ACAD_REACTORS
330
C
102
}
330
C
100
AcDbDictionary
281
     1
  3
Standard
350
18
  0
DICTIONARY
  5
19
102
{ACAD_REACTORS
330
C
102
}
330
C
100
AcDbDictionary
281
     1
  0
ACDBDICTIONARYWDFLT
  5
E
102
{ACAD_REACTORS
330
C
102
}
330
C
100
AcDbDictionary
281
     1
  3
Normal
350
F
100
AcDbDictionaryWithDefault
340
F
  0
DICTIONARY
  5
47
102
{ACAD_REACTORS
330
C
102
}
330
C
100
AcDbDictionary
281
     1
  3
A0
350
48
  3
A1
350
49
  3
A2
350
4A
  3
A3
350
4B
  3
A4
350
4C
  3
A5
350
4D
  3
A6
350
4E
  3
A7
350
4F
  3
A8
350
50
  3
A9
350
51
  3
B0
350
52
  3
B1
350
53
  3
B2
350
54
  3
B3
350
55
  3
B4
350
56
  3
B5
350
57
  3
B6
350
58
  3
B7
350
59
  3
B8
350
5A
  3
B9
350
5B
  3
C0
350
5C
  3
C1
350
5D
  3
C2
350
5E
  3
C3
350
5F
  3
C4
350
60
  3
C5
350
61
  3
C6
350
62
  3
C7
350
63
  3
C8
350
64
  3
C9
350
65
  3
D0
350
66
  3
D1
350
67
  3
D2
350
68
  0
LAYOUT
  5
1E
102
{ACAD_REACTORS
330
1A
102
}
330
1A
100
AcDbPlotSettings
  1

  2
none_device
  4

  6

 40
0.0
 41
0.0
 42
0.0
 43
0.0
 44
0.0
 45
0.0
 46
0.0
 47
0.0
 48
0.0
 49
0.0
140
0.0
141
0.0
142
1.0
143
1.0
 70
   688
 72
     1
 73
     0
 74
     5
  7

 75
    16
147
1.0
148
0.0
149
0.0
100
AcDbLayout
  1
Layout1
 70
     1
 71
     1
 10
0.0
 20
0.0
 11
420.0
 21
297.0
 12
0.0
 22
0.0
 32
0.0
 14
1.0000000000E+20
 24
1.0000000000E+20
 34
1.0000000000E+20
 15
-1.0000000000E+20
 25
-1.0000000000E+20
 35
-1.0000000000E+20
146
0.0
 13
0.0
 23
0.0
 33
0.0
 16
1.0
 26
0.0
 36
0.0
 17
0.0
 27
1.0
 37
0.0
 76
     0
330
1B
  0
LAYOUT
  5
26
102
{ACAD_REACTORS
330
1A
102
}
330
1A
100
AcDbPlotSettings
  1

  2
none_device
  4

  6

 40
0.0
 41
0.0
 42
0.0
 43
0.0
 44
0.0
 45
0.0
 46
0.0
 47
0.0
 48
0.0
 49
0.0
140
0.0
141
0.0
142
1.0
143
1.0
 70
   688
 72
     1
 73
     0
 74
     5
  7

 75
    16
147
1.0
148
0.0
149
0.0
100
AcDbLayout
  1
Layout2
 70
     1
 71
     2
 10
0.0
 20
0.0
 11
0.0
 21
0.0
 12
0.0
 22
0.0
 32
0.0
 14
0.0
 24
0.0
 34
0.0
 15
0.0
 25
0.0
 35
0.0
146
0.0
 13
0.0
 23
0.0
 33
0.0
 16
1.0
 26
0.0
 36
0.0
 17
0.0
 27
1.0
 37
0.0
 76
     0
330
23
  0
LAYOUT
  5
22
102
{ACAD_REACTORS
330
1A
102
}
330
1A
100
AcDbPlotSettings
  1

  2
none_device
  4
Letter_(8.50_x_11.00_Inches)
  6

 40
6.35
 41
6.35
 42
6.35000508
 43
6.35000508
 44
215.9
 45
279.4
 46
0.0
 47
0.0
 48
0.0
 49
0.0
140
0.0
141
0.0
142
1.0
143
1.0
 70
  1712
 72
     1
 73
     0
 74
     0
  7

 75
     0
147
1.0
148
0.0
149
0.0
100
AcDbLayout
  1
Model
 70
     1
 71
     0
 10
0.0
 20
0.0
 11
210.0
 21
297.0
 12
0.0
 22
0.0
 32
0.0
 14
0.0
 24
0.0
 34
0.0
 15
210.0
 25
297.0
 35
0.0
146
0.0
 13
0.0
 23
0.0
 33
0.0
 16
1.0
 26
0.0
 36
0.0
 17
0.0
 27
1.0
 37
0.0
 76
     0
330
1F
331
29
  0
MLINESTYLE
  5
18
102
{ACAD_REACTORS
330
17
102
}
330
17
100
AcDbMlineStyle
  2
Standard
 70
     0
  3

 62
   256
 51
90.0
 52
90.0
 71
     2
 49
0.5
 62
   256
  6
BYLAYER
 49
-0.5
 62
   256
  6
BYLAYER
  0
ACDBPLACEHOLDER
  5
F
102
{ACAD_REACTORS
330
E
102
}
330
E
  0
SCALE
  5
48
102
{ACAD_REACTORS
330
47
102
}
330
47
100
AcDbScale
 70
     0
300
1:1
140
1.0
141
1.0
290
     1
  0
SCALE
  5
49
102
{ACAD_REACTORS
330
47
102
}
330
47
100
AcDbScale
 70
     0
300
1:2
140
1.0
141
2.0
290
     0
  0
SCALE
  5
4A
102
{ACAD_REACTORS
330
47
102
}
330
47
100
AcDbScale
 70
     0
300
1:4
140
1.0
141
4.0
290
     0
  0
SCALE
  5
4B
102
{ACAD_REACTORS
330
47
102
}
330
47
100
AcDbScale
 70
     0
300
1:5
140
1.0
141
5.0
290
     0
  0
SCALE
  5
4C
102
{ACAD_REACTORS
330
47
102
}
330
47
100
AcDbScale
 70
     0
300
1:8
140
1.0
141
8.0
290
     0
  0
SCALE
  5
4D
102
{ACAD_REACTORS
330
47
102
}
330
47
100
AcDbScale
 70
     0
300
1:10
140
1.0
141
10.0
290
     0
  0
SCALE
  5
4E
102
{ACAD_REACTORS
330
47
102
}
330
47
100
AcDbScale
 70
     0
300
1:16
140
1.0
141
16.0
290
     0
  0
SCALE
  5
4F
102
{ACAD_REACTORS
330
47
102
}
330
47
100
AcDbScale
 70
     0
300
1:20
140
1.0
141
20.0
290
     0
  0
SCALE
  5
50
102
{ACAD_REACTORS
330
47
102
}
330
47
100
AcDbScale
 70
     0
300
1:30
140
1.0
141
30.0
290
     0
  0
SCALE
  5
51
102
{ACAD_REACTORS
330
47
102
}
330
47
100
AcDbScale
 70
     0
300
1:40
140
1.0
141
40.0
290
     0
  0
SCALE
  5
52
102
{ACAD_REACTORS
330
47
102
}
330
47
100
AcDbScale
 70
     0
300
1:50
140
1.0
141
50.0
290
     0
  0
SCALE
  5
53
102
{ACAD_REACTORS
330
47
102
}
330
47
100
AcDbScale
 70
     0
300
1:100
140
1.0
141
100.0
290
     0
  0
SCALE
  5
54
102
{ACAD_REACTORS
330
47
102
}
330
47
100
AcDbScale
 70
     0
300
2:1
140
2.0
141
1.0
290
     0
  0
SCALE
  5
55
102
{ACAD_REACTORS
330
47
102
}
330
47
100
AcDbScale
 70
     0
300
4:1
140
4.0
141
1.0
290
     0
  0
SCALE
  5
56
102
{ACAD_REACTORS
330
47
102
}
330
47
100
AcDbScale
 70
     0
300
8:1
140
8.0
141
1.0
290
     0
  0
SCALE
  5
57
102
{ACAD_REACTORS
330
47
102
}
330
47
100
AcDbScale
 70
     0
300
10:1
140
10.0
141
1.0
290
     0
  0
SCALE
  5
58
102
{ACAD_REACTORS
330
47
102
}
330
47
100
AcDbScale
 70
     0
300
100:1
140
100.0
141
1.0
290
     0
  0
SCALE
  5
59
102
{ACAD_REACTORS
330
47
102
}
330
47
100
AcDbScale
 70
     0
300
1/128" = 1'-0"
140
0.0078125
141
12.0
290
     0
  0
SCALE
  5
5A
102
{ACAD_REACTORS
330
47
102
}
330
47
100
AcDbScale
 70
     0
300
1/64" = 1'-0"
140
0.015625
141
12.0
290
     0
  0
SCALE
  5
5B
102
{ACAD_REACTORS
330
47
102
}
330
47
100
AcDbScale
 70
     0
300
1/32" = 1'-0"
140
0.03125
141
12.0
290
     0
  0
SCALE
  5
5C
102
{ACAD_REACTORS
330
47
102
}
330
47
100
AcDbScale
 70
     0
300
1/16" = 1'-0"
140
0.0625
141
12.0
290
     0
  0
SCALE
  5
5D
102
{ACAD_REACTORS
330
47
102
}
330
47
100
AcDbScale
 70
     0
300
3/32" = 1'-0"
140
0.09375
141
12.0
290
     0
  0
SCALE
  5
5E
102
{ACAD_REACTORS
330
47
102
}
330
47
100
AcDbScale
 70
     0
300
1/8" = 1'-0"
140
0.125
141
12.0
290
     0
  0
SCALE
  5
5F
102
{ACAD_REACTORS
330
47
102
}
330
47
100
AcDbScale
 70
     0
300
3/16" = 1'-0"
140
0.1875
141
12.0
290
     0
  0
SCALE
  5
60
102
{ACAD_REACTORS
330
47
102
}
330
47
100
AcDbScale
 70
     0
300
1/4" = 1'-0"
140
0.25
141
12.0
290
     0
  0
SCALE
  5
61
102
{ACAD_REACTORS
330
47
102
}
330
47
100
AcDbScale
 70
     0
300
3/8" = 1'-0"
140
0.375
141
12.0
290
     0
  0
SCALE
  5
62
102
{ACAD_REACTORS
330
47
102
}
330
47
100
AcDbScale
 70
     0
300
1/2" = 1'-0"
140
0.5
141
12.0
290
     0
  0
SCALE
  5
63
102
{ACAD_REACTORS
330
47
102
}
330
47
100
AcDbScale
 70
     0
300
3/4" = 1'-0"
140
0.75
141
12.0
290
     0
  0
SCALE
  5
64
102
{ACAD_REACTORS
330
47
102
}
330
47
100
AcDbScale
 70
     0
300
1" = 1'-0"
140
1.0
141
12.0
290
     0
  0
SCALE
  5
65
102
{ACAD_REACTORS
330
47
102
}
330
47
100
AcDbScale
 70
     0
300
1-1/2" = 1'-0"
140
1.5
141
12.0
290
     0
  0
SCALE
  5
66
102
{ACAD_REACTORS
330
47
102
}
330
47
100
AcDbScale
 70
     0
300
3" = 1'-0"
140
3.0
141
12.0
290
     0
  0
SCALE
  5
67
102
{ACAD_REACTORS
330
47
102
}
330
47
100
AcDbScale
 70
     0
300
6" = 1'-0"
140
6.0
141
12.0
290
     0
  0
SCALE
  5
68
102
{ACAD_REACTORS
330
47
102
}
330
47
100
AcDbScale
 70
     0
300
1'-0" = 1'-0"
140
12.0
141
12.0
290
     0
  0
ENDSEC
  0
EOF
