  0
SECTION
  2
HEADER
  9
$ACADVER
  1
AC1015
  9
$ACADMAINTVER
 70
     6
  9
$DWGCODEPAGE
  3
DOS932
  9
$INSBASE
 10
0.0
 20
0.0
 30
0.0
  9
$EXTMIN
 10
0.0
 20
0.0
 30
0.0
  9
$EXTMAX
 10
210.0
 20
297.0
 30
0.0
  9
$LIMMIN
 10
0.0
 20
0.0
  9
$LIMMAX
 10
210.0
 20
297.0
  9
$ORTHOMODE
 70
     0
  9
$REGENMODE
 70
     1
  9
$FILLMODE
 70
     1
  9
$QTEXTMODE
 70
     0
  9
$MIRRTEXT
 70
     1
  9
$LTSCALE
 40
1.0
  9
$ATTMODE
 70
     1
  9
$TEXTSIZE
 40
3.5
  9
$TRACEWID
 40
1.0
  9
$TEXTSTYLE
  7
Standard
  9
$CLAYER
  8
0
  9
$CELTYPE
  6
ByLayer
  9
$CECOLOR
 62
   256
  9
$CELTSCALE
 40
1.0
  9
$DISPSILH
 70
     0
  9
$DIMSCALE
 40
1.0
  9
$DIMASZ
 40
1.5
  9
$DIMEXO
 40
1.0
  9
$DIMDLI
 40
3.75
  9
$DIMRND
 40
0.0
  9
$DIMDLE
 40
0.0
  9
$DIMEXE
 40
1.0
  9
$DIMTP
 40
0.0
  9
$DIMTM
 40
0.0
  9
$DIMTXT
 40
3.5
  9
$DIMCEN
 40
2.5
  9
$DIMTSZ
 40
0.0
  9
$DIMTOL
 70
     0
  9
$DIMLIM
 70
     0
  9
$DIMTIH
 70
     1
  9
$DIMTOH
 70
     1
  9
$DIMSE1
 70
     0
  9
$DIMSE2
 70
     0
  9
$DIMTAD
 70
     1
  9
$DIMZIN
 70
     0
  9
$DIMBLK
  1

  9
$DIMASO
 70
     1
  9
$DIMSHO
 70
     1
  9
$DIMPOST
  1

  9
$DIMAPOST
  1

  9
$DIMALT
 70
     0
  9
$DIMALTD
 70
     3
  9
$DIMALTF
 40
0.0393700787
  9
$DIMLFAC
 40
1.0
  9
$DIMTOFL
 70
     1
  9
$DIMTVP
 40
0.0
  9
$DIMTIX
 70
     0
  9
$DIMSOXD
 70
     0
  9
$DIMSAH
 70
     0
  9
$DIMBLK1
  1

  9
$DIMBLK2
  1

  9
$DIMSTYLE
  2
ISO-25
  9
$DIMCLRD
 70
     0
  9
$DIMCLRE
 70
     0
  9
$DIMCLRT
 70
     0
  9
$DIMTFAC
 40
1.0
  9
$DIMGAP
 40
1.524
  9
$DIMJUST
 70
     0
  9
$DIMSD1
 70
     0
  9
$DIMSD2
 70
     0
  9
$DIMTOLJ
 70
     0
  9
$DIMTZIN
 70
     0
  9
$DIMALTZ
 70
     0
  9
$DIMALTTZ
 70
     0
  9
$DIMUPT
 70
     0
  9
$DIMDEC
 70
     2
  9
$DIMTDEC
 70
     2
  9
$DIMALTU
 70
     2
  9
$DIMALTTD
 70
     3
  9
$DIMTXSTY
  7
Standard
  9
$DIMAUNIT
 70
     0
  9
$DIMADEC
 70
     2
  9
$DIMALTRND
 40
0.0
  9
$DIMAZIN
 70
     0
  9
$DIMDSEP
 70
    44
  9
$DIMATFIT
 70
     3
  9
$DIMFRAC
 70
     0
  9
$DIMLDRBLK
  1

  9
$DIMLUNIT
 70
     2
  9
$DIMLWD
 70
    -2
  9
$DIMLWE
 70
    -2
  9
$DIMTMOVE
 70
     0
  9
$LUNITS
 70
     2
  9
$LUPREC
 70
     2
  9
$SKETCHINC
 40
1.0
  9
$FILLETRAD
 40
10.0
  9
$AUNITS
 70
     0
  9
$AUPREC
 70
     2
  9
$MENU
  1
.
  9
$ELEVATION
 40
0.0
  9
$PELEVATION
 40
0.0
  9
$THICKNESS
 40
0.0
  9
$LIMCHECK
 70
     0
  9
$CHAMFERA
 40
0.0
  9
$CHAMFERB
 40
0.0
  9
$CHAMFERC
 40
0.0
  9
$CHAMFERD
 40
0.0
  9
$SKPOLY
 70
     0
  9
$TDCREATE
 40
2458131.64254559
  9
$TDUCREATE
 40
2458131.600878924
  9
$TDUPDATE
 40
2458131.642548252
  9
$TDUUPDATE
 40
2458131.600881586
  9
$TDINDWG
 40
0.0000000116
  9
$TDUSRTIMER
 40
0.0000000116
  9
$USRTIMER
 70
     1
  9
$ANGBASE
 50
0.0
  9
$ANGDIR
 70
     0
  9
$PDMODE
 70
     0
  9
$PDSIZE
 40
-1.0
  9
$PLINEWID
 40
0.0
  9
$SPLFRAME
 70
     0
  9
$SPLINETYPE
 70
     6
  9
$SPLINESEGS
 70
     8
  9
$HANDSEED
  5
2F8
  9
$SURFTAB1
 70
     6
  9
$SURFTAB2
 70
     6
  9
$SURFTYPE
 70
     6
  9
$SURFU
 70
     6
  9
$SURFV
 70
     6
  9
$UCSBASE
  2

  9
$UCSNAME
  2

  9
$UCSORG
 10
0.0
 20
0.0
 30
0.0
  9
$UCSXDIR
 10
1.0
 20
0.0
 30
0.0
  9
$UCSYDIR
 10
0.0
 20
1.0
 30
0.0
  9
$UCSORTHOREF
  2

  9
$UCSORTHOVIEW
 70
     0
  9
$UCSORGTOP
 10
0.0
 20
0.0
 30
0.0
  9
$UCSORGBOTTOM
 10
0.0
 20
0.0
 30
0.0
  9
$UCSORGLEFT
 10
0.0
 20
0.0
 30
0.0
  9
$UCSORGRIGHT
 10
0.0
 20
0.0
 30
0.0
  9
$UCSORGFRONT
 10
0.0
 20
0.0
 30
0.0
  9
$UCSORGBACK
 10
0.0
 20
0.0
 30
0.0
  9
$PUCSBASE
  2

  9
$PUCSNAME
  2

  9
$PUCSORG
 10
0.0
 20
0.0
 30
0.0
  9
$PUCSXDIR
 10
1.0
 20
0.0
 30
0.0
  9
$PUCSYDIR
 10
0.0
 20
1.0
 30
0.0
  9
$PUCSORTHOREF
  2

  9
$PUCSORTHOVIEW
 70
     0
  9
$PUCSORGTOP
 10
0.0
 20
0.0
 30
0.0
  9
$PUCSORGBOTTOM
 10
0.0
 20
0.0
 30
0.0
  9
$PUCSORGLEFT
 10
0.0
 20
0.0
 30
0.0
  9
$PUCSORGRIGHT
 10
0.0
 20
0.0
 30
0.0
  9
$PUCSORGFRONT
 10
0.0
 20
0.0
 30
0.0
  9
$PUCSORGBACK
 10
0.0
 20
0.0
 30
0.0
  9
$USERI1
 70
     0
  9
$USERI2
 70
     0
  9
$USERI3
 70
     0
  9
$USERI4
 70
     0
  9
$USERI5
 70
     0
  9
$USERR1
 40
0.0
  9
$USERR2
 40
0.0
  9
$USERR3
 40
0.0
  9
$USERR4
 40
0.0
  9
$USERR5
 40
0.0
  9
$WORLDVIEW
 70
     1
  9
$SHADEDGE
 70
     3
  9
$SHADEDIF
 70
    70
  9
$TILEMODE
 70
     1
  9
$MAXACTVP
 70
    64
  9
$PINSBASE
 10
0.0
 20
0.0
 30
0.0
  9
$PLIMCHECK
 70
     0
  9
$PEXTMIN
 10
1.0000000000E+20
 20
1.0000000000E+20
 30
1.0000000000E+20
  9
$PEXTMAX
 10
-1.0000000000E+20
 20
-1.0000000000E+20
 30
-1.0000000000E+20
  9
$PLIMMIN
 10
0.0
 20
0.0
  9
$PLIMMAX
 10
420.0
 20
297.0
  9
$UNITMODE
 70
     0
  9
$VISRETAIN
 70
     1
  9
$PLINEGEN
 70
     0
  9
$PSLTSCALE
 70
     1
  9
$TREEDEPTH
 70
  3020
  9
$CMLSTYLE
  2
Standard
  9
$CMLJUST
 70
     0
  9
$CMLSCALE
 40
20.0
  9
$PROXYGRAPHICS
 70
     1
  9
$MEASUREMENT
 70
     1
  9
$CELWEIGHT
370
    -1
  9
$ENDCAPS
280
     0
  9
$JOINSTYLE
280
     0
  9
$LWDISPLAY
290
     1
  9
$INSUNITS
 70
     4
  9
$HYPERLINKBASE
  1

  9
$STYLESHEET
  1

  9
$XEDIT
290
     1
  9
$CEPSNTYPE
380
     0
  9
$PSTYLEMODE
290
     1
  9
$FINGERPRINTGUID
  2
{3A6A20CD-83A9-4819-97C4-ED933D03BF2F}
  9
$VERSIONGUID
  2
{FAEB1C32-E019-11D5-929B-00C0DF256EC4}
  9
$EXTNAMES
290
     1
  9
$PSVPSCALE
 40
0.0
  9
$OLESTARTUP
290
     0
  0
ENDSEC
  0
SECTION
  2
CLASSES
  0
CLASS
  1
ACDBDICTIONARYWDFLT
  2
AcDbDictionaryWithDefault
  3
ObjectDBX Classes
 90
        0
280
     0
281
     0
  0
CLASS
  1
VISUALSTYLE
  2
AcDbVisualStyle
  3
ObjectDBX Classes
 90
     4095
280
     0
281
     0
  0
CLASS
  1
MATERIAL
  2
AcDbMaterial
  3
ObjectDBX Classes
 90
     1153
280
     0
281
     0
  0
CLASS
  1
SCALE
  2
AcDbScale
  3
ObjectDBX Classes
 90
     1153
280
     0
281
     0
  0
CLASS
  1
SUN
  2
AcDbSun
  3
SCENEOE
 90
     1153
280
     0
281
     0
  0
CLASS
  1
ACDBPLACEHOLDER
  2
AcDbPlaceHolder
  3
ObjectDBX Classes
 90
        0
280
     0
281
     0
  0
CLASS
  1
LAYOUT
  2
AcDbLayout
  3
ObjectDBX Classes
 90
        0
280
     0
281
     0
  0
ENDSEC
  0
SECTION
  2
TABLES
  0
TABLE
  2
VPORT
  5
8
330
0
100
AcDbSymbolTable
 70
     1
  0
VPORT
  5
29
330
8
100
AcDbSymbolTableRecord
100
AcDbViewportTableRecord
  2
*Active
 70
     0
 10
0.0
 20
0.0
 11
1.0
 21
1.0
 12
105.0
 22
148.5
 13
0.0
 23
0.0
 14
10.0
 24
10.0
 15
10.0
 25
10.0
 16
0.0
 26
0.0
 36
1.0
 17
0.0
 27
0.0
 37
0.0
 40
297.0
 41
0.7070707071
 42
50.0
 43
0.0
 44
0.0
 50
0.0
 51
0.0
 71
     0
 72
  2000
 73
     1
 74
     3
 75
     0
 76
     0
 77
     0
 78
     0
281
     0
 65
     1
110
0.0
120
0.0
130
0.0
111
1.0
121
0.0
131
0.0
112
0.0
122
1.0
132
0.0
 79
     0
146
0.0
  0
ENDTAB
  0
TABLE
  2
LTYPE
  5
5
330
0
100
AcDbSymbolTable
 70
     6
  0
LTYPE
  5
14
330
5
100
AcDbSymbolTableRecord
100
AcDbLinetypeTableRecord
  2
ByBlock
 70
     0
  3

 72
    65
 73
     0
 40
0.0
  0
LTYPE
  5
15
330
5
100
AcDbSymbolTableRecord
100
AcDbLinetypeTableRecord
  2
ByLayer
 70
     0
  3

 72
    65
 73
     0
 40
0.0
  0
LTYPE
  5
16
330
5
100
AcDbSymbolTableRecord
100
AcDbLinetypeTableRecord
  2
Continuous
 70
     0
  3
Solid line
 72
    65
 73
     0
 40
0.0
  0
LTYPE
  5
6A
330
5
100
AcDbSymbolTableRecord
100
AcDbLinetypeTableRecord
  2
HIDDEN
 70
     0
  3
Hidden __ __ __ __ __ __ __ __ __ __ __ __ __ __
 72
    65
 73
     2
 40
1.905
 49
1.27
 74
     0
 49
-0.635
 74
     0
  0
LTYPE
  5
6B
330
5
100
AcDbSymbolTableRecord
100
AcDbLinetypeTableRecord
  2
PHANTOM
 70
     0
  3
Phantom ______  __  __  ______  __  __  ______
 72
    65
 73
     6
 40
12.7
 49
6.35
 74
     0
 49
-1.27
 74
     0
 49
1.27
 74
     0
 49
-1.27
 74
     0
 49
1.27
 74
     0
 49
-1.27
 74
     0
  0
LTYPE
  5
6C
330
5
100
AcDbSymbolTableRecord
100
AcDbLinetypeTableRecord
  2
CENTER
 70
     0
  3
Center ____ _ ____ _ ____ _ ____ _ ____ _ ____
 72
    65
 73
     4
 40
10.16
 49
6.35
 74
     0
 49
-1.27
 74
     0
 49
1.27
 74
     0
 49
-1.27
 74
     0
  0
LTYPE
  5
6D
330
5
100
AcDbSymbolTableRecord
100
AcDbLinetypeTableRecord
  2
CENTERX2
 70
     0
  3
Center (2x) ________  __  ________  __  _____
 72
    65
 73
     4
 40
20.32
 49
12.7
 74
     0
 49
-2.54
 74
     0
 49
2.54
 74
     0
 49
-2.54
 74
     0
  0
LTYPE
  5
6E
330
5
100
AcDbSymbolTableRecord
100
AcDbLinetypeTableRecord
  2
DOT2
 70
     0
  3
Dot (.5x) ........................................
 72
    65
 73
     2
 40
0.635
 49
0.0
 74
     0
 49
-0.635
 74
     0
  0
ENDTAB
  0
TABLE
  2
LAYER
  5
2
330
0
100
AcDbSymbolTable
 70
     1
  0
LAYER
  5
10
330
2
100
AcDbSymbolTableRecord
100
AcDbLayerTableRecord
  2
0
 70
     0
 62
     7
  6
Continuous
370
    -3
390
F
  0
ENDTAB
  0
TABLE
  2
STYLE
  5
3
330
0
100
AcDbSymbolTable
 70
     4
  0
STYLE
  5
11
330
3
100
AcDbSymbolTableRecord
100
AcDbTextStyleTableRecord
  2
Standard
 70
     0
 40
0.0
 41
1.0
 50
0.0
 71
     0
 42
3.5
  3
txt
  4
bigfont
  0
STYLE
  5
87
330
3
100
AcDbSymbolTableRecord
100
AcDbTextStyleTableRecord
  2
SLDTEXTSTYLE0
 70
     0
 40
0.0
 41
0.7
 50
0.0
 71
     0
 42
3.5
  3
TXT
  4
bigfont
  0
STYLE
  5
F6
330
3
100
AcDbSymbolTableRecord
100
AcDbTextStyleTableRecord
  2
SLDTEXTSTYLE1
 70
     0
 40
0.0
 41
0.6090909091
 50
0.0
 71
     0
 42
3.5
  3
TXT
  4
bigfont
  0
STYLE
  5
2F4
330
3
100
AcDbSymbolTableRecord
100
AcDbTextStyleTableRecord
  2
SLDTEXTSTYLE2
 70
     0
 40
0.0
 41
0.75
 50
0.0
 71
     0
 42
3.5
  3
TXT
  4
bigfont
  0
ENDTAB
  0
TABLE
  2
VIEW
  5
6
330
0
100
AcDbSymbolTable
 70
     0
  0
ENDTAB
  0
TABLE
  2
UCS
  5
7
330
0
100
AcDbSymbolTable
 70
     0
  0
ENDTAB
  0
TABLE
  2
APPID
  5
9
330
0
100
AcDbSymbolTable
 70
     1
  0
APPID
  5
12
330
9
100
AcDbSymbolTableRecord
100
AcDbRegAppTableRecord
  2
ACAD
 70
     0
  0
ENDTAB
  0
TABLE
  2
DIMSTYLE
  5
A
330
0
100
AcDbSymbolTable
 70
    13
100
AcDbDimStyleTable
  0
DIMSTYLE
105
27
330
A
100
AcDbSymbolTableRecord
100
AcDbDimStyleTableRecord
  2
ISO-25
 70
     0
 41
2.5
 42
0.625
 43
3.75
 44
1.25
 73
     0
 74
     0
 77
     1
 78
     8
140
2.5
141
2.5
143
0.0393700787
147
0.625
171
     3
172
     1
178
     0
271
     2
272
     2
274
     3
278
    44
283
     0
284
     8
340
11
  0
DIMSTYLE
105
88
102
{ACAD_REACTORS
330
86
102
}
330
A
100
AcDbSymbolTableRecord
100
AcDbDimStyleTableRecord
  2
SLDDIMSTYLE0
 70
     0
 41
1.5
 44
0.0
 45
0.000000001
 78
    12
 79
     3
140
3.5
141
0.0
147
0.875
172
     1
173
     1
178
     0
271
     2
272
     2
276
     2
284
    12
340
87
341
89
343
89
344
8C
  0
DIMSTYLE
105
9D
102
{ACAD_REACTORS
330
9C
330
A7
330
1D9
102
}
330
A
100
AcDbSymbolTableRecord
100
AcDbDimStyleTableRecord
  2
SLDDIMSTYLE1
 70
     0
 41
1.5
 44
0.0
 73
     0
 74
     0
 77
     3
 78
    12
 79
     3
140
3.5
147
0.875
173
     1
178
     0
179
     2
272
     2
276
     2
284
    12
340
87
341
8C
343
8C
344
8C
  0
DIMSTYLE
105
B2
102
{ACAD_REACTORS
330
B1
102
}
330
A
100
AcDbSymbolTableRecord
100
AcDbDimStyleTableRecord
  2
SLDDIMSTYLE2
 70
     0
 41
1.5
 44
0.0
 45
0.000000001
 47
0.1
 71
     1
 78
     8
 79
     2
140
3.5
141
0.0
147
0.875
172
     1
173
     1
178
     0
271
     2
272
     1
276
     2
284
     8
340
87
341
89
343
89
344
8C
  0
DIMSTYLE
105
125
102
{ACAD_REACTORS
330
124
330
154
330
26C
102
}
330
A
100
AcDbSymbolTableRecord
100
AcDbDimStyleTableRecord
  2
SLDDIMSTYLE3
 70
     0
 41
1.5
 44
0.0
 45
0.000000001
 73
     0
 74
     0
 77
     3
 78
    12
 79
     3
140
3.5
147
0.875
172
     1
173
     1
178
     0
271
     1
272
     1
276
     2
284
    12
289
     0
340
87
341
8C
343
8C
344
8C
  0
DIMSTYLE
105
130
102
{ACAD_REACTORS
330
12F
102
}
330
A
100
AcDbSymbolTableRecord
100
AcDbDimStyleTableRecord
  2
SLDDIMSTYLE4
 70
     0
 41
1.5
 44
0.0
 45
0.000000001
 73
     0
 74
     0
 77
     3
 78
    12
 79
     3
140
3.5
147
0.875
172
     1
173
     1
178
     0
271
     6
272
     1
276
     2
284
    12
289
     0
340
87
341
8C
343
8C
344
8C
  0
DIMSTYLE
105
13E
102
{ACAD_REACTORS
330
13D
102
}
330
A
100
AcDbSymbolTableRecord
100
AcDbDimStyleTableRecord
  2
SLDDIMSTYLE5
 70
     0
 41
1.5
 44
0.0
 45
0.000000001
 73
     0
 74
     0
 77
     3
 78
    12
 79
     3
140
3.5
147
0.875
173
     1
178
     0
271
     1
272
     2
276
     2
284
    12
340
87
341
8C
343
8C
344
8C
  0
DIMSTYLE
105
14A
102
{ACAD_REACTORS
330
149
330
222
102
}
330
A
100
AcDbSymbolTableRecord
100
AcDbDimStyleTableRecord
  2
SLDDIMSTYLE6
 70
     0
 41
1.5
 44
0.0
 45
0.000000001
 73
     0
 74
     0
 77
     3
 78
    12
 79
     3
140
3.5
147
0.875
173
     1
178
     0
271
     6
272
     0
276
     2
284
    12
340
87
341
8C
343
8C
344
8C
  0
DIMSTYLE
105
162
102
{ACAD_REACTORS
330
161
102
}
330
A
100
AcDbSymbolTableRecord
100
AcDbDimStyleTableRecord
  2
SLDDIMSTYLE7
 70
     0
 41
1.5
 44
0.0
 45
0.000000001
 73
     0
 74
     0
 77
     3
 78
     8
 79
     2
140
3.5
147
0.875
172
     1
173
     1
178
     0
271
     2
272
     2
276
     2
284
    12
289
     0
340
87
341
8C
343
8C
344
8C
  0
DIMSTYLE
105
1CD
102
{ACAD_REACTORS
330
1CC
102
}
330
A
100
AcDbSymbolTableRecord
100
AcDbDimStyleTableRecord
  2
SLDDIMSTYLE8
 70
     0
 41
1.5
 44
0.0
 45
0.000000001
 47
0.2
 48
0.2
 71
     1
 78
    12
 79
     3
140
3.5
141
0.0
147
0.875
172
     1
173
     1
178
     0
271
     2
272
     1
276
     2
284
     8
340
87
341
89
343
89
344
8C
  0
DIMSTYLE
105
1E4
102
{ACAD_REACTORS
330
1E3
102
}
330
A
100
AcDbSymbolTableRecord
100
AcDbDimStyleTableRecord
  2
SLDDIMSTYLE9
 70
     0
 41
1.5
 44
0.0
 73
     0
 74
     0
 77
     3
 78
    12
 79
     3
140
3.5
147
0.875
173
     1
178
     0
179
     2
272
     2
276
     2
284
    12
340
87
341
8C
343
8C
344
8C
  0
DIMSTYLE
105
1F9
330
A
100
AcDbSymbolTableRecord
100
AcDbDimStyleTableRecord
  2
SLDDIMSTYLE10
 70
     0
 41
1.5
 44
0.0
 45
0.000000001
146
1.5
147
0.0
173
     1
178
     0
271
     0
272
     0
276
     2
340
11
341
8C
343
8C
344
8C
  0
DIMSTYLE
105
22D
102
{ACAD_REACTORS
330
22C
102
}
330
A
100
AcDbSymbolTableRecord
100
AcDbDimStyleTableRecord
  2
SLDDIMSTYLE11
 70
     0
 41
1.5
 44
0.0
 45
0.000000001
 47
0.2
 71
     1
 73
     0
 74
     0
 77
     3
 78
    12
 79
     3
140
3.5
147
0.875
172
     1
173
     1
178
     0
271
     6
272
     1
276
     2
284
     8
289
     0
340
87
341
8C
343
8C
344
8C
  0
ENDTAB
  0
TABLE
  2
BLOCK_RECORD
  5
1
330
0
100
AcDbSymbolTable
 70
    27
  0
BLOCK_RECORD
  5
1F
330
1
100
AcDbSymbolTableRecord
100
AcDbBlockTableRecord
  2
*Model_Space
340
22
  0
BLOCK_RECORD
  5
1B
330
1
100
AcDbSymbolTableRecord
100
AcDbBlockTableRecord
  2
*Paper_Space
340
1E
  0
BLOCK_RECORD
  5
23
330
1
100
AcDbSymbolTableRecord
100
AcDbBlockTableRecord
  2
*Paper_Space0
340
26
  0
BLOCK_RECORD
  5
89
330
1
100
AcDbSymbolTableRecord
100
AcDbBlockTableRecord
  2
_NONE
340
0
  0
BLOCK_RECORD
  5
8C
330
1
100
AcDbSymbolTableRecord
100
AcDbBlockTableRecord
  2
_OPEN30
340
0
102
{BLKREFS
331
95
331
A2
331
A3
331
AC
331
AD
331
B6
331
FA
331
129
331
12A
331
134
331
135
331
142
331
143
331
14E
331
14F
331
158
331
159
331
166
331
167
331
175
331
177
331
1D1
331
1DE
331
1DF
331
1E9
331
1EA
331
226
331
227
331
231
331
232
331
270
331
271
102
}
  0
BLOCK_RECORD
  5
92
330
1
100
AcDbSymbolTableRecord
100
AcDbBlockTableRecord
  2
_D
340
0
  0
BLOCK_RECORD
  5
9E
330
1
100
AcDbSymbolTableRecord
100
AcDbBlockTableRecord
  2
_D_1
340
0
  0
BLOCK_RECORD
  5
A8
330
1
100
AcDbSymbolTableRecord
100
AcDbBlockTableRecord
  2
_D_2
340
0
  0
BLOCK_RECORD
  5
B3
330
1
100
AcDbSymbolTableRecord
100
AcDbBlockTableRecord
  2
_D_3
340
0
  0
BLOCK_RECORD
  5
C2
330
1
100
AcDbSymbolTableRecord
100
AcDbBlockTableRecord
  2
SW_NOTE_0
340
0
102
{BLKREFS
331
C8
102
}
  0
BLOCK_RECORD
  5
C9
330
1
100
AcDbSymbolTableRecord
100
AcDbBlockTableRecord
  2
SW_NOTE_1
340
0
102
{BLKREFS
331
CE
102
}
  0
BLOCK_RECORD
  5
D2
330
1
100
AcDbSymbolTableRecord
100
AcDbBlockTableRecord
  2
SW_NOTE_2
340
0
102
{BLKREFS
331
D9
102
}
  0
BLOCK_RECORD
  5
DC
330
1
100
AcDbSymbolTableRecord
100
AcDbBlockTableRecord
  2
SW_NOTE_3
340
0
102
{BLKREFS
331
E6
102
}
  0
BLOCK_RECORD
  5
F3
330
1
100
AcDbSymbolTableRecord
100
AcDbBlockTableRecord
  2
SW_NOTE_4
340
0
102
{BLKREFS
331
F9
102
}
  0
BLOCK_RECORD
  5
126
330
1
100
AcDbSymbolTableRecord
100
AcDbBlockTableRecord
  2
_D_4
340
0
  0
BLOCK_RECORD
  5
131
330
1
100
AcDbSymbolTableRecord
100
AcDbBlockTableRecord
  2
_D_5
340
0
  0
BLOCK_RECORD
  5
13F
330
1
100
AcDbSymbolTableRecord
100
AcDbBlockTableRecord
  2
_D_6
340
0
  0
BLOCK_RECORD
  5
14B
330
1
100
AcDbSymbolTableRecord
100
AcDbBlockTableRecord
  2
_D_7
340
0
  0
BLOCK_RECORD
  5
155
330
1
100
AcDbSymbolTableRecord
100
AcDbBlockTableRecord
  2
_D_8
340
0
  0
BLOCK_RECORD
  5
163
330
1
100
AcDbSymbolTableRecord
100
AcDbBlockTableRecord
  2
_D_9
340
0
  0
BLOCK_RECORD
  5
1CE
330
1
100
AcDbSymbolTableRecord
100
AcDbBlockTableRecord
  2
_D_10
340
0
  0
BLOCK_RECORD
  5
1DA
330
1
100
AcDbSymbolTableRecord
100
AcDbBlockTableRecord
  2
_D_11
340
0
  0
BLOCK_RECORD
  5
1E5
330
1
100
AcDbSymbolTableRecord
100
AcDbBlockTableRecord
  2
_D_12
340
0
  0
BLOCK_RECORD
  5
1EE
330
1
100
AcDbSymbolTableRecord
100
AcDbBlockTableRecord
  2
SW_NOTE_5
340
0
102
{BLKREFS
331
1F8
102
}
  0
BLOCK_RECORD
  5
223
330
1
100
AcDbSymbolTableRecord
100
AcDbBlockTableRecord
  2
_D_13
340
0
  0
BLOCK_RECORD
  5
22E
330
1
100
AcDbSymbolTableRecord
100
AcDbBlockTableRecord
  2
_D_14
340
0
  0
BLOCK_RECORD
  5
240
330
1
100
AcDbSymbolTableRecord
100
AcDbBlockTableRecord
  2
SW_NOTE_6
340
0
102
{BLKREFS
331
24A
102
}
  0
BLOCK_RECORD
  5
26D
330
1
100
AcDbSymbolTableRecord
100
AcDbBlockTableRecord
  2
_D_15
340
0
  0
BLOCK_RECORD
  5
2F1
330
1
100
AcDbSymbolTableRecord
100
AcDbBlockTableRecord
  2
SW_NOTE_7
340
0
102
{BLKREFS
331
2F7
102
}
  0
ENDTAB
  0
ENDSEC
  0
SECTION
  2
BLOCKS
  0
BLOCK
  5
20
330
1F
100
AcDbEntity
  8
0
100
AcDbBlockBegin
  2
*Model_Space
 70
     0
 10
0.0
 20
0.0
 30
0.0
  3
*Model_Space
  1
*Model_Space
  0
ENDBLK
  5
21
330
1F
100
AcDbEntity
  8
0
100
AcDbBlockEnd
  0
BLOCK
  5
1C
330
1B
100
AcDbEntity
 67
     1
  8
0
100
AcDbBlockBegin
  2
*Paper_Space
 70
     0
 10
0.0
 20
0.0
 30
0.0
  3
*Paper_Space
  1
*Paper_Space
  0
ENDBLK
  5
1D
330
1B
100
AcDbEntity
 67
     1
  8
0
100
AcDbBlockEnd
  0
BLOCK
  5
24
330
23
100
AcDbEntity
  8
0
100
AcDbBlockBegin
  2
*Paper_Space0
 70
     0
 10
0.0
 20
0.0
 30
0.0
  3
*Paper_Space0
  1
*Paper_Space0
  0
ENDBLK
  5
25
330
23
100
AcDbEntity
  8
0
100
AcDbBlockEnd
  0
BLOCK
  5
8A
330
89
100
AcDbEntity
  8
0
100
AcDbBlockBegin
  2
_NONE
 70
     0
 10
0.0
 20
0.0
 30
0.0
  3
_NONE
  1
_NONE
  0
ENDBLK
  5
8B
330
89
100
AcDbEntity
  8
0
100
AcDbBlockEnd
  0
BLOCK
  5
8D
330
8C
100
AcDbEntity
  8
0
100
AcDbBlockBegin
  2
_OPEN30
 70
     0
 10
0.0
 20
0.0
 30
0.0
  3
_OPEN30
  1
_OPEN30
  0
LINE
  5
8F
330
8C
100
AcDbEntity
  8
0
  6
ByBlock
 62
     0
370
    -2
100
AcDbLine
 10
-1.0
 20
0.267949
 30
0.0
 11
0.0
 21
0.0
 31
0.0
  0
LINE
  5
90
330
8C
100
AcDbEntity
  8
0
  6
ByBlock
 62
     0
370
    -2
100
AcDbLine
 10
0.0
 20
0.0
 30
0.0
 11
-1.0
 21
-0.267949
 31
0.0
  0
LINE
  5
91
330
8C
100
AcDbEntity
  8
0
  6
ByBlock
 62
     0
370
    -2
100
AcDbLine
 10
0.0
 20
0.0
 30
0.0
 11
-1.0
 21
0.0
 31
0.0
  0
ENDBLK
  5
8E
330
8C
100
AcDbEntity
  8
0
100
AcDbBlockEnd
  0
BLOCK
  5
93
330
92
100
AcDbEntity
  8
0
100
AcDbBlockBegin
  2
_D
 70
     0
 10
0.0
 20
0.0
 30
0.0
  3
_D
  1
_D
  0
INSERT
  5
95
330
92
100
AcDbEntity
  8
0
  6
Continuous
 62
     7
370
     0
100
AcDbBlockReference
  2
_OPEN30
 10
49.8217118314
 20
125.6768594977
 30
0.1
 41
1.5
 42
1.5
 50
41.1443632207
  0
LINE
  5
96
330
92
100
AcDbEntity
  8
0
  6
Continuous
 62
     7
370
     0
100
AcDbLine
 10
49.8217118314
 20
125.6768594977
 30
0.0
 11
44.1895096072
 21
120.755891542
 31
0.0
  0
LINE
  5
97
330
92
100
AcDbEntity
  8
0
  6
Continuous
 62
     7
370
     0
100
AcDbLine
 10
53.6472270208
 20
129.0192887842
 30
0.0
 11
49.8217118314
 21
125.6768594977
 31
0.0
  0
LINE
  5
98
330
92
100
AcDbEntity
  8
0
  6
Continuous
 62
     7
370
     0
100
AcDbLine
 10
44.1895096072
 20
120.755891542
 30
0.0
 11
22.8216624835
 21
120.755891542
 31
0.0
  0
MTEXT
  5
99
330
92
100
AcDbEntity
  8
0
  6
Continuous
 62
     7
370
     0
100
AcDbMText
 10
22.8216624835
 20
125.2676288641
 30
0.0
 40
3.5
 41
0.0
 71
     1
 72
     1
  1
%%c
  7
SLDTEXTSTYLE0
 73
     1
 44
1.0
  0
MTEXT
  5
9A
330
92
100
AcDbEntity
  8
0
  6
Continuous
 62
     7
370
     0
100
AcDbMText
 10
26.6915929986
 20
125.2676288641
 30
0.0
 40
3.5
 41
0.0
 71
     1
 72
     1
  1
5.08
  7
SLDTEXTSTYLE0
 73
     1
 44
1.0
  0
MTEXT
  5
9B
330
92
100
AcDbEntity
  8
0
  6
Continuous
 62
     7
370
     0
100
AcDbMText
 10
33.6283980885
 20
125.2676288641
 30
0.0
 40
3.5
 41
0.0
 71
     1
 72
     1
  1
±0.1
  7
SLDTEXTSTYLE0
 73
     1
 44
1.0
  0
ENDBLK
  5
94
330
92
100
AcDbEntity
  8
0
100
AcDbBlockEnd
  0
BLOCK
  5
9F
330
9E
100
AcDbEntity
  8
0
100
AcDbBlockBegin
  2
_D_1
 70
     0
 10
0.0
 20
0.0
 30
0.0
  3
_D_1
  1
_D_1
  0
ARC
  5
A1
330
9E
100
AcDbEntity
  8
0
  6
Continuous
 62
     7
370
     0
100
AcDbCircle
 10
51.7344694261
 20
127.3480741409
 30
0.0
 40
16.68740954512837
100
AcDbArc
 50
0.0
 51
45.0
  0
INSERT
  5
A2
330
9E
100
AcDbEntity
  8
0
  6
Continuous
 62
     7
370
     0
100
AcDbBlockReference
  2
_OPEN30
 10
68.4218789712
 20
127.3480741409
 30
0.1
 41
1.5
 42
1.5
 50
272.5682030927
  0
INSERT
  5
A3
330
9E
100
AcDbEntity
  8
0
  6
Continuous
 62
     7
370
     0
100
AcDbBlockReference
  2
_OPEN30
 10
63.5342498759
 20
139.1478545907
 30
0.1
 41
1.5
 42
1.5
 50
132.4317969073
  0
LINE
  5
A4
330
9E
100
AcDbEntity
  8
0
  6
Continuous
 62
     7
370
     0
100
AcDbLine
 10
56.6741111514
 20
127.3480741409
 30
0.0
 11
69.4218789712
 21
127.3480741409
 31
0.0
  0
LINE
  5
A5
330
9E
100
AcDbEntity
  8
0
  6
Continuous
 62
     7
370
     0
100
AcDbLine
 10
54.2376274315
 20
129.8512321463
 30
0.0
 11
64.2413566571
 21
139.8549613719
 31
0.0
  0
MTEXT
  5
A6
330
9E
100
AcDbEntity
  8
0
  6
Continuous
 62
     7
370
     0
100
AcDbMText
 10
70.9943052883
 20
137.0977837393
 30
0.0
 40
3.5
 41
0.0
 71
     1
 72
     1
  1
45°
  7
SLDTEXTSTYLE0
 11
0.2751694437706571
 21
-0.9613957443295384
 31
0.0
 73
     1
 44
1.0
  0
ENDBLK
  5
A0
330
9E
100
AcDbEntity
  8
0
100
AcDbBlockEnd
  0
BLOCK
  5
A9
330
A8
100
AcDbEntity
  8
0
100
AcDbBlockBegin
  2
_D_2
 70
     0
 10
0.0
 20
0.0
 30
0.0
  3
_D_2
  1
_D_2
  0
ARC
  5
AB
330
A8
100
AcDbEntity
  8
0
  6
Continuous
 62
     7
370
     0
100
AcDbCircle
 10
51.7344694261
 20
127.3480741409
 30
0.0
 40
16.55045093580977
100
AcDbArc
 50
315.0
 51
0.0
  0
INSERT
  5
AC
330
A8
100
AcDbEntity
  8
0
  6
Continuous
 62
     7
370
     0
100
AcDbBlockReference
  2
_OPEN30
 10
63.4374055145
 20
115.6451380525
 30
0.1
 41
1.5
 42
1.5
 50
227.5893404481
  0
INSERT
  5
AD
330
A8
100
AcDbEntity
  8
0
  6
Continuous
 62
     7
370
     0
100
AcDbBlockReference
  2
_OPEN30
 10
68.2849203619
 20
127.3480741409
 30
0.1
 41
1.5
 42
1.5
 50
87.4106595519
  0
LINE
  5
AE
330
A8
100
AcDbEntity
  8
0
  6
Continuous
 62
     7
370
     0
100
AcDbLine
 10
54.2376274315
 20
124.8449161355
 30
0.0
 11
64.1445122957
 21
114.9380312713
 31
0.0
  0
LINE
  5
AF
330
A8
100
AcDbEntity
  8
0
  6
Continuous
 62
     7
370
     0
100
AcDbLine
 10
56.6741111514
 20
127.3480741409
 30
0.0
 11
69.2849203619
 21
127.3480741409
 31
0.0
  0
MTEXT
  5
B0
330
A8
100
AcDbEntity
  8
0
  6
Continuous
 62
     7
370
     0
100
AcDbMText
 10
62.4034185962
 20
120.4416664764
 30
0.0
 40
3.5
 41
0.0
 71
     1
 72
     1
  1
45°
  7
SLDTEXTSTYLE0
 11
0.2456779600317609
 21
0.9693515048498312
 31
0.0
 73
     1
 44
1.0
  0
ENDBLK
  5
AA
330
A8
100
AcDbEntity
  8
0
100
AcDbBlockEnd
  0
BLOCK
  5
B4
330
B3
100
AcDbEntity
  8
0
100
AcDbBlockBegin
  2
_D_3
 70
     0
 10
0.0
 20
0.0
 30
0.0
  3
_D_3
  1
_D_3
  0
INSERT
  5
B6
330
B3
100
AcDbEntity
  8
0
  6
Continuous
 62
     7
370
     0
100
AcDbBlockReference
  2
_OPEN30
 10
49.7313529489
 20
129.3946228322
 30
0.1
 41
1.5
 42
1.5
 50
309.5776854325
  0
LINE
  5
B7
330
B3
100
AcDbEntity
  8
0
  6
Continuous
 62
     7
370
     0
100
AcDbLine
 10
49.7313529489
 20
129.3946228322
 30
0.0
 11
45.827703222
 21
134.1170683174
 31
0.0
  0
LINE
  5
B8
330
B3
100
AcDbEntity
  8
0
  6
Continuous
 62
     7
370
     0
100
AcDbLine
 10
50.1454834548
 20
128.8936278981
 30
0.0
 11
49.7313529489
 21
129.3946228322
 31
0.0
  0
LINE
  5
B9
330
B3
100
AcDbEntity
  8
0
  6
Continuous
 62
     7
370
     0
100
AcDbLine
 10
45.827703222
 20
134.1170683174
 30
0.0
 11
21.1834688687
 21
134.1170683174
 31
0.0
  0
MTEXT
  5
BA
330
B3
100
AcDbEntity
  8
0
  6
Continuous
 62
     7
370
     0
100
AcDbMText
 10
21.1834688687
 20
138.628806105
 30
0.0
 40
3.5
 41
0.0
 71
     1
 72
     1
  1
3-
  7
SLDTEXTSTYLE0
 73
     1
 44
1.0
  0
MTEXT
  5
BB
330
B3
100
AcDbEntity
  8
0
  6
Continuous
 62
     7
370
     0
100
AcDbMText
 10
25.2570798637
 20
138.628806105
 30
0.0
 40
3.5
 41
0.0
 71
     1
 72
     1
  1
%%c
  7
SLDTEXTSTYLE0
 73
     1
 44
1.0
  0
MTEXT
  5
BC
330
B3
100
AcDbEntity
  8
0
  6
Continuous
 62
     7
370
     0
100
AcDbMText
 10
29.1270106116
 20
138.628806105
 30
0.0
 40
3.5
 41
0.0
 71
     1
 72
     1
  1
0.65
  7
SLDTEXTSTYLE0
 73
     1
 44
1.0
  0
MTEXT
  5
BD
330
B3
100
AcDbEntity
  8
0
  6
Continuous
 62
     7
370
     0
100
AcDbMText
 10
37.2669409343
 20
138.628806105
 30
0.0
 40
3.5
 41
0.0
 71
     1
 72
     1
  1

  7
SLDTEXTSTYLE0
 73
     1
 44
1.0
  0
MTEXT
  5
BE
330
B3
100
AcDbEntity
  8
0
  6
Continuous
 62
     7
370
     0
100
AcDbMText
 10
37.3033997619
 20
142.7024171
 30
0.0
 40
3.5
 41
0.0
 71
     1
 72
     1
  1
+
  7
SLDTEXTSTYLE0
 73
     1
 44
1.0
  0
MTEXT
  5
BF
330
B3
100
AcDbEntity
  8
0
  6
Continuous
 62
     7
370
     0
100
AcDbMText
 10
38.9051358297
 20
138.628806105
 30
0.0
 40
3.5
 41
0.0
 71
     1
 72
     1
  1

  7
SLDTEXTSTYLE0
 73
     1
 44
1.0
  0
MTEXT
  5
C0
330
B3
100
AcDbEntity
  8
0
  6
Continuous
 62
     7
370
     0
100
AcDbMText
 10
39.3402040952
 20
142.7024171
 30
0.0
 40
3.5
 41
0.0
 71
     1
 72
     1
  1
0.1
  7
SLDTEXTSTYLE0
 73
     1
 44
1.0
  0
MTEXT
  5
C1
330
B3
100
AcDbEntity
  8
0
  6
Continuous
 62
     7
370
     0
100
AcDbMText
 10
39.3402040952
 20
138.628806105
 30
0.0
 40
3.5
 41
0.0
 71
     1
 72
     1
  1
0
  7
SLDTEXTSTYLE0
 73
     1
 44
1.0
  0
ENDBLK
  5
B5
330
B3
100
AcDbEntity
  8
0
100
AcDbBlockEnd
  0
BLOCK
  5
C3
330
C2
100
AcDbEntity
  8
0
100
AcDbBlockBegin
  2
SW_NOTE_0
 70
     0
 10
0.0
 20
0.0
 30
0.0
  3
SW_NOTE_0
  1
SW_NOTE_0
  0
MTEXT
  5
C5
330
C2
100
AcDbEntity
  8
0
  6
Continuous
 62
     0
370
     0
100
AcDbMText
 10
0.0
 20
4.5117370892
 30
0.0
 40
3.5
 41
0.0
 71
     1
 72
     1
  1
Recommended
  7
SLDTEXTSTYLE0
 73
     1
 44
1.0
  0
MTEXT
  5
C6
330
C2
100
AcDbEntity
  8
0
  6
Continuous
 62
     0
370
     0
100
AcDbMText
 10
0.0
 20
0.0117372829
 30
0.0
 40
3.5
 41
0.0
 71
     1
 72
     1
  1
panel mouting hole
  7
SLDTEXTSTYLE0
 73
     1
 44
1.0
  0
MTEXT
  5
C7
330
C2
100
AcDbEntity
  8
0
  6
Continuous
 62
     0
370
     0
100
AcDbMText
 10
0.0
 20
-4.4882625234
 30
0.0
 40
3.5
 41
0.0
 71
     1
 72
     1
  1
dimensions
  7
SLDTEXTSTYLE0
 73
     1
 44
1.0
  0
ENDBLK
  5
C4
330
C2
100
AcDbEntity
  8
0
100
AcDbBlockEnd
  0
BLOCK
  5
CA
330
C9
100
AcDbEntity
  8
0
100
AcDbBlockBegin
  2
SW_NOTE_1
 70
     0
 10
0.0
 20
0.0
 30
0.0
  3
SW_NOTE_1
  1
SW_NOTE_1
  0
MTEXT
  5
CC
330
C9
100
AcDbEntity
  8
0
  6
Continuous
 62
     0
370
     0
100
AcDbMText
 10
0.0
 20
4.5117370892
 30
0.0
 40
3.5
 41
0.0
 71
     1
 72
     1
  1
Recommended
  7
SLDTEXTSTYLE0
 73
     1
 44
1.0
  0
MTEXT
  5
CD
330
C9
100
AcDbEntity
  8
0
  6
Continuous
 62
     0
370
     0
100
AcDbMText
 10
0.0
 20
0.0117372829
 30
0.0
 40
3.5
 41
0.0
 71
     1
 72
     1
  1
PC board pattern
  7
SLDTEXTSTYLE0
 73
     1
 44
1.0
  0
ENDBLK
  5
CB
330
C9
100
AcDbEntity
  8
0
100
AcDbBlockEnd
  0
BLOCK
  5
D3
330
D2
100
AcDbEntity
  8
0
100
AcDbBlockBegin
  2
SW_NOTE_2
 70
     0
 10
0.0
 20
0.0
 30
0.0
  3
SW_NOTE_2
  1
SW_NOTE_2
  0
MTEXT
  5
D5
330
D2
100
AcDbEntity
  8
0
  6
Continuous
 62
     0
370
     0
100
AcDbMText
 10
0.0
 20
4.7749217527
 30
0.0
 40
3.7041666667
 41
0.0
 71
     1
 72
     1
  1
Note1 : In order to ensure proper detection, install it with
  7
SLDTEXTSTYLE0
 73
     1
 44
1.0
  0
MTEXT
  5
D6
330
D2
100
AcDbEntity
  8
0
  6
Continuous
 62
     0
370
     0
100
AcDbMText
 10
14.0063802083
 20
-0.1639670765
 30
0.0
 40
3.7041666667
 41
0.0
 71
     1
 72
     1
  1
the lens exposed at least 1.3mm (0.051inch).
  7
SLDTEXTSTYLE0
 73
     1
 44
1.0
  0
MTEXT
  5
D7
330
D2
100
AcDbEntity
  8
0
  6
Continuous
 62
     0
370
     0
100
AcDbMText
 10
0.0
 20
-5.1028559057
 30
0.0
 40
3.7041666667
 41
0.0
 71
     1
 72
     1
  1
Note2 : As for panel mouting hole, tapering or making
  7
SLDTEXTSTYLE0
 73
     1
 44
1.0
  0
MTEXT
  5
D8
330
D2
100
AcDbEntity
  8
0
  6
Continuous
 62
     0
370
     0
100
AcDbMText
 10
14.0063802083
 20
-10.0417447349
 30
0.0
 40
3.7041666667
 41
0.0
 71
     1
 72
     1
  1
a large size hole should be done.
  7
SLDTEXTSTYLE0
 73
     1
 44
1.0
  0
ENDBLK
  5
D4
330
D2
100
AcDbEntity
  8
0
100
AcDbBlockEnd
  0
BLOCK
  5
DD
330
DC
100
AcDbEntity
  8
0
100
AcDbBlockBegin
  2
SW_NOTE_3
 70
     0
 10
0.0
 20
0.0
 30
0.0
  3
SW_NOTE_3
  1
SW_NOTE_3
  0
LINE
  5
DF
330
DC
100
AcDbEntity
  8
0
  6
Continuous
 62
     0
370
     0
100
AcDbLine
 10
-0.0773024888
 20
-0.0641383268
 30
0.0
 11
10.114423041
 21
-0.0641383268
 31
0.0
  0
LINE
  5
E0
330
DC
100
AcDbEntity
  8
0
  6
Continuous
 62
     0
370
     0
100
AcDbLine
 10
10.114423041
 20
-0.0641383268
 30
0.0
 11
-0.0773024888
 21
-0.0641383268
 31
0.0
  0
LINE
  5
E1
330
DC
100
AcDbEntity
  8
0
  6
Continuous
 62
     0
370
     0
100
AcDbLine
 10
-0.0773024888
 20
-0.0641383268
 30
0.0
 11
10.114423041
 21
-0.0641383268
 31
0.0
  0
LINE
  5
E2
330
DC
100
AcDbEntity
  8
0
  6
Continuous
 62
     0
370
     0
100
AcDbLine
 10
10.114423041
 20
-0.0641383268
 30
0.0
 11
-0.0773024888
 21
-0.0641383268
 31
0.0
  0
LINE
  5
E3
330
DC
100
AcDbEntity
  8
0
  6
Continuous
 62
     0
370
     0
100
AcDbLine
 10
-0.0773024888
 20
-0.0641383268
 30
0.0
 11
10.114423041
 21
-0.0641383268
 31
0.0
  0
LINE
  5
E4
330
DC
100
AcDbEntity
  8
0
  6
Continuous
 62
     0
370
     0
100
AcDbLine
 10
10.114423041
 20
-0.0641383268
 30
0.0
 11
-0.0773024888
 21
-0.0641383268
 31
0.0
  0
MTEXT
  5
E5
330
DC
100
AcDbEntity
  8
0
  6
Continuous
 62
     0
370
     0
100
AcDbMText
 10
0.0
 20
4.5117370892
 30
0.0
 40
3.5
 41
0.0
 71
     1
 72
     1
  1
Note1
  7
SLDTEXTSTYLE0
 73
     1
 44
1.0
  0
ENDBLK
  5
DE
330
DC
100
AcDbEntity
  8
0
100
AcDbBlockEnd
  0
BLOCK
  5
F4
330
F3
100
AcDbEntity
  8
0
100
AcDbBlockBegin
  2
SW_NOTE_4
 70
     0
 10
0.0
 20
0.0
 30
0.0
  3
SW_NOTE_4
  1
SW_NOTE_4
  0
MTEXT
  5
F7
330
F3
100
AcDbEntity
  8
0
  6
Continuous
 62
     0
370
     0
100
AcDbMText
 10
0.0
 20
4.7749217527
 30
0.0
 40
3.7041666667
 41
0.0
 71
     1
 72
     1
  1
±0.5     mm
  7
SLDTEXTSTYLE1
 73
     1
 44
1.0
  0
MTEXT
  5
F8
330
F3
100
AcDbEntity
  8
0
  6
Continuous
 62
     0
370
     0
100
AcDbMText
 10
0.0
 20
-0.1639670765
 30
0.0
 40
3.7041666667
 41
0.0
 71
     1
 72
     1
  1
(±0.020 inch)
  7
SLDTEXTSTYLE0
 73
     1
 44
1.0
  0
ENDBLK
  5
F5
330
F3
100
AcDbEntity
  8
0
100
AcDbBlockEnd
  0
BLOCK
  5
127
330
126
100
AcDbEntity
  8
0
100
AcDbBlockBegin
  2
_D_4
 70
     0
 10
0.0
 20
0.0
 30
0.0
  3
_D_4
  1
_D_4
  0
INSERT
  5
129
330
126
100
AcDbEntity
  8
0
  6
Continuous
 62
     7
370
     0
100
AcDbBlockReference
  2
_OPEN30
 10
166.9151810437
 20
223.3551321974
 30
0.1
 41
1.5
 42
1.5
 50
90.0
  0
INSERT
  5
12A
330
126
100
AcDbEntity
  8
0
  6
Continuous
 62
     7
370
     0
100
AcDbBlockReference
  2
_OPEN30
 10
166.9151810437
 20
209.0051321974
 30
0.1
 41
1.5
 42
1.5
 50
270.0
  0
LINE
  5
12B
330
126
100
AcDbEntity
  8
0
  6
Continuous
 62
     7
370
     0
100
AcDbLine
 10
139.5123396897
 20
223.3551321974
 30
0.0
 11
167.9151810437
 21
223.3551321974
 31
0.0
  0
LINE
  5
12C
330
126
100
AcDbEntity
  8
0
  6
Continuous
 62
     7
370
     0
100
AcDbLine
 10
145.0273396897
 20
209.0051321974
 30
0.0
 11
167.9151810437
 21
209.0051321974
 31
0.0
  0
LINE
  5
12D
330
126
100
AcDbEntity
  8
0
  6
Continuous
 62
     7
370
     0
100
AcDbLine
 10
166.9151810437
 20
223.3551321974
 30
0.0
 11
166.9151810437
 21
209.0051321974
 31
0.0
  0
MTEXT
  5
12E
330
126
100
AcDbEntity
  8
0
  6
Continuous
 62
     7
370
     0
100
AcDbMText
 10
162.4034441874
 20
211.9042063127
 30
0.0
 40
3.5
 41
0.0
 71
     1
 72
     1
  1
14.4
  7
SLDTEXTSTYLE0
 11
-7.044195017643634E-15
 21
1.0
 31
0.0
 73
     1
 44
1.0
  0
ENDBLK
  5
128
330
126
100
AcDbEntity
  8
0
100
AcDbBlockEnd
  0
BLOCK
  5
132
330
131
100
AcDbEntity
  8
0
100
AcDbBlockBegin
  2
_D_5
 70
     0
 10
0.0
 20
0.0
 30
0.0
  3
_D_5
  1
_D_5
  0
INSERT
  5
134
330
131
100
AcDbEntity
  8
0
  6
Continuous
 62
     7
370
     0
100
AcDbBlockReference
  2
_OPEN30
 10
132.9973396897
 20
196.3240164259
 30
0.1
 41
1.5
 42
1.5
 50
0.0
  0
INSERT
  5
135
330
131
100
AcDbEntity
  8
0
  6
Continuous
 62
     7
370
     0
100
AcDbBlockReference
  2
_OPEN30
 10
144.0273396897
 20
196.3240164259
 30
0.1
 41
1.5
 42
1.5
 50
180.0
  0
LINE
  5
136
330
131
100
AcDbEntity
  8
0
  6
Continuous
 62
     7
370
     0
100
AcDbLine
 10
132.9973396897
 20
208.0051321974
 30
0.0
 11
132.9973396897
 21
195.3240164259
 31
0.0
  0
LINE
  5
137
330
131
100
AcDbEntity
  8
0
  6
Continuous
 62
     7
370
     0
100
AcDbLine
 10
144.0273396897
 20
208.0051321974
 30
0.0
 11
144.0273396897
 21
195.3240164259
 31
0.0
  0
LINE
  5
138
330
131
100
AcDbEntity
  8
0
  6
Continuous
 62
     7
370
     0
100
AcDbLine
 10
132.9973396897
 20
196.3240164259
 30
0.0
 11
129.9973396897
 21
196.3240164259
 31
0.0
  0
LINE
  5
139
330
131
100
AcDbEntity
  8
0
  6
Continuous
 62
     7
370
     0
100
AcDbLine
 10
132.9973396897
 20
196.3240164259
 30
0.0
 11
144.0273396897
 21
196.3240164259
 31
0.0
  0
LINE
  5
13A
330
131
100
AcDbEntity
  8
0
  6
Continuous
 62
     7
370
     0
100
AcDbLine
 10
144.0273396897
 20
196.3240164259
 30
0.0
 11
147.0273396897
 21
196.3240164259
 31
0.0
  0
MTEXT
  5
13B
330
131
100
AcDbEntity
  8
0
  6
Continuous
 62
     7
370
     0
100
AcDbMText
 10
133.1834022941
 20
200.835753748
 30
0.0
 40
3.5
 41
0.0
 71
     1
 72
     1
  1
%%c
  7
SLDTEXTSTYLE0
 73
     1
 44
1.0
  0
MTEXT
  5
13C
330
131
100
AcDbEntity
  8
0
  6
Continuous
 62
     7
370
     0
100
AcDbMText
 10
137.0533328091
 20
200.835753748
 30
0.0
 40
3.5
 41
0.0
 71
     1
 72
     1
  1
11
  7
SLDTEXTSTYLE0
 73
     1
 44
1.0
  0
ENDBLK
  5
133
330
131
100
AcDbEntity
  8
0
100
AcDbBlockEnd
  0
BLOCK
  5
140
330
13F
100
AcDbEntity
  8
0
100
AcDbBlockBegin
  2
_D_6
 70
     0
 10
0.0
 20
0.0
 30
0.0
  3
_D_6
  1
_D_6
  0
INSERT
  5
142
330
13F
100
AcDbEntity
  8
0
  6
Continuous
 62
     7
370
     0
100
AcDbBlockReference
  2
_OPEN30
 10
166.9151810437
 20
209.0051321974
 30
0.1
 41
1.5
 42
1.5
 50
90.0
  0
INSERT
  5
143
330
13F
100
AcDbEntity
  8
0
  6
Continuous
 62
     7
370
     0
100
AcDbBlockReference
  2
_OPEN30
 10
166.9151810437
 20
204.4051321974
 30
0.1
 41
1.5
 42
1.5
 50
270.0
  0
LINE
  5
144
330
13F
100
AcDbEntity
  8
0
  6
Continuous
 62
     7
370
     0
100
AcDbLine
 10
145.0273396897
 20
209.0051321974
 30
0.0
 11
167.9151810437
 21
209.0051321974
 31
0.0
  0
LINE
  5
145
330
13F
100
AcDbEntity
  8
0
  6
Continuous
 62
     7
370
     0
100
AcDbLine
 10
141.5333909139
 20
204.4051321974
 30
0.0
 11
167.9151810437
 21
204.4051321974
 31
0.0
  0
LINE
  5
146
330
13F
100
AcDbEntity
  8
0
  6
Continuous
 62
     7
370
     0
100
AcDbLine
 10
166.9151810437
 20
209.0051321974
 30
0.0
 11
166.9151810437
 21
204.4051321974
 31
0.0
  0
LINE
  5
147
330
13F
100
AcDbEntity
  8
0
  6
Continuous
 62
     7
370
     0
100
AcDbLine
 10
166.9151810437
 20
204.4051321974
 30
0.0
 11
166.9151810437
 21
195.6640933762
 31
0.0
  0
MTEXT
  5
148
330
13F
100
AcDbEntity
  8
0
  6
Continuous
 62
     7
370
     0
100
AcDbMText
 10
162.4034441874
 20
195.6640933762
 30
0.0
 40
3.5
 41
0.0
 71
     1
 72
     1
  1
4.6
  7
SLDTEXTSTYLE0
 11
-7.044195017643634E-15
 21
1.0
 31
0.0
 73
     1
 44
1.0
  0
ENDBLK
  5
141
330
13F
100
AcDbEntity
  8
0
100
AcDbBlockEnd
  0
BLOCK
  5
14C
330
14B
100
AcDbEntity
  8
0
100
AcDbBlockBegin
  2
_D_7
 70
     0
 10
0.0
 20
0.0
 30
0.0
  3
_D_7
  1
_D_7
  0
INSERT
  5
14E
330
14B
100
AcDbEntity
  8
0
  6
Continuous
 62
     7
370
     0
100
AcDbBlockReference
  2
_OPEN30
 10
157.1017015243
 20
209.0051321974
 30
0.1
 41
1.5
 42
1.5
 50
270.0
  0
INSERT
  5
14F
330
14B
100
AcDbEntity
  8
0
  6
Continuous
 62
     7
370
     0
100
AcDbBlockReference
  2
_OPEN30
 10
157.1017015243
 20
222.1603806202
 30
0.1
 41
1.5
 42
1.5
 50
90.0
  0
LINE
  5
150
330
14B
100
AcDbEntity
  8
0
  6
Continuous
 62
     7
370
     0
100
AcDbLine
 10
145.0273396897
 20
209.0051321974
 30
0.0
 11
158.1017015243
 21
209.0051321974
 31
0.0
  0
LINE
  5
151
330
14B
100
AcDbEntity
  8
0
  6
Continuous
 62
     7
370
     0
100
AcDbLine
 10
144.2523396897
 20
222.1603806202
 30
0.0
 11
158.1017015243
 21
222.1603806202
 31
0.0
  0
LINE
  5
152
330
14B
100
AcDbEntity
  8
0
  6
Continuous
 62
     7
370
     0
100
AcDbLine
 10
157.1017015243
 20
209.0051321974
 30
0.0
 11
157.1017015243
 21
222.1603806202
 31
0.0
  0
MTEXT
  5
153
330
14B
100
AcDbEntity
  8
0
  6
Continuous
 62
     7
370
     0
100
AcDbMText
 10
152.5899646679
 20
213.3358034766
 30
0.0
 40
3.5
 41
0.0
 71
     1
 72
     1
  1
13
  7
SLDTEXTSTYLE0
 11
6.123233995736766E-17
 21
1.0
 31
0.0
 73
     1
 44
1.0
  0
ENDBLK
  5
14D
330
14B
100
AcDbEntity
  8
0
100
AcDbBlockEnd
  0
BLOCK
  5
156
330
155
100
AcDbEntity
  8
0
100
AcDbBlockBegin
  2
_D_8
 70
     0
 10
0.0
 20
0.0
 30
0.0
  3
_D_8
  1
_D_8
  0
INSERT
  5
158
330
155
100
AcDbEntity
  8
0
  6
Continuous
 62
     7
370
     0
100
AcDbBlockReference
  2
_OPEN30
 10
133.7723396897
 20
228.9728142486
 30
0.1
 41
1.5
 42
1.5
 50
0.0
  0
INSERT
  5
159
330
155
100
AcDbEntity
  8
0
  6
Continuous
 62
     7
370
     0
100
AcDbBlockReference
  2
_OPEN30
 10
143.2523396897
 20
228.9728142486
 30
0.1
 41
1.5
 42
1.5
 50
180.0
  0
LINE
  5
15A
330
155
100
AcDbEntity
  8
0
  6
Continuous
 62
     7
370
     0
100
AcDbLine
 10
133.7723396897
 20
223.1603806202
 30
0.0
 11
133.7723396897
 21
229.9728142486
 31
0.0
  0
LINE
  5
15B
330
155
100
AcDbEntity
  8
0
  6
Continuous
 62
     7
370
     0
100
AcDbLine
 10
143.2523396897
 20
223.1603806202
 30
0.0
 11
143.2523396897
 21
229.9728142486
 31
0.0
  0
LINE
  5
15C
330
155
100
AcDbEntity
  8
0
  6
Continuous
 62
     7
370
     0
100
AcDbLine
 10
133.7723396897
 20
228.9728142486
 30
0.0
 11
130.7723396897
 21
228.9728142486
 31
0.0
  0
LINE
  5
15D
330
155
100
AcDbEntity
  8
0
  6
Continuous
 62
     7
370
     0
100
AcDbLine
 10
133.7723396897
 20
228.9728142486
 30
0.0
 11
143.2523396897
 21
228.9728142486
 31
0.0
  0
LINE
  5
15E
330
155
100
AcDbEntity
  8
0
  6
Continuous
 62
     7
370
     0
100
AcDbLine
 10
143.2523396897
 20
228.9728142486
 30
0.0
 11
146.2523396897
 21
228.9728142486
 31
0.0
  0
MTEXT
  5
15F
330
155
100
AcDbEntity
  8
0
  6
Continuous
 62
     7
370
     0
100
AcDbMText
 10
133.2795154237
 20
233.4845515707
 30
0.0
 40
3.5
 41
0.0
 71
     1
 72
     1
  1
%%c
  7
SLDTEXTSTYLE0
 73
     1
 44
1.0
  0
MTEXT
  5
160
330
155
100
AcDbEntity
  8
0
  6
Continuous
 62
     7
370
     0
100
AcDbMText
 10
137.1494459388
 20
233.4845515707
 30
0.0
 40
3.5
 41
0.0
 71
     1
 72
     1
  1
9.5
  7
SLDTEXTSTYLE0
 73
     1
 44
1.0
  0
ENDBLK
  5
157
330
155
100
AcDbEntity
  8
0
100
AcDbBlockEnd
  0
BLOCK
  5
164
330
163
100
AcDbEntity
  8
0
100
AcDbBlockBegin
  2
_D_9
 70
     0
 10
0.0
 20
0.0
 30
0.0
  3
_D_9
  1
_D_9
  0
INSERT
  5
166
330
163
100
AcDbEntity
  8
0
  6
Continuous
 62
     7
370
     0
100
AcDbBlockReference
  2
_OPEN30
 10
136.4912884655
 20
205.3810982137
 30
0.1
 41
1.5
 42
1.5
 50
0.0
  0
INSERT
  5
167
330
163
100
AcDbEntity
  8
0
  6
Continuous
 62
     7
370
     0
100
AcDbBlockReference
  2
_OPEN30
 10
136.9412884655
 20
205.3810982137
 30
0.1
 41
1.5
 42
1.5
 50
180.0
  0
LINE
  5
168
330
163
100
AcDbEntity
  8
0
  6
Continuous
 62
     7
370
     0
100
AcDbLine
 10
136.4912884655
 20
205.3810982137
 30
0.0
 11
112.4221253984
 21
205.3810982137
 31
0.0
  0
LINE
  5
169
330
163
100
AcDbEntity
  8
0
  6
Continuous
 62
     7
370
     0
100
AcDbLine
 10
136.4912884655
 20
205.3810982137
 30
0.0
 11
136.9412884655
 21
205.3810982137
 31
0.0
  0
LINE
  5
16A
330
163
100
AcDbEntity
  8
0
  6
Continuous
 62
     7
370
     0
100
AcDbLine
 10
136.9412884655
 20
205.3810982137
 30
0.0
 11
139.9412884655
 21
205.3810982137
 31
0.0
  0
MTEXT
  5
16B
330
163
100
AcDbEntity
  8
0
  6
Continuous
 62
     7
370
     0
100
AcDbMText
 10
112.4221253984
 20
209.8928355358
 30
0.0
 40
3.5
 41
0.0
 71
     1
 72
     1
  1
%%c
  7
SLDTEXTSTYLE0
 73
     1
 44
1.0
  0
MTEXT
  5
16C
330
163
100
AcDbEntity
  8
0
  6
Continuous
 62
     7
370
     0
100
AcDbMText
 10
116.2920559135
 20
209.8928355358
 30
0.0
 40
3.5
 41
0.0
 71
     1
 72
     1
  1
0.45
  7
SLDTEXTSTYLE0
 73
     1
 44
1.0
  0
ENDBLK
  5
165
330
163
100
AcDbEntity
  8
0
100
AcDbBlockEnd
  0
BLOCK
  5
1CF
330
1CE
100
AcDbEntity
  8
0
100
AcDbBlockBegin
  2
_D_10
 70
     0
 10
0.0
 20
0.0
 30
0.0
  3
_D_10
  1
_D_10
  0
INSERT
  5
1D1
330
1CE
100
AcDbEntity
  8
0
  6
Continuous
 62
     7
370
     0
100
AcDbBlockReference
  2
_OPEN30
 10
136.5386547849
 20
166.3427293765
 30
0.1
 41
1.5
 42
1.5
 50
320.990472294
  0
LINE
  5
1D2
330
1CE
100
AcDbEntity
  8
0
  6
Continuous
 62
     7
370
     0
100
AcDbLine
 10
136.5386547849
 20
166.3427293765
 30
0.0
 11
130.4762030745
 21
171.2536754001
 31
0.0
  0
LINE
  5
1D3
330
1CE
100
AcDbEntity
  8
0
  6
Continuous
 62
     7
370
     0
100
AcDbLine
 10
140.4860245946
 20
163.1451253383
 30
0.0
 11
136.5386547849
 21
166.3427293765
 31
0.0
  0
LINE
  5
1D4
330
1CE
100
AcDbEntity
  8
0
  6
Continuous
 62
     7
370
     0
100
AcDbLine
 10
130.4762030745
 20
171.2536754001
 30
0.0
 11
97.5340484941
 21
171.2536754001
 31
0.0
  0
MTEXT
  5
1D5
330
1CE
100
AcDbEntity
  8
0
  6
Continuous
 62
     7
370
     0
100
AcDbMText
 10
97.5340484941
 20
175.7654127221
 30
0.0
 40
3.5
 41
0.0
 71
     1
 72
     1
  1
P.C.D.
  7
SLDTEXTSTYLE0
 73
     1
 44
1.0
  0
MTEXT
  5
1D6
330
1CE
100
AcDbEntity
  8
0
  6
Continuous
 62
     7
370
     0
100
AcDbMText
 10
107.8687702605
 20
175.7654127221
 30
0.0
 40
3.5
 41
0.0
 71
     1
 72
     1
  1
%%c
  7
SLDTEXTSTYLE0
 73
     1
 44
1.0
  0
MTEXT
  5
1D7
330
1CE
100
AcDbEntity
  8
0
  6
Continuous
 62
     7
370
     0
100
AcDbMText
 10
111.7387014741
 20
175.7654127221
 30
0.0
 40
3.5
 41
0.0
 71
     1
 72
     1
  1
5.08
  7
SLDTEXTSTYLE0
 73
     1
 44
1.0
  0
MTEXT
  5
1D8
330
1CE
100
AcDbEntity
  8
0
  6
Continuous
 62
     7
370
     0
100
AcDbMText
 10
119.8786317968
 20
175.7654127221
 30
0.0
 40
3.5
 41
0.0
 71
     1
 72
     1
  1
±0.2
  7
SLDTEXTSTYLE0
 73
     1
 44
1.0
  0
ENDBLK
  5
1D0
330
1CE
100
AcDbEntity
  8
0
100
AcDbBlockEnd
  0
BLOCK
  5
1DB
330
1DA
100
AcDbEntity
  8
0
100
AcDbBlockBegin
  2
_D_11
 70
     0
 10
0.0
 20
0.0
 30
0.0
  3
_D_11
  1
_D_11
  0
ARC
  5
1DD
330
1DA
100
AcDbEntity
  8
0
  6
Continuous
 62
     7
370
     0
100
AcDbCircle
 10
138.5123396897
 20
164.7439273574
 30
0.0
 40
26.30163115637253
100
AcDbArc
 50
225.0
 51
270.0
  0
INSERT
  5
1DE
330
1DA
100
AcDbEntity
  8
0
  6
Continuous
 62
     7
370
     0
100
AcDbBlockReference
  2
_OPEN30
 10
119.9142779428
 20
146.1458656104
 30
0.1
 41
1.5
 42
1.5
 50
136.6320408598
  0
INSERT
  5
1DF
330
1DA
100
AcDbEntity
  8
0
  6
Continuous
 62
     7
370
     0
100
AcDbBlockReference
  2
_OPEN30
 10
138.5123396897
 20
138.442296201
 30
0.1
 41
1.5
 42
1.5
 50
358.3679591402
  0
LINE
  5
1E0
330
1DA
100
AcDbEntity
  8
0
  6
Continuous
 62
     7
370
     0
100
AcDbLine
 10
136.0091816843
 20
162.240769352
 30
0.0
 11
119.2071711616
 21
145.4387588293
 31
0.0
  0
LINE
  5
1E1
330
1DA
100
AcDbEntity
  8
0
  6
Continuous
 62
     7
370
     0
100
AcDbLine
 10
138.5123396897
 20
156.8265616362
 30
0.0
 11
138.5123396897
 21
137.442296201
 31
0.0
  0
MTEXT
  5
1E2
330
1DA
100
AcDbEntity
  8
0
  6
Continuous
 62
     7
370
     0
100
AcDbMText
 10
123.6644228805
 20
148.2838797702
 30
0.0
 40
3.5
 41
0.0
 71
     1
 72
     1
  1
45°
  7
SLDTEXTSTYLE0
 11
0.8529764399559796
 21
-0.5219494160165553
 31
0.0
 73
     1
 44
1.0
  0
ENDBLK
  5
1DC
330
1DA
100
AcDbEntity
  8
0
100
AcDbBlockEnd
  0
BLOCK
  5
1E6
330
1E5
100
AcDbEntity
  8
0
100
AcDbBlockBegin
  2
_D_12
 70
     0
 10
0.0
 20
0.0
 30
0.0
  3
_D_12
  1
_D_12
  0
ARC
  5
1E8
330
1E5
100
AcDbEntity
  8
0
  6
Continuous
 62
     7
370
     0
100
AcDbCircle
 10
138.5123396897
 20
164.7439273574
 30
0.0
 40
26.28268183936368
100
AcDbArc
 50
270.0
 51
315.0
  0
INSERT
  5
1E9
330
1E5
100
AcDbEntity
  8
0
  6
Continuous
 62
     7
370
     0
100
AcDbBlockReference
  2
_OPEN30
 10
138.5123396897
 20
138.461245518
 30
0.1
 41
1.5
 42
1.5
 50
181.6332149835
  0
INSERT
  5
1EA
330
1E5
100
AcDbEntity
  8
0
  6
Continuous
 62
     7
370
     0
100
AcDbBlockReference
  2
_OPEN30
 10
157.0970022461
 20
146.159264801
 30
0.1
 41
1.5
 42
1.5
 50
43.3667850165
  0
LINE
  5
1EB
330
1E5
100
AcDbEntity
  8
0
  6
Continuous
 62
     7
370
     0
100
AcDbLine
 10
138.5123396897
 20
156.8265616362
 30
0.0
 11
138.5123396897
 21
137.461245518
 31
0.0
  0
LINE
  5
1EC
330
1E5
100
AcDbEntity
  8
0
  6
Continuous
 62
     7
370
     0
100
AcDbLine
 10
141.0154976951
 20
162.240769352
 30
0.0
 11
157.8041090273
 21
145.4521580198
 31
0.0
  0
MTEXT
  5
1ED
330
1E5
100
AcDbEntity
  8
0
  6
Continuous
 62
     7
370
     0
100
AcDbMText
 10
139.2302353675
 20
142.6067871223
 30
0.0
 40
3.5
 41
0.0
 71
     1
 72
     1
  1
45°
  7
SLDTEXTSTYLE0
 11
0.9764633867392795
 21
0.2156832268806646
 31
0.0
 73
     1
 44
1.0
  0
ENDBLK
  5
1E7
330
1E5
100
AcDbEntity
  8
0
100
AcDbBlockEnd
  0
BLOCK
  5
1EF
330
1EE
100
AcDbEntity
  8
0
100
AcDbBlockBegin
  2
SW_NOTE_5
 70
     0
 10
0.0
 20
0.0
 30
0.0
  3
SW_NOTE_5
  1
SW_NOTE_5
  0
LINE
  5
1F1
330
1EE
100
AcDbEntity
  8
0
  6
Continuous
 62
     0
370
     0
100
AcDbLine
 10
0.0
 20
0.0204339051
 30
0.0
 11
6.6599394551
 21
0.0204339051
 31
0.0
  0
LINE
  5
1F2
330
1EE
100
AcDbEntity
  8
0
  6
Continuous
 62
     0
370
     0
100
AcDbLine
 10
6.6599394551
 20
0.0204339051
 30
0.0
 11
0.0
 21
0.0204339051
 31
0.0
  0
LINE
  5
1F3
330
1EE
100
AcDbEntity
  8
0
  6
Continuous
 62
     0
370
     0
100
AcDbLine
 10
0.0
 20
0.0204339051
 30
0.0
 11
6.6599394551
 21
0.0204339051
 31
0.0
  0
LINE
  5
1F4
330
1EE
100
AcDbEntity
  8
0
  6
Continuous
 62
     0
370
     0
100
AcDbLine
 10
6.6599394551
 20
0.0204339051
 30
0.0
 11
0.0
 21
0.0204339051
 31
0.0
  0
LINE
  5
1F5
330
1EE
100
AcDbEntity
  8
0
  6
Continuous
 62
     0
370
     0
100
AcDbLine
 10
0.0
 20
0.0204339051
 30
0.0
 11
6.6599394551
 21
0.0204339051
 31
0.0
  0
LINE
  5
1F6
330
1EE
100
AcDbEntity
  8
0
  6
Continuous
 62
     0
370
     0
100
AcDbLine
 10
6.6599394551
 20
0.0204339051
 30
0.0
 11
0.0
 21
0.0204339051
 31
0.0
  0
MTEXT
  5
1F7
330
1EE
100
AcDbEntity
  8
0
  6
Continuous
 62
     0
370
     0
100
AcDbMText
 10
0.0422357667
 20
4.6042676288
 30
0.0
 40
3.5
 41
0.0
 71
     1
 72
     1
  1
Vdd
  7
SLDTEXTSTYLE0
 73
     1
 44
1.0
  0
ENDBLK
  5
1F0
330
1EE
100
AcDbEntity
  8
0
100
AcDbBlockEnd
  0
BLOCK
  5
224
330
223
100
AcDbEntity
  8
0
100
AcDbBlockBegin
  2
_D_13
 70
     0
 10
0.0
 20
0.0
 30
0.0
  3
_D_13
  1
_D_13
  0
INSERT
  5
226
330
223
100
AcDbEntity
  8
0
  6
Continuous
 62
     7
370
     0
100
AcDbBlockReference
  2
_OPEN30
 10
66.979478278
 20
165.2946027
 30
0.1
 41
1.5
 42
1.5
 50
270.0
  0
INSERT
  5
227
330
223
100
AcDbEntity
  8
0
  6
Continuous
 62
     7
370
     0
100
AcDbBlockReference
  2
_OPEN30
 10
66.979478278
 20
178.4466027
 30
0.1
 41
1.5
 42
1.5
 50
90.0
  0
LINE
  5
228
330
223
100
AcDbEntity
  8
0
  6
Continuous
 62
     7
370
     0
100
AcDbLine
 10
57.3490003927
 20
165.2946027
 30
0.0
 11
67.979478278
 21
165.2946027
 31
0.0
  0
LINE
  5
229
330
223
100
AcDbEntity
  8
0
  6
Continuous
 62
     7
370
     0
100
AcDbLine
 10
60.3340003927
 20
178.4466027
 30
0.0
 11
67.979478278
 21
178.4466027
 31
0.0
  0
LINE
  5
22A
330
223
100
AcDbEntity
  8
0
  6
Continuous
 62
     7
370
     0
100
AcDbLine
 10
66.979478278
 20
165.2946027
 30
0.0
 11
66.979478278
 21
178.4466027
 31
0.0
  0
MTEXT
  5
22B
330
223
100
AcDbEntity
  8
0
  6
Continuous
 62
     7
370
     0
100
AcDbMText
 10
62.4677414217
 20
169.4703485373
 30
0.0
 40
3.5
 41
0.0
 71
     1
 72
     1
  1
13
  7
SLDTEXTSTYLE0
 11
6.123233995736766E-17
 21
1.0
 31
0.0
 73
     1
 44
1.0
  0
ENDBLK
  5
225
330
223
100
AcDbEntity
  8
0
100
AcDbBlockEnd
  0
BLOCK
  5
22F
330
22E
100
AcDbEntity
  8
0
100
AcDbBlockBegin
  2
_D_14
 70
     0
 10
0.0
 20
0.0
 30
0.0
  3
_D_14
  1
_D_14
  0
INSERT
  5
231
330
22E
100
AcDbEntity
  8
0
  6
Continuous
 62
     7
370
     0
100
AcDbBlockReference
  2
_OPEN30
 10
45.8340003927
 20
185.1242860588
 30
0.1
 41
1.5
 42
1.5
 50
0.0
  0
INSERT
  5
232
330
22E
100
AcDbEntity
  8
0
  6
Continuous
 62
     7
370
     0
100
AcDbBlockReference
  2
_OPEN30
 10
55.8340003927
 20
185.1242860588
 30
0.1
 41
1.5
 42
1.5
 50
180.0
  0
LINE
  5
233
330
22E
100
AcDbEntity
  8
0
  6
Continuous
 62
     7
370
     0
100
AcDbLine
 10
45.8340003927
 20
179.4466027
 30
0.0
 11
45.8340003927
 21
186.1242860588
 31
0.0
  0
LINE
  5
234
330
22E
100
AcDbEntity
  8
0
  6
Continuous
 62
     7
370
     0
100
AcDbLine
 10
55.8340003927
 20
179.4466027
 30
0.0
 11
55.8340003927
 21
186.1242860588
 31
0.0
  0
LINE
  5
235
330
22E
100
AcDbEntity
  8
0
  6
Continuous
 62
     7
370
     0
100
AcDbLine
 10
45.8340003927
 20
185.1242860588
 30
0.0
 11
42.8340003927
 21
185.1242860588
 31
0.0
  0
LINE
  5
236
330
22E
100
AcDbEntity
  8
0
  6
Continuous
 62
     7
370
     0
100
AcDbLine
 10
45.8340003927
 20
185.1242860588
 30
0.0
 11
55.8340003927
 21
185.1242860588
 31
0.0
  0
LINE
  5
237
330
22E
100
AcDbEntity
  8
0
  6
Continuous
 62
     7
370
     0
100
AcDbLine
 10
55.8340003927
 20
185.1242860588
 30
0.0
 11
58.8340003927
 21
185.1242860588
 31
0.0
  0
MTEXT
  5
238
330
22E
100
AcDbEntity
  8
0
  6
Continuous
 62
     7
370
     0
100
AcDbMText
 10
42.3926446983
 20
189.6360238465
 30
0.0
 40
3.5
 41
0.0
 71
     1
 72
     1
  1
%%c
  7
SLDTEXTSTYLE0
 73
     1
 44
1.0
  0
MTEXT
  5
239
330
22E
100
AcDbEntity
  8
0
  6
Continuous
 62
     7
370
     0
100
AcDbMText
 10
46.2625752134
 20
189.6360238465
 30
0.0
 40
3.5
 41
0.0
 71
     1
 72
     1
  1
10
  7
SLDTEXTSTYLE0
 73
     1
 44
1.0
  0
MTEXT
  5
23A
330
22E
100
AcDbEntity
  8
0
  6
Continuous
 62
     7
370
     0
100
AcDbMText
 10
51.5393114412
 20
189.6360238465
 30
0.0
 40
3.5
 41
0.0
 71
     1
 72
     1
  1

  7
SLDTEXTSTYLE0
 73
     1
 44
1.0
  0
MTEXT
  5
23B
330
22E
100
AcDbEntity
  8
0
  6
Continuous
 62
     7
370
     0
100
AcDbMText
 10
51.5757693374
 20
193.7096348415
 30
0.0
 40
3.5
 41
0.0
 71
     1
 72
     1
  1
+
  7
SLDTEXTSTYLE0
 73
     1
 44
1.0
  0
MTEXT
  5
23C
330
22E
100
AcDbEntity
  8
0
  6
Continuous
 62
     7
370
     0
100
AcDbMText
 10
53.1775054052
 20
189.6360238465
 30
0.0
 40
3.5
 41
0.0
 71
     1
 72
     1
  1

  7
SLDTEXTSTYLE0
 73
     1
 44
1.0
  0
MTEXT
  5
23D
330
22E
100
AcDbEntity
  8
0
  6
Continuous
 62
     7
370
     0
100
AcDbMText
 10
53.6125746021
 20
193.7096348415
 30
0.0
 40
3.5
 41
0.0
 71
     1
 72
     1
  1
0.2
  7
SLDTEXTSTYLE0
 73
     1
 44
1.0
  0
MTEXT
  5
23E
330
22E
100
AcDbEntity
  8
0
  6
Continuous
 62
     7
370
     0
100
AcDbMText
 10
53.6125746021
 20
189.6360238465
 30
0.0
 40
3.5
 41
0.0
 71
     1
 72
     1
  1
0
  7
SLDTEXTSTYLE0
 73
     1
 44
1.0
  0
ENDBLK
  5
230
330
22E
100
AcDbEntity
  8
0
100
AcDbBlockEnd
  0
BLOCK
  5
241
330
240
100
AcDbEntity
  8
0
100
AcDbBlockBegin
  2
SW_NOTE_6
 70
     0
 10
0.0
 20
0.0
 30
0.0
  3
SW_NOTE_6
  1
SW_NOTE_6
  0
LINE
  5
243
330
240
100
AcDbEntity
  8
0
  6
Continuous
 62
     0
370
     0
100
AcDbLine
 10
0.0
 20
0.0
 30
0.0
 11
10.1917255298
 21
0.0
 31
0.0
  0
LINE
  5
244
330
240
100
AcDbEntity
  8
0
  6
Continuous
 62
     0
370
     0
100
AcDbLine
 10
10.1917255298
 20
0.0
 30
0.0
 11
0.0
 21
0.0
 31
0.0
  0
LINE
  5
245
330
240
100
AcDbEntity
  8
0
  6
Continuous
 62
     0
370
     0
100
AcDbLine
 10
0.0
 20
0.0
 30
0.0
 11
10.1917255298
 21
0.0
 31
0.0
  0
LINE
  5
246
330
240
100
AcDbEntity
  8
0
  6
Continuous
 62
     0
370
     0
100
AcDbLine
 10
10.1917255298
 20
0.0
 30
0.0
 11
0.0
 21
0.0
 31
0.0
  0
LINE
  5
247
330
240
100
AcDbEntity
  8
0
  6
Continuous
 62
     0
370
     0
100
AcDbLine
 10
0.0
 20
0.0
 30
0.0
 11
10.1917255298
 21
0.0
 31
0.0
  0
LINE
  5
248
330
240
100
AcDbEntity
  8
0
  6
Continuous
 62
     0
370
     0
100
AcDbLine
 10
10.1917255298
 20
0.0
 30
0.0
 11
0.0
 21
0.0
 31
0.0
  0
MTEXT
  5
249
330
240
100
AcDbEntity
  8
0
  6
Continuous
 62
     0
370
     0
100
AcDbMText
 10
0.0550665099
 20
4.5299974915
 30
0.0
 40
3.5
 41
0.0
 71
     1
 72
     1
  1
Note2
  7
SLDTEXTSTYLE0
 73
     1
 44
1.0
  0
ENDBLK
  5
242
330
240
100
AcDbEntity
  8
0
100
AcDbBlockEnd
  0
BLOCK
  5
26E
330
26D
100
AcDbEntity
  8
0
100
AcDbBlockBegin
  2
_D_15
 70
     0
 10
0.0
 20
0.0
 30
0.0
  3
_D_15
  1
_D_15
  0
INSERT
  5
270
330
26D
100
AcDbEntity
  8
0
  6
Continuous
 62
     7
370
     0
100
AcDbBlockReference
  2
_OPEN30
 10
70.1547033548
 20
255.2470587615
 30
0.1
 41
1.5
 42
1.5
 50
270.0
  0
INSERT
  5
271
330
26D
100
AcDbEntity
  8
0
  6
Continuous
 62
     7
370
     0
100
AcDbBlockReference
  2
_OPEN30
 10
70.1547033548
 20
253.9970587615
 30
0.1
 41
1.5
 42
1.5
 50
90.0
  0
LINE
  5
272
330
26D
100
AcDbEntity
  8
0
  6
Continuous
 62
     7
370
     0
100
AcDbLine
 10
52.2483241018
 20
255.2470587615
 30
0.0
 11
71.1547033548
 21
255.2470587615
 31
0.0
  0
LINE
  5
273
330
26D
100
AcDbEntity
  8
0
  6
Continuous
 62
     7
370
     0
100
AcDbLine
 10
56.9915788885
 20
253.9970587615
 30
0.0
 11
71.1547033548
 21
253.9970587615
 31
0.0
  0
LINE
  5
274
330
26D
100
AcDbEntity
  8
0
  6
Continuous
 62
     7
370
     0
100
AcDbLine
 10
70.1547033548
 20
255.2470587615
 30
0.0
 11
70.1547033548
 21
258.2470587615
 31
0.0
  0
LINE
  5
275
330
26D
100
AcDbEntity
  8
0
  6
Continuous
 62
     7
370
     0
100
AcDbLine
 10
70.1547033548
 20
255.2470587615
 30
0.0
 11
70.1547033548
 21
253.9970587615
 31
0.0
  0
LINE
  5
276
330
26D
100
AcDbEntity
  8
0
  6
Continuous
 62
     7
370
     0
100
AcDbLine
 10
70.1547033548
 20
253.9970587615
 30
0.0
 11
70.1547033548
 21
244.1393485383
 31
0.0
  0
MTEXT
  5
277
330
26D
100
AcDbEntity
  8
0
  6
Continuous
 62
     7
370
     0
100
AcDbMText
 10
65.6429664984
 20
244.1393485383
 30
0.0
 40
3.5
 41
0.0
 71
     1
 72
     1
  1
1.3
  7
SLDTEXTSTYLE0
 11
-7.044195017643634E-15
 21
1.0
 31
0.0
 73
     1
 44
1.0
  0
ENDBLK
  5
26F
330
26D
100
AcDbEntity
  8
0
100
AcDbBlockEnd
  0
BLOCK
  5
2F2
330
2F1
100
AcDbEntity
  8
0
100
AcDbBlockBegin
  2
SW_NOTE_7
 70
     0
 10
0.0
 20
0.0
 30
0.0
  3
SW_NOTE_7
  1
SW_NOTE_7
  0
MTEXT
  5
2F5
330
2F1
100
AcDbEntity
  8
0
  6
Continuous
 62
     0
370
     0
100
AcDbMText
 10
9.5703125
 20
4.5117370892
 30
0.0
 40
3.5
 41
0.0
 71
     2
 72
     1
  1
SECTION
  7
SLDTEXTSTYLE2
 73
     1
 44
1.0
  0
MTEXT
  5
2F6
330
2F1
100
AcDbEntity
  8
0
  6
Continuous
 62
     0
370
     0
100
AcDbMText
 10
23.5776031315
 20
4.9638206247
 30
0.0
 40
3.5
 41
0.0
 71
     2
 72
     1
  1
A-A
  7
SLDTEXTSTYLE0
 73
     1
 44
1.0
  0
ENDBLK
  5
2F3
330
2F1
100
AcDbEntity
  8
0
100
AcDbBlockEnd
  0
ENDSEC
  0
SECTION
  2
ENTITIES
  0
LINE
  5
6F
330
1F
100
AcDbEntity
  8
0
  6
CENTERX2
 62
     7
370
     0
100
AcDbLine
 10
51.7344694261
 20
132.1994093112
 30
0.0
 11
51.7344694261
 21
122.3963818466
 31
0.0
  0
LINE
  5
70
330
1F
100
AcDbEntity
  8
0
  6
CENTERX2
 62
     7
370
     0
100
AcDbLine
 10
48.1413527515
 20
127.3480741409
 30
0.0
 11
55.6741111514
 21
127.3480741409
 31
0.0
  0
LINE
  5
71
330
1F
100
AcDbEntity
  8
0
  6
CENTERX2
 62
     7
370
     0
100
AcDbLine
 10
53.5305206503
 20
125.5520229167
 30
0.0
 11
49.9384182019
 21
129.1441253651
 31
0.0
  0
LINE
  5
72
330
1F
100
AcDbEntity
  8
0
  6
CENTERX2
 62
     7
370
     0
100
AcDbLine
 10
49.9384182019
 20
125.5520229167
 30
0.0
 11
53.5305206503
 21
129.1441253651
 31
0.0
  0
LINE
  5
73
330
1F
100
AcDbEntity
  8
0
  6
Continuous
 62
     7
370
    30
100
AcDbLine
 10
5.0
 20
25.0
 30
0.0
 11
205.0
 21
25.0
 31
0.0
  0
LINE
  5
74
330
1F
100
AcDbEntity
  8
0
  6
Continuous
 62
     7
370
    30
100
AcDbLine
 10
5.0
 20
292.0
 30
0.0
 11
205.0
 21
292.0
 31
0.0
  0
LINE
  5
75
330
1F
100
AcDbEntity
  8
0
  6
Continuous
 62
     7
370
    30
100
AcDbLine
 10
5.0
 20
292.0
 30
0.0
 11
5.0
 21
7.0
 31
0.0
  0
LINE
  5
76
330
1F
100
AcDbEntity
  8
0
  6
Continuous
 62
     7
370
    30
100
AcDbLine
 10
5.0
 20
7.0
 30
0.0
 11
205.0
 21
7.0
 31
0.0
  0
LINE
  5
77
330
1F
100
AcDbEntity
  8
0
  6
Continuous
 62
     7
370
    30
100
AcDbLine
 10
205.0
 20
292.0
 30
0.0
 11
205.0
 21
7.0
 31
0.0
  0
LINE
  5
78
330
1F
100
AcDbEntity
  8
0
  6
Continuous
 62
     7
370
    30
100
AcDbLine
 10
5.0
 20
40.0
 30
0.0
 11
205.0
 21
40.0
 31
0.0
  0
LINE
  5
79
330
1F
100
AcDbEntity
  8
0
  6
Continuous
 62
     7
370
    30
100
AcDbLine
 10
5.0
 20
47.0
 30
0.0
 11
205.0
 21
47.0
 31
0.0
  0
LINE
  5
7A
330
1F
100
AcDbEntity
  8
0
  6
Continuous
 62
     7
370
    30
100
AcDbLine
 10
145.0
 20
47.0
 30
0.0
 11
145.0
 21
25.0
 31
0.0
  0
LINE
  5
7B
330
1F
100
AcDbEntity
  8
0
  6
Continuous
 62
     7
370
    30
100
AcDbLine
 10
145.0
 20
32.5
 30
0.0
 11
205.0
 21
32.5
 31
0.0
  0
LINE
  5
7C
330
1F
100
AcDbEntity
  8
0
  6
Continuous
 62
     7
370
    30
100
AcDbLine
 10
175.0
 20
40.0
 30
0.0
 11
175.0
 21
32.5
 31
0.0
  0
LINE
  5
7D
330
1F
100
AcDbEntity
  8
0
  6
Continuous
 62
     7
370
     0
100
AcDbLine
 10
128.9292008689
 20
63.0961638737
 30
0.0
 11
200.9292008689
 21
63.0961638737
 31
0.0
  0
LINE
  5
7E
330
1F
100
AcDbEntity
  8
0
  6
Continuous
 62
     7
370
     0
100
AcDbLine
 10
128.9292008689
 20
63.0961638737
 30
0.0
 11
128.9292008689
 21
49.0961638737
 31
0.0
  0
LINE
  5
7F
330
1F
100
AcDbEntity
  8
0
  6
Continuous
 62
     7
370
     0
100
AcDbLine
 10
128.9292008689
 20
49.0961638737
 30
0.0
 11
200.9292008689
 21
49.0961638737
 31
0.0
  0
LINE
  5
80
330
1F
100
AcDbEntity
  8
0
  6
Continuous
 62
     7
370
     0
100
AcDbLine
 10
200.9292008689
 20
63.0961638737
 30
0.0
 11
200.9292008689
 21
49.0961638737
 31
0.0
  0
LINE
  5
81
330
1F
100
AcDbEntity
  8
0
  6
Continuous
 62
     7
370
     0
100
AcDbLine
 10
5.0
 20
292.0
 30
0.0
 11
5.0
 21
262.0
 31
0.0
  0
CIRCLE
  5
82
330
1F
100
AcDbEntity
  8
0
  6
CENTER
 62
     7
370
     0
100
AcDbCircle
 10
51.7344694261
 20
127.3480741409
 30
0.0
 40
2.539999999999429
  0
CIRCLE
  5
83
330
1F
100
AcDbEntity
  8
0
  6
CENTER
 62
     7
370
    30
100
AcDbCircle
 10
53.5305206503
 20
129.1441253651
 30
0.0
 40
0.3249999999994123
  0
CIRCLE
  5
84
330
1F
100
AcDbEntity
  8
0
  6
CENTER
 62
     7
370
    30
100
AcDbCircle
 10
53.5305206503
 20
125.5520229167
 30
0.0
 40
0.3249999999994039
  0
CIRCLE
  5
85
330
1F
100
AcDbEntity
  8
0
  6
CENTER
 62
     7
370
    30
100
AcDbCircle
 10
49.9384182019
 20
129.1441253651
 30
0.0
 40
0.3249999999994651
  0
DIMENSION
  5
86
330
1F
100
AcDbEntity
  8
0
  6
Continuous
 62
     7
370
     0
100
AcDbDimension
  2
_D
 10
53.6472270208
 20
129.0192887842
 30
0.0
 11
32.7118360454
 21
123.2926971215
 31
0.0
 70
   163
  1
<>±0.1
 71
     1
 42
-1.0
  3
SLDDIMSTYLE0
100
AcDbDiametricDimension
 15
49.8217118314
 25
125.6768594977
 35
0.0
 40
0.0
  0
DIMENSION
  5
9C
330
1F
100
AcDbEntity
  8
0
  6
Continuous
 62
     7
370
     0
100
AcDbDimension
  2
_D_1
 10
49.9384182019
 20
125.5520229167
 30
0.0
 11
67.7776739467
 21
131.9399393434
 31
0.0
 70
   162
  1
<>
 71
     1
 42
-1.0
  3
SLDDIMSTYLE1
100
AcDb2LineAngularDimension
 13
55.6741111514
 23
127.3480741409
 33
0.0
 14
48.1413527515
 24
127.3480741409
 34
0.0
 15
53.5305206503
 25
129.1441253651
 35
0.0
 16
67.1516255555
 26
133.7340693029
 36
0.0
  0
DIMENSION
  5
A7
330
1F
100
AcDbEntity
  8
0
  6
Continuous
 62
     7
370
     0
100
AcDbDimension
  2
_D_2
 10
55.6741111514
 20
127.3480741409
 30
0.0
 11
67.7776739467
 21
123.2819931174
 31
0.0
 70
   162
  1
<>
 71
     1
 42
-1.0
  3
SLDDIMSTYLE1
100
AcDb2LineAngularDimension
 13
53.5305206503
 23
125.5520229167
 33
0.0
 14
49.9384182019
 24
129.1441253651
 34
0.0
 15
48.1413527515
 25
127.3480741409
 35
0.0
 16
67.0250922995
 26
121.0144907696
 36
0.0
  0
DIMENSION
  5
B1
330
1F
100
AcDbEntity
  8
0
  6
Continuous
 62
     7
370
     0
100
AcDbDimension
  2
_D_3
 10
50.1454834548
 20
128.8936278981
 30
0.0
 11
32.7118360454
 21
138.190679778
 31
0.0
 70
   163
  1
3-<>
 71
     1
 42
-1.0
  3
SLDDIMSTYLE2
100
AcDbDiametricDimension
 15
49.7313529489
 25
129.3946228322
 35
0.0
 40
0.0
  0
INSERT
  5
C8
330
1F
100
AcDbEntity
  8
0
  6
Continuous
 62
     7
370
     0
100
AcDbBlockReference
  2
SW_NOTE_0
 10
39.5858397134
 20
221.665013705
 30
0.0
  0
INSERT
  5
CE
330
1F
100
AcDbEntity
  8
0
  6
Continuous
 62
     7
370
     0
100
AcDbBlockReference
  2
SW_NOTE_1
 10
37.8428782836
 20
151.0387237338
 30
0.0
  0
MTEXT
  5
CF
330
1F
100
AcDbEntity
  8
0
  6
Continuous
 62
     7
370
     0
100
AcDbMText
 10
67.635357133
 20
167.0316375858
 30
0.0
 40
2.38125
 41
0.0
 71
     1
 72
     1
  1
(0.516)
  7
SLDTEXTSTYLE0
 11
-3.269436733918102E-15
 21
1.0
 31
0.0
 73
     1
 44
1.0
  0
MTEXT
  5
D0
330
1F
100
AcDbEntity
  8
0
  6
Continuous
 62
     7
370
     0
100
AcDbMText
 10
23.8682884633
 20
133.4769964664
 30
0.0
 40
2.38125
 41
0.0
 71
     1
 72
     1
  1
(3-0.026 dia.)
  7
SLDTEXTSTYLE0
 73
     1
 44
1.0
  0
MTEXT
  5
D1
330
1F
100
AcDbEntity
  8
0
  6
Continuous
 62
     7
370
     0
100
AcDbMText
 10
27.6738881515
 20
120.7555356723
 30
0.0
 40
2.38125
 41
0.0
 71
     1
 72
     1
  1
(0.2 dia.)
  7
SLDTEXTSTYLE0
 73
     1
 44
1.0
  0
INSERT
  5
D9
330
1F
100
AcDbEntity
  8
0
  6
Continuous
 62
     7
370
     0
100
AcDbBlockReference
  2
SW_NOTE_2
 10
14.4013275638
 20
80.8202120074
 30
0.0
  0
MTEXT
  5
DA
330
1F
100
AcDbEntity
  8
0
  6
Continuous
 62
     7
370
     0
100
AcDbMText
 10
105.7657743442
 20
170.614324466
 30
0.0
 40
2.38125
 41
0.0
 71
     1
 72
     1
  1
(0.2 dia.)
  7
SLDTEXTSTYLE0
 73
     1
 44
1.0
  0
MTEXT
  5
DB
330
1F
100
AcDbEntity
  8
0
  6
Continuous
 62
     7
370
     0
100
AcDbMText
 10
70.1440540774
 20
242.0917346142
 30
0.0
 40
2.38125
 41
0.0
 71
     1
 72
     1
  1
(0.051)
  7
SLDTEXTSTYLE0
 11
-3.269436733918102E-15
 21
1.0
 31
0.0
 73
     1
 44
1.0
  0
INSERT
  5
E6
330
1F
100
AcDbEntity
  8
0
  6
Continuous
 62
     7
370
     0
100
AcDbBlockReference
  2
SW_NOTE_3
 10
55.5263438611
 20
235.3015248051
 30
0.0
  0
MTEXT
  5
E7
330
1F
100
AcDbEntity
  8
0
  6
Continuous
 62
     7
370
     0
100
AcDbMText
 10
6.3280684874
 20
6.445181383
 30
0.0
 40
2.38125
 41
0.0
 71
     1
 72
     1
  1
(JIS A-4)
  7
SLDTEXTSTYLE0
 73
     1
 44
1.0
  0
MTEXT
  5
E8
330
1F
100
AcDbEntity
  8
0
  6
Continuous
 62
     7
370
     0
100
AcDbMText
 10
64.7360648843
 20
6.445181383
 30
0.0
 40
2.38125
 41
0.0
 71
     1
 72
     1
  1
All Right Reserved Copyrigh, (C) Panasonic Corporation
  7
SLDTEXTSTYLE0
 73
     1
 44
1.0
  0
MTEXT
  5
E9
330
1F
100
AcDbEntity
  8
0
  6
Continuous
 62
     7
370
     0
100
AcDbMText
 10
76.198799667
 20
22.8890928843
 30
0.0
 40
4.2333333333
 41
0.0
 71
     1
 72
     1
  1
Panasonic Corporation
  7
SLDTEXTSTYLE0
 73
     1
 44
1.0
  0
MTEXT
  5
EA
330
1F
100
AcDbEntity
  8
0
  6
Continuous
 62
     7
370
     0
100
AcDbMText
 10
75.2830248209
 20
16.0597678541
 30
0.0
 40
4.2333333333
 41
0.0
 71
     1
 72
     1
  1
Eco Solutions Company
  7
SLDTEXTSTYLE0
 73
     1
 44
1.0
  0
MTEXT
  5
EB
330
1F
100
AcDbEntity
  8
0
  6
Continuous
 62
     7
370
     0
100
AcDbMText
 10
7.399505626
 20
37.9517125752
 30
0.0
 40
4.2333333333
 41
0.0
 71
     1
 72
     1
  1
Name PIR MOTION SENSOR 'PaPIRs' EKM series
  7
SLDTEXTSTYLE0
 73
     1
 44
1.0
  0
MTEXT
  5
EC
330
1F
100
AcDbEntity
  8
0
  6
Continuous
 62
     7
370
     0
100
AcDbMText
 10
31.8163958911
 20
31.6197876669
 30
0.0
 40
4.2333333333
 41
0.0
 71
     1
 72
     1
  1
(Standard detection type)
  7
SLDTEXTSTYLE0
 73
     1
 44
1.0
  0
MTEXT
  5
ED
330
1F
100
AcDbEntity
  8
0
  6
Continuous
 62
     7
370
     0
100
AcDbMText
 10
148.4473581884
 20
46.0655805192
 30
0.0
 40
4.2333333333
 41
0.0
 71
     1
 72
     1
  1
Date July.27.2016
  7
SLDTEXTSTYLE0
 73
     1
 44
1.0
  0
MTEXT
  5
EE
330
1F
100
AcDbEntity
  8
0
  6
Continuous
 62
     7
370
     0
100
AcDbMText
 10
147.8956185945
 20
38.8622472622
 30
0.0
 40
4.2333333333
 41
0.0
 71
     1
 72
     1
  1
Scale 1:1
  7
SLDTEXTSTYLE0
 73
     1
 44
1.0
  0
MTEXT
  5
EF
330
1F
100
AcDbEntity
  8
0
  6
Continuous
 62
     7
370
     0
100
AcDbMText
 10
177.1188186671
 20
38.8622472622
 30
0.0
 40
4.2333333333
 41
0.0
 71
     1
 72
     1
  1
Unit mm
  7
SLDTEXTSTYLE0
 73
     1
 44
1.0
  0
MTEXT
  5
F0
330
1F
100
AcDbEntity
  8
0
  6
Continuous
 62
     7
370
     0
100
AcDbMText
 10
147.8956185945
 20
31.5452447955
 30
0.0
 40
4.2333333333
 41
0.0
 71
     1
 72
     1
  1
Tolerance
  7
SLDTEXTSTYLE0
 73
     1
 44
1.0
  0
MTEXT
  5
F1
330
1F
100
AcDbEntity
  8
0
  6
Continuous
 62
     7
370
     0
100
AcDbMText
 10
7.399505626
 20
46.2820908805
 30
0.0
 40
4.2333333333
 41
0.0
 71
     1
 72
     1
  1
Parts No. EKM***0111**
  7
SLDTEXTSTYLE0
 73
     1
 44
1.0
  0
MTEXT
  5
F2
330
1F
100
AcDbEntity
  8
0
  6
Continuous
 62
     7
370
     0
100
AcDbMText
 10
130.1376779536
 20
58.3504872728
 30
0.0
 40
3.7041666667
 41
0.0
 71
     1
 72
     1
  1
General tolerance
  7
SLDTEXTSTYLE0
 73
     1
 44
1.0
  0
INSERT
  5
F9
330
1F
100
AcDbEntity
  8
0
  6
Continuous
 62
     7
370
     0
100
AcDbBlockReference
  2
SW_NOTE_4
 10
170.2884828494
 20
55.6699686122
 30
0.0
  0
INSERT
  5
FA
330
1F
100
AcDbEntity
  8
0
  6
Continuous
 62
     7
370
     0
100
AcDbBlockReference
  2
_OPEN30
 10
68.0783993253
 20
243.35423577
 30
0.0
 41
1.5
 42
1.5
 50
73.2840643874
  0
LINE
  5
FB
330
1F
100
AcDbEntity
  8
0
  6
Continuous
 62
     7
370
     0
100
AcDbLine
 10
68.0783993253
 20
243.35423577
 30
0.0
 11
65.6407669021
 21
235.2373864783
 31
0.0
  0
LINE
  5
FC
330
1F
100
AcDbEntity
  8
0
  6
Continuous
 62
     7
370
    30
100
AcDbLine
 10
140.5333909345
 20
204.4051320953
 30
0.0
 11
140.5333909345
 21
209.0051321974
 31
0.0
  0
LINE
  5
FD
330
1F
100
AcDbEntity
  8
0
  6
Continuous
 62
     7
370
    30
100
AcDbLine
 10
140.083390884
 20
209.0051321974
 30
0.0
 11
140.083390884
 21
204.4051320953
 31
0.0
  0
LINE
  5
FE
330
1F
100
AcDbEntity
  8
0
  6
Continuous
 62
     7
370
    30
100
AcDbLine
 10
136.9412884954
 20
204.4051320953
 30
0.0
 11
136.9412884954
 21
209.0051321974
 31
0.0
  0
LINE
  5
FF
330
1F
100
AcDbEntity
  8
0
  6
Continuous
 62
     7
370
    30
100
AcDbLine
 10
136.4912884449
 20
209.0051321974
 30
0.0
 11
136.4912884449
 21
204.4051320953
 31
0.0
  0
ARC
  5
100
330
1F
100
AcDbEntity
  8
0
  6
Continuous
 62
     7
370
    30
100
AcDbCircle
 10
138.5123396897
 20
213.3551321974
 30
0.0
 40
10.00000000000003
100
AcDbArc
 50
62.0309933959
 51
117.9532154987
  0
LINE
  5
101
330
1F
100
AcDbEntity
  8
0
  6
Continuous
 62
     7
370
    30
100
AcDbLine
 10
143.2023395458
 20
222.1603802135
 30
0.0
 11
143.2023395458
 21
222.187113828
 31
0.0
  0
LINE
  5
102
330
1F
100
AcDbEntity
  8
0
  6
Continuous
 62
     7
370
    30
100
AcDbLine
 10
133.8223398337
 20
222.187113828
 30
0.0
 11
133.8223398337
 21
222.1603802135
 31
0.0
  0
LINE
  5
103
330
1F
100
AcDbEntity
  8
0
  6
Continuous
 62
     7
370
    30
100
AcDbLine
 10
144.0273395413
 20
209.0051321974
 30
0.0
 11
143.2523394608
 21
222.1603802135
 31
0.0
  0
LINE
  5
104
330
1F
100
AcDbEntity
  8
0
  6
Continuous
 62
     7
370
    30
100
AcDbLine
 10
133.7723399186
 20
222.1603802135
 30
0.0
 11
132.9973398381
 21
209.0051321974
 31
0.0
  0
LINE
  5
105
330
1F
100
AcDbEntity
  8
0
  6
Continuous
 62
     7
370
    30
100
AcDbLine
 10
138.6623396968
 20
210.855132198
 30
0.0
 11
138.6623396968
 21
210.605132157
 31
0.0
  0
LINE
  5
106
330
1F
100
AcDbEntity
  8
0
  6
Continuous
 62
     7
370
    30
100
AcDbLine
 10
138.9123396796
 20
210.855132198
 30
0.0
 11
138.9123396796
 21
210.605132157
 31
0.0
  0
LINE
  5
107
330
1F
100
AcDbEntity
  8
0
  6
Continuous
 62
     7
370
    30
100
AcDbLine
 10
138.9123396796
 20
210.605132157
 30
0.0
 11
138.6623396968
 21
210.605132157
 31
0.0
  0
LINE
  5
108
330
1F
100
AcDbEntity
  8
0
  6
Continuous
 62
     7
370
    30
100
AcDbLine
 10
138.3623396826
 20
210.855132198
 30
0.0
 11
138.3623396826
 21
210.605132157
 31
0.0
  0
LINE
  5
109
330
1F
100
AcDbEntity
  8
0
  6
Continuous
 62
     7
370
    30
100
AcDbLine
 10
138.6623396968
 20
210.605132157
 30
0.0
 11
138.3623396826
 21
210.605132157
 31
0.0
  0
LINE
  5
10A
330
1F
100
AcDbEntity
  8
0
  6
Continuous
 62
     7
370
    30
100
AcDbLine
 10
138.1123396998
 20
210.855132198
 30
0.0
 11
138.1123396998
 21
210.605132157
 31
0.0
  0
LINE
  5
10B
330
1F
100
AcDbEntity
  8
0
  6
Continuous
 62
     7
370
    30
100
AcDbLine
 10
138.3623396826
 20
210.605132157
 30
0.0
 11
138.1123396998
 21
210.605132157
 31
0.0
  0
LINE
  5
10C
330
1F
100
AcDbEntity
  8
0
  6
Continuous
 62
     7
370
    30
100
AcDbLine
 10
140.4674898506
 20
204.4051320953
 30
0.0
 11
140.5333909345
 21
204.4051320953
 31
0.0
  0
LINE
  5
10D
330
1F
100
AcDbEntity
  8
0
  6
Continuous
 62
     7
370
    30
100
AcDbLine
 10
140.083390884
 20
204.4051320953
 30
0.0
 11
140.4674898506
 21
204.4051320953
 31
0.0
  0
LINE
  5
10E
330
1F
100
AcDbEntity
  8
0
  6
Continuous
 62
     7
370
    30
100
AcDbLine
 10
138.6123396872
 20
209.9051321819
 30
0.0
 11
138.6123396872
 21
210.605132157
 31
0.0
  0
LINE
  5
10F
330
1F
100
AcDbEntity
  8
0
  6
Continuous
 62
     7
370
    30
100
AcDbLine
 10
138.4123396922
 20
210.605132157
 30
0.0
 11
138.4123396922
 21
209.9051321819
 31
0.0
  0
LINE
  5
110
330
1F
100
AcDbEntity
  8
0
  6
Continuous
 62
     7
370
    30
100
AcDbLine
 10
138.6123396872
 20
209.9051321819
 30
0.0
 11
138.4123396922
 21
209.9051321819
 31
0.0
  0
LINE
  5
111
330
1F
100
AcDbEntity
  8
0
  6
Continuous
 62
     7
370
    30
100
AcDbLine
 10
138.9123396796
 20
210.605132157
 30
0.0
 11
138.9123396796
 21
209.9051321819
 31
0.0
  0
LINE
  5
112
330
1F
100
AcDbEntity
  8
0
  6
Continuous
 62
     7
370
    30
100
AcDbLine
 10
138.9123396796
 20
209.9051321819
 30
0.0
 11
138.6123396872
 21
209.9051321819
 31
0.0
  0
LINE
  5
113
330
1F
100
AcDbEntity
  8
0
  6
Continuous
 62
     7
370
    30
100
AcDbLine
 10
138.1123396998
 20
209.9051321819
 30
0.0
 11
138.1123396998
 21
210.605132157
 31
0.0
  0
LINE
  5
114
330
1F
100
AcDbEntity
  8
0
  6
Continuous
 62
     7
370
    30
100
AcDbLine
 10
138.4123396922
 20
209.9051321819
 30
0.0
 11
138.1123396998
 21
209.9051321819
 31
0.0
  0
LINE
  5
115
330
1F
100
AcDbEntity
  8
0
  6
Continuous
 62
     7
370
    30
100
AcDbLine
 10
138.0506344279
 20
210.605132157
 30
0.0
 11
138.1123396998
 21
210.605132157
 31
0.0
  0
LINE
  5
116
330
1F
100
AcDbEntity
  8
0
  6
Continuous
 62
     7
370
    30
100
AcDbLine
 10
138.1123396998
 20
209.9051321819
 30
0.0
 11
138.0145263532
 21
209.9051321819
 31
0.0
  0
LINE
  5
117
330
1F
100
AcDbEntity
  8
0
  6
Continuous
 62
     7
370
    30
100
AcDbLine
 10
138.9123396796
 20
210.605132157
 30
0.0
 11
138.9703870657
 21
210.605132157
 31
0.0
  0
LINE
  5
118
330
1F
100
AcDbEntity
  8
0
  6
Continuous
 62
     7
370
    30
100
AcDbLine
 10
139.007046658
 20
209.9051321819
 30
0.0
 11
138.9123396796
 21
209.9051321819
 31
0.0
  0
LINE
  5
119
330
1F
100
AcDbEntity
  8
0
  6
Continuous
 62
     7
370
    30
100
AcDbLine
 10
136.8753875279
 20
204.4051320953
 30
0.0
 11
136.9412884954
 21
204.4051320953
 31
0.0
  0
LINE
  5
11A
330
1F
100
AcDbEntity
  8
0
  6
Continuous
 62
     7
370
    30
100
AcDbLine
 10
136.4912884449
 20
204.4051320953
 30
0.0
 11
136.8753875279
 21
204.4051320953
 31
0.0
  0
SPLINE
  5
11B
330
1F
100
AcDbEntity
  8
0
  6
Continuous
 62
     7
370
    30
100
AcDbSpline
210
0.0
220
0.0
230
1.0
 70
    24
 71
     3
 72
    45
 73
    41
 74
     0
 42
0.000000001
 43
0.00000001
 40
0.0
 40
0.0
 40
0.0
 40
0.0
 40
0.0264623500940192
 40
0.0529246991276882
 40
0.0801558421640766
 40
0.1073869749321619
 40
0.133849327058788
 40
0.1603116820116386
 40
0.187542819454581
 40
0.2147739577888888
 40
0.2412363110194664
 40
0.2676986499320392
 40
0.2949297952944149
 40
0.3221609371874133
 40
0.3486232747152035
 40
0.3750856387350924
 40
0.4023167779065533
 40
0.4295479154112055
 40
0.4560102648283281
 40
0.4824726171963847
 40
0.5097037560699604
 40
0.5369348924132895
 40
0.5633972431332722
 40
0.5898595967099013
 40
0.6170907341709798
 40
0.6443218723104369
 40
0.6707842361151213
 40
0.6972465740339574
 40
0.7244777212633665
 40
0.7517088503387819
 40
0.7781711958011359
 40
0.8046335466813795
 40
0.8318646900508314
 40
0.8590958292983192
 40
0.8855581778568057
 40
0.912020524450565
 40
0.9392516732581775
 40
0.9664828071027596
 40
0.992945157749158
 40
1.0
 40
1.0
 40
1.0
 40
1.0
 10
143.2023395457661
 20
222.1871138280298
 30
0.0
 10
143.1992020371879
 20
222.1871138280298
 30
0.0
 10
143.1929270201572
 20
222.1871138280298
 30
0.0
 10
143.1421496213522
 20
222.1871138280298
 30
0.0
 10
143.060014333904
 20
222.1871138280298
 30
0.0
 10
142.9444568579351
 20
222.1871138280298
 30
0.0
 10
142.7986550722071
 20
222.1871138280298
 30
0.0
 10
142.6230711405674
 20
222.1871138280298
 30
0.0
 10
142.4162786597282
 20
222.1871138280298
 30
0.0
 10
142.1813469399795
 20
222.1871138280298
 30
0.0
 10
141.9225737703575
 20
222.1871138280298
 30
0.0
 10
141.6401411481293
 20
222.1871138280298
 30
0.0
 10
141.3325114547864
 20
222.1871138280298
 30
0.0
 10
141.0045567411517
 20
222.1871138280298
 30
0.0
 10
140.6620216263299
 20
222.1871138280298
 30
0.0
 10
140.3045730191732
 20
222.1871138280298
 30
0.0
 10
139.9307918100651
 20
222.1871138280298
 30
0.0
 10
139.5467876610453
 20
222.1871138280298
 30
0.0
 10
139.159109436152
 20
222.1871138280298
 30
0.0
 10
138.7669440537061
 20
222.1871138280298
 30
0.0
 10
138.3691523610302
 20
222.1871138280298
 30
0.0
 10
137.9723926001488
 20
222.1871138280298
 30
0.0
 10
137.5832787857144
 20
222.1871138280298
 30
0.0
 10
137.2006104985782
 20
222.1871138280298
 30
0.0
 10
136.8236562296329
 20
222.1871138280298
 30
0.0
 10
136.4588723784185
 20
222.1871138280298
 30
0.0
 10
136.1121927813986
 20
222.1871138280298
 30
0.0
 10
135.7821641687264
 20
222.1871138280298
 30
0.0
 10
135.4685464711632
 20
222.1871138280298
 30
0.0
 10
135.1768648081761
 20
222.1871138280298
 30
0.0
 10
134.9117050628307
 20
222.1871138280298
 30
0.0
 10
134.671525296068
 20
222.1871138280298
 30
0.0
 10
134.4565989841296
 20
222.1871138280298
 30
0.0
 10
134.2709155610666
 20
222.1871138280298
 30
0.0
 10
134.1171314607316
 20
222.1871138280298
 30
0.0
 10
133.9940226290849
 20
222.1871138280298
 30
0.0
 10
133.9014687885738
 20
222.1871138280298
 30
0.0
 10
133.8447615681703
 20
222.1871138280298
 30
0.0
 10
133.8201411509314
 20
222.1871138280298
 30
0.0
 10
133.8245914900589
 20
222.1871138280298
 30
0.0
 10
133.8255282164908
 20
222.1871138280298
 30
0.0
  0
SPLINE
  5
11C
330
1F
100
AcDbEntity
  8
0
  6
Continuous
 62
     7
370
    30
100
AcDbSpline
210
0.0
220
0.0
230
1.0
 70
    24
 71
     3
 72
     8
 73
     4
 74
     0
 42
0.000000001
 43
0.00000001
 40
0.0000002005634961
 40
0.0000002005634961
 40
0.0000002005634961
 40
0.0000002005634961
 40
0.0018553761111413
 40
0.0018553761111413
 40
0.0018553761111413
 40
0.0018553761111413
 10
138.0623396897113
 20
210.8551321974064
 30
0.0
 10
138.0306736530646
 20
210.238477799548
 30
0.0
 10
137.9990069707618
 20
209.6218108283893
 30
0.0
 10
137.9673396897114
 20
209.0051321974064
 30
0.0
  0
LINE
  5
11D
330
1F
100
AcDbEntity
  8
0
  6
Continuous
 62
     7
370
    30
100
AcDbLine
 10
132.9973398381
 20
209.0051321974
 30
0.0
 11
137.9673396726
 21
209.0051321974
 31
0.0
  0
LINE
  5
11E
330
1F
100
AcDbEntity
  8
0
  6
Continuous
 62
     7
370
    30
100
AcDbLine
 10
139.0573397069
 20
209.0051321974
 30
0.0
 11
144.0273395413
 21
209.0051321974
 31
0.0
  0
SPLINE
  5
11F
330
1F
100
AcDbEntity
  8
0
  6
Continuous
 62
     7
370
    30
100
AcDbSpline
210
0.0
220
0.0
230
1.0
 70
    24
 71
     3
 72
     8
 73
     4
 74
     0
 42
0.000000001
 43
0.00000001
 40
0.0000002005634961
 40
0.0000002005634961
 40
0.0000002005634961
 40
0.0000002005634961
 40
0.0018553761111413
 40
0.0018553761111413
 40
0.0018553761111413
 40
0.0018553761111413
 10
138.9623396897114
 20
210.8551321974064
 30
0.0
 10
138.9940057263582
 20
210.238477799548
 30
0.0
 10
139.0256724086609
 20
209.6218108283893
 30
0.0
 10
139.0573396897113
 20
209.0051321974064
 30
0.0
  0
LINE
  5
120
330
1F
100
AcDbEntity
  8
0
  6
Continuous
 62
     7
370
    30
100
AcDbLine
 10
138.0623396974
 20
210.855132198
 30
0.0
 11
138.962339682
 21
210.855132198
 31
0.0
  0
LINE
  5
121
330
1F
100
AcDbEntity
  8
0
  6
Continuous
 62
     7
370
    30
100
AcDbLine
 10
133.7723399186
 20
222.1603802135
 30
0.0
 11
143.2523394608
 21
222.1603802135
 31
0.0
  0
LINE
  5
122
330
1F
100
AcDbEntity
  8
0
  6
CENTERX2
 62
     7
370
     0
100
AcDbLine
 10
138.5123396897
 20
225.0216231797
 30
0.0
 11
138.5123396897
 21
203.0676345944
 31
0.0
  0
CIRCLE
  5
123
330
1F
100
AcDbEntity
  8
0
  6
Continuous
 62
     7
370
     0
100
AcDbCircle
 10
138.5123396897
 20
223.3551321974
 30
0.0
 40
0.0009999999999949
  0
DIMENSION
  5
124
330
1F
100
AcDbEntity
  8
0
  6
Continuous
 62
     7
370
     0
100
AcDbDimension
  2
_D_4
 10
166.9151810437
 20
209.0051321974
 30
0.0
 11
166.9151810437
 21
215.3726089741
 31
0.0
 70
   160
  1
<>
 71
     2
 42
-1.0
  3
SLDDIMSTYLE3
100
AcDbAlignedDimension
 13
138.5123396897
 23
223.3551321974
 33
0.0
 14
144.0273396897
 24
209.0051321974
 34
0.0
 50
90.0
100
AcDbRotatedDimension
  0
DIMENSION
  5
12F
330
1F
100
AcDbEntity
  8
0
  6
Continuous
 62
     7
370
     0
100
AcDbDimension
  2
_D_5
 10
144.0273396897
 20
196.3240164259
 30
0.0
 11
137.1551731655
 21
196.3240164259
 31
0.0
 70
   160
  1
%%c<>
 71
     2
 42
-1.0
  3
SLDDIMSTYLE4
100
AcDbAlignedDimension
 13
132.9973396897
 23
209.0051321974
 33
0.0
 14
144.0273396897
 24
209.0051321974
 34
0.0
100
AcDbRotatedDimension
  0
DIMENSION
  5
13D
330
1F
100
AcDbEntity
  8
0
  6
Continuous
 62
     7
370
     0
100
AcDbDimension
  2
_D_6
 10
166.9151810437
 20
204.4051321974
 30
0.0
 11
166.9151810437
 21
198.1140934052
 31
0.0
 70
   160
  1
<>
 71
     2
 42
-1.0
  3
SLDDIMSTYLE5
100
AcDbAlignedDimension
 13
144.0273396897
 23
209.0051321974
 33
0.0
 14
140.5333909139
 24
204.4051321974
 34
0.0
 50
90.0
100
AcDbRotatedDimension
  0
DIMENSION
  5
149
330
1F
100
AcDbEntity
  8
0
  6
Continuous
 62
     7
370
     0
100
AcDbDimension
  2
_D_7
 10
157.1017015243
 20
222.1603806202
 30
0.0
 11
157.1017015243
 21
215.3726089741
 31
0.0
 70
   160
  1
<>
 71
     2
 42
-1.0
  3
SLDDIMSTYLE6
100
AcDbAlignedDimension
 13
144.0273396897
 23
209.0051321974
 33
0.0
 14
143.2523396897
 24
222.1603806202
 34
0.0
 50
90.0
100
AcDbRotatedDimension
  0
DIMENSION
  5
154
330
1F
100
AcDbEntity
  8
0
  6
Continuous
 62
     7
370
     0
100
AcDbDimension
  2
_D_8
 10
143.2523396897
 20
228.9728142486
 30
0.0
 11
137.6644805939
 21
228.9728142486
 31
0.0
 70
   160
  1
%%c<>
 71
     2
 42
-1.0
  3
SLDDIMSTYLE3
100
AcDbAlignedDimension
 13
133.7723396897
 23
222.1603806202
 33
0.0
 14
143.2523396897
 24
222.1603806202
 34
0.0
100
AcDbRotatedDimension
  0
DIMENSION
  5
161
330
1F
100
AcDbEntity
  8
0
  6
Continuous
 62
     7
370
     0
100
AcDbDimension
  2
_D_9
 10
136.9412884655
 20
205.3810982137
 30
0.0
 11
117.8254932009
 21
205.3810982137
 31
0.0
 70
   160
  1
%%c<>
 71
     2
 42
-1.0
  3
SLDDIMSTYLE7
100
AcDbAlignedDimension
 13
136.4912884655
 23
204.4051321974
 33
0.0
 14
136.9412884655
 24
204.4051321974
 34
0.0
100
AcDbRotatedDimension
  0
MTEXT
  5
16D
330
1F
100
AcDbEntity
  8
0
  6
Continuous
 62
     7
370
     0
100
AcDbMText
 10
167.1526045953
 20
193.8602643335
 30
0.0
 40
2.38125
 41
0.0
 71
     1
 72
     1
  1
(0.181)
  7
SLDTEXTSTYLE0
 11
-3.269436733918102E-15
 21
1.0
 31
0.0
 73
     1
 44
1.0
  0
MTEXT
  5
16E
330
1F
100
AcDbEntity
  8
0
  6
Continuous
 62
     7
370
     0
100
AcDbMText
 10
157.9347123486
 20
211.0817379716
 30
0.0
 40
2.38125
 41
0.0
 71
     1
 72
     1
  1
(0.512)
  7
SLDTEXTSTYLE0
 11
-3.269436733918102E-15
 21
1.0
 31
0.0
 73
     1
 44
1.0
  0
MTEXT
  5
16F
330
1F
100
AcDbEntity
  8
0
  6
Continuous
 62
     7
370
     0
100
AcDbMText
 10
167.4522941095
 20
211.2068670425
 30
0.0
 40
2.38125
 41
0.0
 71
     1
 72
     1
  1
(0.567)
  7
SLDTEXTSTYLE0
 11
-3.269436733918102E-15
 21
1.0
 31
0.0
 73
     1
 44
1.0
  0
MTEXT
  5
170
330
1F
100
AcDbEntity
  8
0
  6
Continuous
 62
     7
370
     0
100
AcDbMText
 10
131.592633643
 20
236.3526985491
 30
0.0
 40
2.38125
 41
0.0
 71
     1
 72
     1
  1
(0.374 dia.)
  7
SLDTEXTSTYLE0
 73
     1
 44
1.0
  0
MTEXT
  5
171
330
1F
100
AcDbEntity
  8
0
  6
Continuous
 62
     7
370
     0
100
AcDbMText
 10
131.592633643
 20
195.5032847414
 30
0.0
 40
2.38125
 41
0.0
 71
     1
 72
     1
  1
(0.433 dia.)
  7
SLDTEXTSTYLE0
 73
     1
 44
1.0
  0
MTEXT
  5
172
330
1F
100
AcDbEntity
  8
0
  6
Continuous
 62
     7
370
     0
100
AcDbMText
 10
110.6795384392
 20
204.8226202287
 30
0.0
 40
2.38125
 41
0.0
 71
     1
 72
     1
  1
(0.018 dia.)
  7
SLDTEXTSTYLE0
 73
     1
 44
1.0
  0
LINE
  5
173
330
1F
100
AcDbEntity
  8
0
  6
Continuous
 62
     7
370
     0
100
AcDbLine
 10
124.1793094268
 20
221.0051321974
 30
0.0
 11
152.896133798
 21
221.0051321974
 31
0.0
  0
LINE
  5
174
330
1F
100
AcDbEntity
  8
0
  6
Continuous
 62
     7
370
     0
100
AcDbLine
 10
126.1793094268
 20
215.0051321974
 30
0.0
 11
126.1793094268
 21
221.0051321974
 31
0.0
  0
INSERT
  5
175
330
1F
100
AcDbEntity
  8
0
  6
Continuous
 62
     7
370
     0
100
AcDbBlockReference
  2
_OPEN30
 10
126.1793094268
 20
221.0051321974
 30
0.0
 41
3.0
 42
3.0
 50
90.0
  0
LINE
  5
176
330
1F
100
AcDbEntity
  8
0
  6
Continuous
 62
     7
370
     0
100
AcDbLine
 10
150.896133798
 20
215.0051321974
 30
0.0
 11
150.896133798
 21
221.0051321974
 31
0.0
  0
INSERT
  5
177
330
1F
100
AcDbEntity
  8
0
  6
Continuous
 62
     7
370
     0
100
AcDbBlockReference
  2
_OPEN30
 10
150.896133798
 20
221.0051321974
 30
0.0
 41
3.0
 42
3.0
 50
90.0
  0
MTEXT
  5
178
330
1F
100
AcDbEntity
  8
0
  6
Continuous
 62
     7
100
AcDbMText
 10
124.8931068069
 20
215.4333083904
 30
0.0
 40
3.5
 41
0.0
 71
     1
 72
     1
  1
A
  7
SLDTEXTSTYLE0
 73
     1
 44
1.0
  0
MTEXT
  5
179
330
1F
100
AcDbEntity
  8
0
  6
Continuous
 62
     7
100
AcDbMText
 10
149.6448279696
 20
215.2324015628
 30
0.0
 40
3.5
 41
0.0
 71
     1
 72
     1
  1
A
  7
SLDTEXTSTYLE0
 73
     1
 44
1.0
  0
SPLINE
  5
17A
330
1F
100
AcDbEntity
  8
0
  6
Continuous
 62
     7
370
    30
100
AcDbSpline
210
0.0
220
0.0
230
1.0
 70
    11
 71
     3
 72
    63
 73
    59
 74
     0
 42
0.000000001
 43
0.00000001
 40
0.0
 40
0.0
 40
0.0
 40
0.0
 40
0.0178789126874001
 40
0.0358148393446305
 40
0.0536937512164667
 40
0.0715726665379664
 40
0.0895085898524866
 40
0.1073875050379477
 40
0.1252664206316979
 40
0.1432023431864399
 40
0.1610812557571435
 40
0.178960173007275
 40
0.1968960914307072
 40
0.2147750059602264
 40
0.2326539177364396
 40
0.2505898443536971
 40
0.2684687565354387
 40
0.2863476708309924
 40
0.3042835960947707
 40
0.3221625082173745
 40
0.3400414237371766
 40
0.3579773481793689
 40
0.3758562592545838
 40
0.3937351723093598
 40
0.4116710947352435
 40
0.4295500107902582
 40
0.4474289219485467
 40
0.465364847750433
 40
0.4832437609827963
 40
0.5011226742620124
 40
0.51905859920844
 40
0.5369375124825733
 40
0.554816424415766
 40
0.5727523534041725
 40
0.5906312678867095
 40
0.6085101762722935
 40
0.6264461027460273
 40
0.6443250155255867
 40
0.6622039299147151
 40
0.6801398552263873
 40
0.698018769951869
 40
0.7158976837110635
 40
0.7338336098472104
 40
0.7517125223532348
 40
0.7695914348539306
 40
0.7875273615512782
 40
0.8054062723805746
 40
0.8232851828925976
 40
0.8412211065546653
 40
0.8591000287053352
 40
0.8769789412612397
 40
0.8949148600958269
 40
0.912793778389512
 40
0.9306726950543324
 40
0.9486086185172838
 40
0.9664875289624759
 40
0.9832437656905577
 40
1.0
 40
1.0
 40
1.0
 40
1.0
 10
143.2023395457661
 20
261.2335306560176
 30
0.0
 10
143.1964941580375
 20
261.0579251513016
 30
0.0
 10
143.1847847422543
 20
260.7061541544071
 30
0.0
 10
143.092661295726
 20
260.1854739794234
 30
0.0
 10
142.9477057069709
 20
259.6777637201254
 30
0.0
 10
142.744207377556
 20
259.1901788170288
 30
0.0
 10
142.488251084401
 20
258.7282013075666
 30
0.0
 10
142.1825234047237
 20
258.2973978995328
 30
0.0
 10
141.8293414415626
 20
257.9045757201784
 30
0.0
 10
141.4348325276157
 20
257.553385546916
 30
0.0
 10
141.0037578631026
 20
257.2480587814769
 30
0.0
 10
140.5404544856577
 20
256.9942869395514
 30
0.0
 10
140.0519397010505
 20
256.7934783281494
 30
0.0
 10
139.5441001289959
 20
256.6480514403945
 30
0.0
 10
139.0229138698593
 20
256.5619409941955
 30
0.0
 10
138.49546848673
 20
256.5341529836045
 30
0.0
 10
137.9681192008213
 20
256.5650215201661
 30
0.0
 10
137.447809977985
 20
256.6562816284414
 30
0.0
 10
136.9408991710513
 20
256.8046468823095
 30
0.0
 10
136.4534950901697
 20
257.0083314228345
 30
0.0
 10
135.9927235861423
 20
257.2666717375681
 30
0.0
 10
135.5634980223115
 20
257.574464245307
 30
0.0
 10
135.1709897722152
 20
257.9279997285737
 30
0.0
 10
134.8217047944767
 20
258.3242951816006
 30
0.0
 10
134.5185565091667
 20
258.7568132905561
 30
0.0
 10
134.265196680331
 20
259.2203420261733
 30
0.0
 10
134.066777659935
 20
259.7099132708595
 30
0.0
 10
133.9238832135445
 20
260.2183933369424
 30
0.0
 10
133.8382368351883
 20
260.7396560563868
 30
0.0
 10
133.813053111996
 20
261.2673073303595
 30
0.0
 10
133.8465240825298
 20
261.7944226103251
 30
0.0
 10
133.9382461150593
 20
262.3146505989038
 30
0.0
 10
134.0891377904578
 20
262.8208934445681
 30
0.0
 10
134.2951997580809
 20
263.3072157135005
 30
0.0
 10
134.5539504305534
 20
263.7677569102795
 30
0.0
 10
134.8639050123425
 20
264.1955164386263
 30
0.0
 10
135.2193266750301
 20
264.5862161099851
 30
0.0
 10
135.6159323783249
 20
264.935148818117
 30
0.0
 10
136.0500054726346
 20
265.2361980792982
 30
0.0
 10
136.5147152760446
 20
265.4872272875469
 30
0.0
 10
137.0044627534339
 20
265.6852109530361
 30
0.0
 10
137.5137155058675
 20
265.8256094527765
 30
0.0
 10
138.0353211638131
 20
265.9086661869468
 30
0.0
 10
138.5629946363365
 20
265.9333797386596
 30
0.0
 10
139.0900129378751
 20
265.8972989060595
 30
0.0
 10
139.6097070334643
 20
265.8030181259405
 30
0.0
 10
140.1158156424888
 20
265.6516770566679
 30
0.0
 10
140.6011817288251
 20
265.4431829610095
 30
0.0
 10
141.0603734239905
 20
265.182196494853
 30
0.0
 10
141.487856579315
 20
264.8718611343128
 30
0.0
 10
141.8768509867298
 20
264.5144615195463
 30
0.0
 10
142.2237639117143
 20
264.1161916865345
 30
0.0
 10
142.5244459846455
 20
263.6818517730588
 30
0.0
 10
142.7731395090537
 20
263.2158378101648
 30
0.0
 10
142.9689344592446
 20
262.7251962682876
 30
0.0
 10
143.1049966269491
 20
262.2264367946705
 30
0.0
 10
143.1871744806874
 20
261.7272356003803
 30
0.0
 10
143.1972845243164
 20
261.398098962887
 30
0.0
 10
143.2023395457661
 20
261.2335306560176
 30
0.0
  0
SPLINE
  5
17B
330
1F
100
AcDbEntity
  8
0
  6
Continuous
 62
     7
370
    30
100
AcDbSpline
210
0.0
220
0.0
230
1.0
 70
     8
 71
     3
 72
     8
 73
     4
 74
     0
 42
0.000000001
 43
0.00000001
 40
0.0000002005634961
 40
0.0000002005634961
 40
0.0000002005634961
 40
0.0000002005634961
 40
0.0018553761111413
 40
0.0018553761111413
 40
0.0018553761111413
 40
0.0018553761111413
 10
138.0623396897113
 20
255.846279276395
 30
0.0
 10
138.0306736530646
 20
255.8124695899055
 30
0.0
 10
137.9990069707618
 20
255.7788891355556
 30
0.0
 10
137.9673396897114
 20
255.7455255539792
 30
0.0
  0
ARC
  5
17C
330
1F
100
AcDbEntity
  8
0
  6
Continuous
 62
     7
370
    30
100
AcDbCircle
 10
138.5123396897
 20
261.233530656
 30
0.0
 40
5.515000000000025
100
AcDbArc
 50
95.6713052782
 51
264.3286947218
  0
SPLINE
  5
17D
330
1F
100
AcDbEntity
  8
0
  6
Continuous
 62
     7
370
    30
100
AcDbSpline
210
0.0
220
0.0
230
1.0
 70
     8
 71
     3
 72
     8
 73
     4
 74
     0
 42
0.000000001
 43
0.00000001
 40
0.0000002005556143
 40
0.0000002005556143
 40
0.0000002005556143
 40
0.0000002005556143
 40
0.0018553761032595
 40
0.0018553761032595
 40
0.0018553761032595
 40
0.0018553761032595
 10
137.9673396897114
 20
266.7215357580561
 30
0.0
 10
137.9990069707618
 20
266.6881721764796
 30
0.0
 10
138.0306736530646
 20
266.6545917221297
 30
0.0
 10
138.0623396897113
 20
266.6207820356402
 30
0.0
  0
ARC
  5
17E
330
1F
100
AcDbEntity
  8
0
  6
Continuous
 62
     7
370
    30
100
AcDbCircle
 10
138.5123396897
 20
261.233530656
 30
0.0
 40
5.4060130805655
100
AcDbArc
 50
85.2251374858
 51
94.7748625142
  0
SPLINE
  5
17F
330
1F
100
AcDbEntity
  8
0
  6
Continuous
 62
     7
370
    30
100
AcDbSpline
210
0.0
220
0.0
230
1.0
 70
     8
 71
     3
 72
     8
 73
     4
 74
     0
 42
0.000000001
 43
0.00000001
 40
0.0000002005556143
 40
0.0000002005556143
 40
0.0000002005556143
 40
0.0000002005556143
 40
0.0018553761032595
 40
0.0018553761032595
 40
0.0018553761032595
 40
0.0018553761032595
 10
139.0573396897113
 20
266.7215357580561
 30
0.0
 10
139.0256724086609
 20
266.6881721764796
 30
0.0
 10
138.9940057263582
 20
266.6545917221297
 30
0.0
 10
138.9623396897114
 20
266.6207820356402
 30
0.0
  0
ARC
  5
180
330
1F
100
AcDbEntity
  8
0
  6
Continuous
 62
     7
370
    30
100
AcDbCircle
 10
138.5123396897
 20
261.233530656
 30
0.0
 40
5.515000000000025
100
AcDbArc
 50
275.6713052782
 51
84.3286947218
  0
SPLINE
  5
181
330
1F
100
AcDbEntity
  8
0
  6
Continuous
 62
     7
370
    30
100
AcDbSpline
210
0.0
220
0.0
230
1.0
 70
     8
 71
     3
 72
     8
 73
     4
 74
     0
 42
0.000000001
 43
0.00000001
 40
0.0000002005634961
 40
0.0000002005634961
 40
0.0000002005634961
 40
0.0000002005634961
 40
0.0018553761111413
 40
0.0018553761111413
 40
0.0018553761111413
 40
0.0018553761111413
 10
138.9623396897114
 20
255.846279276395
 30
0.0
 10
138.9940057263582
 20
255.8124695899055
 30
0.0
 10
139.0256724086609
 20
255.7788891355556
 30
0.0
 10
139.0573396897113
 20
255.7455255539792
 30
0.0
  0
ARC
  5
182
330
1F
100
AcDbEntity
  8
0
  6
Continuous
 62
     7
370
    30
100
AcDbCircle
 10
138.5123396897
 20
261.233530656
 30
0.0
 40
5.4060130805655
100
AcDbArc
 50
265.2251374858
 51
274.7748625142
  0
CIRCLE
  5
183
330
1F
100
AcDbEntity
  8
0
  6
Continuous
 62
     7
370
    30
100
AcDbCircle
 10
138.5123396897
 20
261.233530656
 30
0.0
 40
4.740000000000009
  0
LINE
  5
184
330
1F
100
AcDbEntity
  8
0
  6
CENTERX2
 62
     7
370
     0
100
AcDbLine
 10
130.8573165272
 20
261.233530656
 30
0.0
 11
145.5809783467
 21
261.233530656
 31
0.0
  0
LINE
  5
185
330
1F
100
AcDbEntity
  8
0
  6
CENTERX2
 62
     7
370
     0
100
AcDbLine
 10
138.5123396897
 20
253.8597965539
 30
0.0
 11
138.5123396897
 21
268.3708423183
 31
0.0
  0
ARC
  5
186
330
1F
100
AcDbEntity
  8
0
  6
Continuous
 62
     7
370
    30
100
AcDbCircle
 10
138.5123396897
 20
164.7439273574
 30
0.0
 40
4.454999999999995
100
AcDbArc
 50
345.0
 51
15.0
  0
ARC
  5
187
330
1F
100
AcDbEntity
  8
0
  6
Continuous
 62
     7
370
    30
100
AcDbCircle
 10
138.5123396897
 20
164.7439273574
 30
0.0
 40
4.454999999999995
100
AcDbArc
 50
165.0
 51
195.0
  0
LINE
  5
188
330
1F
100
AcDbEntity
  8
0
  6
Continuous
 62
     7
370
    30
100
AcDbLine
 10
139.5683773001
 20
163.0339273751
 30
0.0
 11
139.5633438508
 21
163.0339273751
 31
0.0
  0
LINE
  5
189
330
1F
100
AcDbEntity
  8
0
  6
Continuous
 62
     7
370
    30
100
AcDbLine
 10
139.5633438508
 20
166.4539273396
 30
0.0
 11
139.5683773001
 21
166.4539273396
 31
0.0
  0
LINE
  5
18A
330
1F
100
AcDbEntity
  8
0
  6
Continuous
 62
     7
370
    30
100
AcDbLine
 10
140.222339672
 20
165.7999649678
 30
0.0
 11
140.222339672
 21
165.7949315185
 31
0.0
  0
LINE
  5
18B
330
1F
100
AcDbEntity
  8
0
  6
Continuous
 62
     7
370
    30
100
AcDbLine
 10
140.222339672
 20
163.6929231962
 30
0.0
 11
140.222339672
 21
163.687889747
 31
0.0
  0
LINE
  5
18C
330
1F
100
AcDbEntity
  8
0
  6
Continuous
 62
     7
370
    30
100
AcDbLine
 10
138.1123396998
 20
169.8439275414
 30
0.0
 11
138.1123396998
 21
169.7763107285
 31
0.0
  0
ARC
  5
18D
330
1F
100
AcDbEntity
  8
0
  6
Continuous
 62
     7
370
    30
100
AcDbCircle
 10
138.3623396897
 20
169.8439273574
 30
0.0
 40
0.25
100
AcDbArc
 50
90.0
 51
180.0
  0
LINE
  5
18E
330
1F
100
AcDbEntity
  8
0
  6
Continuous
 62
     7
370
    30
100
AcDbLine
 10
138.6623396968
 20
170.0939275824
 30
0.0
 11
138.3623396826
 21
170.0939275824
 31
0.0
  0
ARC
  5
18F
330
1F
100
AcDbEntity
  8
0
  6
Continuous
 62
     7
370
    30
100
AcDbCircle
 10
138.6623396897
 20
169.8439273574
 30
0.0
 40
0.25
100
AcDbArc
 50
360.0
 51
90.0
  0
LINE
  5
190
330
1F
100
AcDbEntity
  8
0
  6
Continuous
 62
     7
370
    30
100
AcDbLine
 10
138.9123396796
 20
169.7763107285
 30
0.0
 11
138.9123396796
 21
169.8439275414
 31
0.0
  0
CIRCLE
  5
191
330
1F
100
AcDbEntity
  8
0
  6
Continuous
 62
     7
370
    30
100
AcDbCircle
 10
140.3083909139
 20
162.9478761332
 30
0.0
 40
0.2250000000000058
  0
CIRCLE
  5
192
330
1F
100
AcDbEntity
  8
0
  6
Continuous
 62
     7
370
    30
100
AcDbCircle
 10
140.3083909139
 20
162.9478761332
 30
0.0
 40
0.7450000000000069
  0
CIRCLE
  5
193
330
1F
100
AcDbEntity
  8
0
  6
Continuous
 62
     7
370
    30
100
AcDbCircle
 10
140.3083909139
 20
166.5399785816
 30
0.0
 40
0.2250000000000058
  0
CIRCLE
  5
194
330
1F
100
AcDbEntity
  8
0
  6
Continuous
 62
     7
370
    30
100
AcDbCircle
 10
140.3083909139
 20
166.5399785816
 30
0.0
 40
0.7449999999999868
  0
CIRCLE
  5
195
330
1F
100
AcDbEntity
  8
0
  6
Continuous
 62
     7
370
    30
100
AcDbCircle
 10
136.7162884655
 20
162.9478761332
 30
0.0
 40
0.2250000000000058
  0
ARC
  5
196
330
1F
100
AcDbEntity
  8
0
  6
Continuous
 62
     7
370
    30
100
AcDbCircle
 10
138.6123396897
 20
169.7763108363
 30
0.0
 40
0.3000000000000114
100
AcDbArc
 50
0.0
 51
90.0
  0
LINE
  5
197
330
1F
100
AcDbEntity
  8
0
  6
Continuous
 62
     7
370
    30
100
AcDbLine
 10
138.9123396796
 20
169.5431462057
 30
0.0
 11
138.9123396796
 21
169.7763107285
 31
0.0
  0
ARC
  5
198
330
1F
100
AcDbEntity
  8
0
  6
Continuous
 62
     7
370
    30
100
AcDbCircle
 10
139.2123396897
 20
169.5431460438
 30
0.0
 40
0.3000000000000114
100
AcDbArc
 50
180.0
 51
261.7015230635
  0
ARC
  5
199
330
1F
100
AcDbEntity
  8
0
  6
Continuous
 62
     7
370
    30
100
AcDbCircle
 10
137.8123396897
 20
169.5431460438
 30
0.0
 40
0.3000000000000398
100
AcDbArc
 50
278.2984769365
 51
0.0
  0
LINE
  5
19A
330
1F
100
AcDbEntity
  8
0
  6
Continuous
 62
     7
370
    30
100
AcDbLine
 10
138.1123396998
 20
169.7763107285
 30
0.0
 11
138.1123396998
 21
169.5431462057
 31
0.0
  0
ARC
  5
19B
330
1F
100
AcDbEntity
  8
0
  6
Continuous
 62
     7
370
    30
100
AcDbCircle
 10
138.4123396897
 20
169.7763108363
 30
0.0
 40
0.3000000000000114
100
AcDbArc
 50
90.0
 51
180.0
  0
LINE
  5
19C
330
1F
100
AcDbEntity
  8
0
  6
Continuous
 62
     7
370
    30
100
AcDbLine
 10
138.6123396872
 20
170.0763106846
 30
0.0
 11
138.4123396922
 21
170.0763106846
 31
0.0
  0
CIRCLE
  5
19D
330
1F
100
AcDbEntity
  8
0
  6
Continuous
 62
     7
370
    30
100
AcDbCircle
 10
136.7162884655
 20
162.9478761332
 30
0.0
 40
0.7499999999999659
  0
CIRCLE
  5
19E
330
1F
100
AcDbEntity
  8
0
  6
Continuous
 62
     7
370
    30
100
AcDbCircle
 10
140.3083909139
 20
162.9478761332
 30
0.0
 40
0.7499999999999859
  0
CIRCLE
  5
19F
330
1F
100
AcDbEntity
  8
0
  6
Continuous
 62
     7
370
    30
100
AcDbCircle
 10
140.3083909139
 20
166.5399785816
 30
0.0
 40
0.7499999999999859
  0
ARC
  5
1A0
330
1F
100
AcDbEntity
  8
0
  6
Continuous
 62
     7
370
    30
100
AcDbCircle
 10
138.5123396897
 20
164.7439273574
 30
0.0
 40
4.550000000000002
100
AcDbArc
 50
15.0
 51
81.7015230635
  0
ARC
  5
1A1
330
1F
100
AcDbEntity
  8
0
  6
Continuous
 62
     7
370
    30
100
AcDbCircle
 10
138.5123396897
 20
164.7439273574
 30
0.0
 40
4.550000000000015
100
AcDbArc
 50
195.0
 51
345.0
  0
ARC
  5
1A2
330
1F
100
AcDbEntity
  8
0
  6
Continuous
 62
     7
370
    30
100
AcDbCircle
 10
138.5123396897
 20
164.7439273574
 30
0.0
 40
4.549999999999991
100
AcDbArc
 50
98.2984769365
 51
165.0
  0
LINE
  5
1A3
330
1F
100
AcDbEntity
  8
0
  6
Continuous
 62
     7
370
    30
100
AcDbLine
 10
139.5687199104
 20
162.8589273231
 30
0.0
 11
139.5636841328
 21
162.8589273231
 31
0.0
  0
LINE
  5
1A4
330
1F
100
AcDbEntity
  8
0
  6
Continuous
 62
     7
370
    30
100
AcDbLine
 10
139.7873397357
 20
162.4084266868
 30
0.0
 11
139.7873397357
 21
162.4154001974
 31
0.0
  0
LINE
  5
1A5
330
1F
100
AcDbEntity
  8
0
  6
Continuous
 62
     7
370
    30
100
AcDbLine
 10
139.7873397357
 20
167.0724545174
 30
0.0
 11
139.7873397357
 21
167.079428028
 31
0.0
  0
LINE
  5
1A6
330
1F
100
AcDbEntity
  8
0
  6
Continuous
 62
     7
370
    30
100
AcDbLine
 10
139.5649467734
 20
166.6389273513
 30
0.0
 11
139.5699911657
 21
166.6389273513
 31
0.0
  0
LWPOLYLINE
  5
1A7
330
1F
100
AcDbEntity
  8
0
  6
Continuous
 62
     7
370
    30
100
AcDbPolyline
 90
        3
 70
   128
 43
0.0
 10
139.7267726855
 20
163.4134351543
 10
139.7265654662
 20
163.4150305098
 10
139.7256945632
 20
163.4200678008
  0
LINE
  5
1A8
330
1F
100
AcDbEntity
  8
0
  6
Continuous
 62
     7
370
    30
100
AcDbLine
 10
139.8665743321
 20
163.5539273765
 30
0.0
 11
139.8751163063
 21
163.5539273765
 31
0.0
  0
LINE
  5
1A9
330
1F
100
AcDbEntity
  8
0
  6
Continuous
 62
     7
370
    30
100
AcDbLine
 10
140.0273397006
 20
162.2579230961
 30
0.0
 11
140.0273397006
 21
162.2525272459
 31
0.0
  0
LINE
  5
1AA
330
1F
100
AcDbEntity
  8
0
  6
Continuous
 62
     7
370
    30
100
AcDbLine
 10
140.0273397006
 20
167.2353274688
 30
0.0
 11
140.0273397006
 21
167.2299316187
 31
0.0
  0
LINE
  5
1AB
330
1F
100
AcDbEntity
  8
0
  6
Continuous
 62
     7
370
    30
100
AcDbLine
 10
139.725351138
 20
166.0762010642
 30
0.0
 11
139.7237420454
 21
166.0702066064
 31
0.0
  0
LINE
  5
1AC
330
1F
100
AcDbEntity
  8
0
  6
Continuous
 62
     7
370
    30
100
AcDbLine
 10
139.8614592757
 20
165.9439274144
 30
0.0
 11
139.8531734151
 21
165.9439274144
 31
0.0
  0
ARC
  5
1AD
330
1F
100
AcDbEntity
  8
0
  6
Continuous
 62
     7
370
    30
100
AcDbCircle
 10
138.5123396897
 20
164.7439273574
 30
0.0
 40
4.649999999999996
100
AcDbArc
 50
96.7307821522
 51
263.2692178478
  0
LINE
  5
1AE
330
1F
100
AcDbEntity
  8
0
  6
Continuous
 62
     7
370
    30
100
AcDbLine
 10
137.9673396726
 20
160.1259760127
 30
0.0
 11
137.9673396726
 21
159.2559223563
 31
0.0
  0
ARC
  5
1AF
330
1F
100
AcDbEntity
  8
0
  6
Continuous
 62
     7
370
    30
100
AcDbCircle
 10
138.5123396897
 20
164.7439273574
 30
0.0
 40
5.514999999999997
100
AcDbArc
 50
95.6713052782
 51
264.3286947218
  0
LINE
  5
1B0
330
1F
100
AcDbEntity
  8
0
  6
Continuous
 62
     7
370
    30
100
AcDbLine
 10
137.9673396726
 20
170.2319323585
 30
0.0
 11
137.9673396726
 21
169.3618787021
 31
0.0
  0
ARC
  5
1B1
330
1F
100
AcDbEntity
  8
0
  6
Continuous
 62
     7
370
    30
100
AcDbCircle
 10
138.5123396897
 20
164.7439273574
 30
0.0
 40
4.650000000000007
100
AcDbArc
 50
263.2692178478
 51
264.4465558043
  0
LINE
  5
1B2
330
1F
100
AcDbEntity
  8
0
  6
Continuous
 62
     7
370
    30
100
AcDbLine
 10
138.0623396974
 20
160.1157528848
 30
0.0
 11
138.0623396974
 21
159.356676092
 31
0.0
  0
SPLINE
  5
1B3
330
1F
100
AcDbEntity
  8
0
  6
Continuous
 62
     7
370
    30
100
AcDbSpline
210
0.0
220
0.0
230
1.0
 70
     8
 71
     3
 72
     8
 73
     4
 74
     0
 42
0.000000001
 43
0.00000001
 40
0.0000002005556143
 40
0.0000002005556143
 40
0.0000002005556143
 40
0.0000002005556143
 40
0.0018553761032595
 40
0.0018553761032595
 40
0.0018553761032595
 40
0.0018553761032595
 10
137.9673396897114
 20
159.2559222553374
 30
0.0
 10
137.9990069707618
 20
159.2892858369138
 30
0.0
 10
138.0306736530646
 20
159.3228662912637
 30
0.0
 10
138.0623396897113
 20
159.3566759777532
 30
0.0
  0
SPLINE
  5
1B4
330
1F
100
AcDbEntity
  8
0
  6
Continuous
 62
     7
370
    30
100
AcDbSpline
210
0.0
220
0.0
230
1.0
 70
     8
 71
     3
 72
     8
 73
     4
 74
     0
 42
0.000000001
 43
0.00000001
 40
0.0000002005556143
 40
0.0000002005556143
 40
0.0000002005556143
 40
0.0000002005556143
 40
0.0018553761032595
 40
0.0018553761032595
 40
0.0018553761032595
 40
0.0018553761032595
 10
139.0573396897113
 20
159.2559222553374
 30
0.0
 10
139.0256724086609
 20
159.2892858369138
 30
0.0
 10
138.9940057263582
 20
159.3228662912637
 30
0.0
 10
138.9623396897114
 20
159.3566759777532
 30
0.0
  0
LINE
  5
1B5
330
1F
100
AcDbEntity
  8
0
  6
Continuous
 62
     7
370
    30
100
AcDbLine
 10
138.962339682
 20
160.1157528848
 30
0.0
 11
138.962339682
 21
159.356676092
 31
0.0
  0
ARC
  5
1B6
330
1F
100
AcDbEntity
  8
0
  6
Continuous
 62
     7
370
    30
100
AcDbCircle
 10
138.5123396897
 20
164.7439273574
 30
0.0
 40
4.650000000000007
100
AcDbArc
 50
275.5534441957
 51
276.7307821522
  0
LINE
  5
1B7
330
1F
100
AcDbEntity
  8
0
  6
Continuous
 62
     7
370
    30
100
AcDbLine
 10
139.0573397069
 20
160.1259760127
 30
0.0
 11
139.0573397069
 21
159.2559223563
 31
0.0
  0
ARC
  5
1B8
330
1F
100
AcDbEntity
  8
0
  6
Continuous
 62
     7
370
    30
100
AcDbCircle
 10
138.5123396897
 20
164.7439273574
 30
0.0
 40
4.649999999999996
100
AcDbArc
 50
276.7307821522
 51
83.2692178478
  0
LINE
  5
1B9
330
1F
100
AcDbEntity
  8
0
  6
Continuous
 62
     7
370
    30
100
AcDbLine
 10
139.0573397069
 20
170.2319323585
 30
0.0
 11
139.0573397069
 21
169.3618787021
 31
0.0
  0
ARC
  5
1BA
330
1F
100
AcDbEntity
  8
0
  6
Continuous
 62
     7
370
    30
100
AcDbCircle
 10
138.5123396897
 20
164.7439273574
 30
0.0
 40
5.514999999999997
100
AcDbArc
 50
275.6713052782
 51
84.3286947218
  0
LINE
  5
1BB
330
1F
100
AcDbEntity
  8
0
  6
Continuous
 62
     7
370
    30
100
AcDbLine
 10
138.0623396974
 20
170.1311786227
 30
0.0
 11
138.0623396974
 21
169.3773149081
 31
0.0
  0
ARC
  5
1BC
330
1F
100
AcDbEntity
  8
0
  6
Continuous
 62
     7
370
    30
100
AcDbCircle
 10
138.5123396897
 20
164.7439273574
 30
0.0
 40
4.65
100
AcDbArc
 50
95.6004243141
 51
96.7307821522
  0
SPLINE
  5
1BD
330
1F
100
AcDbEntity
  8
0
  6
Continuous
 62
     7
370
    30
100
AcDbSpline
210
0.0
220
0.0
230
1.0
 70
     8
 71
     3
 72
     8
 73
     4
 74
     0
 42
0.000000001
 43
0.00000001
 40
0.0000002005634961
 40
0.0000002005634961
 40
0.0000002005634961
 40
0.0000002005634961
 40
0.0018553761111413
 40
0.0018553761111413
 40
0.0018553761111413
 40
0.0018553761111413
 10
138.0623396897113
 20
170.1311787369984
 30
0.0
 10
138.0306736530646
 20
170.1649884234879
 30
0.0
 10
137.9990069707618
 20
170.1985688778378
 30
0.0
 10
137.9673396897114
 20
170.2319324594143
 30
0.0
  0
LINE
  5
1BE
330
1F
100
AcDbEntity
  8
0
  6
Continuous
 62
     7
370
    30
100
AcDbLine
 10
138.962339682
 20
170.1311786227
 30
0.0
 11
138.962339682
 21
169.3773149081
 31
0.0
  0
ARC
  5
1BF
330
1F
100
AcDbEntity
  8
0
  6
Continuous
 62
     7
370
    30
100
AcDbCircle
 10
138.5123396897
 20
164.7439273574
 30
0.0
 40
4.650000000000006
100
AcDbArc
 50
83.2692178478
 51
84.3995756859
  0
SPLINE
  5
1C0
330
1F
100
AcDbEntity
  8
0
  6
Continuous
 62
     7
370
    30
100
AcDbSpline
210
0.0
220
0.0
230
1.0
 70
     8
 71
     3
 72
     8
 73
     4
 74
     0
 42
0.000000001
 43
0.00000001
 40
0.0000002005634961
 40
0.0000002005634961
 40
0.0000002005634961
 40
0.0000002005634961
 40
0.0018553761111413
 40
0.0018553761111413
 40
0.0018553761111413
 40
0.0018553761111413
 10
138.9623396897114
 20
170.1311787369984
 30
0.0
 10
138.9940057263582
 20
170.1649884234879
 30
0.0
 10
139.0256724086609
 20
170.1985688778378
 30
0.0
 10
139.0573396897113
 20
170.2319324594143
 30
0.0
  0
LWPOLYLINE
  5
1C1
330
1F
100
AcDbEntity
  8
0
  6
Continuous
 62
     7
370
    30
100
AcDbPolyline
 90
        6
 70
   128
 43
0.0
 10
143.0038947286
 20
165.9474359393
 10
142.933735405
 20
165.9286368439
 10
142.8775128582
 20
165.9135720028
 10
142.8382576117
 20
165.9030536456
 10
142.8180865617
 20
165.8976487151
 10
142.8155393944
 20
165.896966172
  0
LWPOLYLINE
  5
1C2
330
1F
100
AcDbEntity
  8
0
  6
Continuous
 62
     7
370
    30
100
AcDbPolyline
 90
        6
 70
   128
 43
0.0
 10
143.0038947286
 20
163.5404187754
 10
142.933735405
 20
163.5592178708
 10
142.8775128582
 20
163.574282712
 10
142.8382576117
 20
163.5848010691
 10
142.8180865617
 20
163.5902059997
 10
142.8155393944
 20
163.5908885427
  0
LWPOLYLINE
  5
1C3
330
1F
100
AcDbEntity
  8
0
  6
Continuous
 62
     7
370
    30
100
AcDbPolyline
 90
        6
 70
   128
 43
0.0
 10
134.0207846509
 20
165.9474359393
 10
134.0909439744
 20
165.9286368439
 10
134.1471665212
 20
165.9135720028
 10
134.1864217678
 20
165.9030536456
 10
134.2065928177
 20
165.8976487151
 10
134.209139985
 20
165.896966172
  0
LWPOLYLINE
  5
1C4
330
1F
100
AcDbEntity
  8
0
  6
Continuous
 62
     7
370
    30
100
AcDbPolyline
 90
        6
 70
   128
 43
0.0
 10
134.0207846509
 20
163.5404187754
 10
134.0909439744
 20
163.5592178708
 10
134.1471665212
 20
163.574282712
 10
134.1864217678
 20
163.5848010691
 10
134.2065928177
 20
163.5902059997
 10
134.209139985
 20
163.5908885427
  0
ARC
  5
1C5
330
1F
100
AcDbEntity
  8
0
  6
Continuous
 62
     7
370
    30
100
AcDbCircle
 10
138.5123396897
 20
164.7439273574
 30
0.0
 40
5.406013080565528
100
AcDbArc
 50
265.2251374858
 51
274.7748625142
  0
ARC
  5
1C6
330
1F
100
AcDbEntity
  8
0
  6
Continuous
 62
     7
370
    30
100
AcDbCircle
 10
138.5123396897
 20
164.7439273574
 30
0.0
 40
5.4060130805655
100
AcDbArc
 50
85.2251374858
 51
94.7748625142
  0
LINE
  5
1C7
330
1F
100
AcDbEntity
  8
0
  6
CENTERX2
 62
     7
370
     0
100
AcDbLine
 10
131.2833035349
 20
164.7439273574
 30
0.0
 11
145.6198869113
 21
164.7439273574
 31
0.0
  0
LINE
  5
1C8
330
1F
100
AcDbEntity
  8
0
  6
CENTERX2
 62
     7
370
     0
100
AcDbLine
 10
138.5123396897
 20
157.8265616362
 30
0.0
 11
138.5123396897
 21
171.7802688988
 31
0.0
  0
LINE
  5
1C9
330
1F
100
AcDbEntity
  8
0
  6
CENTERX2
 62
     7
370
     0
100
AcDbLine
 10
136.7162884655
 20
162.9478761332
 30
0.0
 11
140.3083909139
 21
166.5399785816
 31
0.0
  0
LINE
  5
1CA
330
1F
100
AcDbEntity
  8
0
  6
CENTERX2
 62
     7
370
     0
100
AcDbLine
 10
136.7162884655
 20
166.5399785816
 30
0.0
 11
140.3083909139
 21
162.9478761332
 31
0.0
  0
CIRCLE
  5
1CB
330
1F
100
AcDbEntity
  8
0
  6
CENTERX2
 62
     7
370
     0
100
AcDbCircle
 10
138.5123396897
 20
164.7439273574
 30
0.0
 40
2.540000000000002
  0
DIMENSION
  5
1CC
330
1F
100
AcDbEntity
  8
0
  6
Continuous
 62
     7
370
     0
100
AcDbDimension
  2
_D_10
 10
140.4860245946
 20
163.1451253383
 30
0.0
 11
113.2113757843
 21
173.7904809795
 31
0.0
 70
   163
  1
P.C.D.<>
 71
     1
 42
-1.0
  3
SLDDIMSTYLE8
100
AcDbDiametricDimension
 15
136.5386547849
 25
166.3427293765
 35
0.0
 40
0.0
  0
DIMENSION
  5
1D9
330
1F
100
AcDbEntity
  8
0
  6
Continuous
 62
     7
370
     0
100
AcDbDimension
  2
_D_11
 10
138.5123396897
 20
171.7802688988
 30
0.0
 11
124.7842186674
 21
142.3092556486
 31
0.0
 70
   162
  1
<>
 71
     1
 42
-1.0
  3
SLDDIMSTYLE1
100
AcDb2LineAngularDimension
 13
136.7162884655
 23
162.9478761332
 33
0.0
 14
140.3083909139
 24
166.5399785816
 34
0.0
 15
138.5123396897
 25
157.8265616362
 35
0.0
 16
128.447141202
 26
140.4443886603
 36
0.0
  0
DIMENSION
  5
1E3
330
1F
100
AcDbEntity
  8
0
  6
Continuous
 62
     7
370
     0
100
AcDbDimension
  2
_D_12
 10
140.3083909139
 20
162.9478761332
 30
0.0
 11
144.1810733199
 21
139.0798508359
 31
0.0
 70
   162
  1
<>
 71
     1
 42
-1.0
  3
SLDDIMSTYLE9
100
AcDb2LineAngularDimension
 13
138.5123396897
 23
157.8265616362
 33
0.0
 14
138.5123396897
 24
171.7802688988
 34
0.0
 15
136.7162884655
 25
166.5399785816
 35
0.0
 16
148.5702865878
 26
140.4618955465
 36
0.0
  0
INSERT
  5
1F8
330
1F
100
AcDbEntity
  8
0
  6
Continuous
 62
     7
370
     0
100
AcDbBlockReference
  2
SW_NOTE_5
 10
152.1190716448
 20
173.3602421796
 30
0.0
  0
LEADER
  5
1FA
330
1F
100
AcDbEntity
  8
0
  6
Continuous
 62
     7
370
     0
100
AcDbLeader
  3
SLDDIMSTYLE10
 76
     2
 10
140.4616273296
 20
166.704731733
 30
0.0
 10
152.1190716448
 20
173.3602421796
 30
0.0
  0
MTEXT
  5
1FB
330
1F
100
AcDbEntity
  8
0
  6
Continuous
 62
     7
370
     0
100
AcDbMText
 10
118.4099066917
 20
161.1101409075
 30
0.0
 40
3.5
 41
0.0
 71
     1
 72
     1
  1
GND
  7
SLDTEXTSTYLE0
 73
     1
 44
1.0
  0
LEADER
  5
1FC
330
1F
100
AcDbEntity
  8
0
  6
Continuous
 62
     7
370
     0
100
AcDbLeader
  3
SLDDIMSTYLE10
 76
     3
 10
136.5507970559
 20
162.7954373148
 30
0.0
 10
126.8874873865
 20
156.5085771948
 30
0.0
 10
118.3148335015
 20
156.5085771948
 30
0.0
  0
MTEXT
  5
1FD
330
1F
100
AcDbEntity
  8
0
  6
Continuous
 62
     7
370
     0
100
AcDbMText
 10
151.4637378313
 20
161.0192052297
 30
0.0
 40
3.5
 41
0.0
 71
     1
 72
     1
  1
OUT
  7
SLDTEXTSTYLE0
 73
     1
 44
1.0
  0
LEADER
  5
1FE
330
1F
100
AcDbEntity
  8
0
  6
Continuous
 62
     7
370
     0
100
AcDbLeader
  3
SLDDIMSTYLE10
 76
     3
 10
140.5248218815
 20
162.8863729926
 30
0.0
 10
150.9127144299
 20
156.4076690212
 30
0.0
 10
159.2835519677
 20
156.4076690212
 30
0.0
  0
MTEXT
  5
1FF
330
1F
100
AcDbEntity
  8
0
  6
Continuous
 62
     7
370
     0
100
AcDbMText
 10
130.6460526649
 20
143.7836227659
 30
0.0
 40
2.38125
 41
0.0
 71
     1
 72
     1
  1
±4°
  7
SLDTEXTSTYLE0
 11
0.9396926207859081
 21
-0.3420201433256695
 31
0.0
 73
     1
 44
1.0
  0
MTEXT
  5
200
330
1F
100
AcDbEntity
  8
0
  6
Continuous
 62
     7
370
     0
100
AcDbMText
 10
148.2147193227
 20
144.3298113573
 30
0.0
 40
2.38125
 41
0.0
 71
     1
 72
     1
  1
±4°
  7
SLDTEXTSTYLE0
 11
0.8660254037844382
 21
0.5000000000000009
 31
0.0
 73
     1
 44
1.0
  0
LINE
  5
201
330
1F
100
AcDbEntity
  8
0
  6
Continuous
 62
     7
370
    30
100
AcDbLine
 10
49.2629491984
 20
160.6946025979
 30
0.0
 11
49.2629491984
 21
165.2946027
 31
0.0
  0
LINE
  5
202
330
1F
100
AcDbEntity
  8
0
  6
Continuous
 62
     7
370
    30
100
AcDbLine
 10
48.8129491479
 20
165.2946027
 30
0.0
 11
48.8129491479
 21
160.6946025979
 31
0.0
  0
LINE
  5
203
330
1F
100
AcDbEntity
  8
0
  6
Continuous
 62
     7
370
    30
100
AcDbLine
 10
52.8550516375
 20
160.6946025979
 30
0.0
 11
52.8550516375
 21
165.2946027
 31
0.0
  0
LINE
  5
204
330
1F
100
AcDbEntity
  8
0
  6
Continuous
 62
     7
370
    30
100
AcDbLine
 10
52.4050515871
 20
165.2946027
 30
0.0
 11
52.4050515871
 21
160.6946025979
 31
0.0
  0
ARC
  5
205
330
1F
100
AcDbEntity
  8
0
  6
Continuous
 62
     7
370
    30
100
AcDbCircle
 10
50.8340003927
 20
169.6446027
 30
0.0
 40
10.0
100
AcDbArc
 50
62.0468383921
 51
117.9692772894
  0
LINE
  5
206
330
1F
100
AcDbEntity
  8
0
  6
Continuous
 62
     7
370
    30
100
AcDbLine
 10
55.5240002488
 20
178.4498507161
 30
0.0
 11
55.5240002488
 21
178.4765843306
 31
0.0
  0
LINE
  5
207
330
1F
100
AcDbEntity
  8
0
  6
Continuous
 62
     7
370
    30
100
AcDbLine
 10
46.1440005367
 20
178.4765843306
 30
0.0
 11
46.1440005367
 21
178.4498507161
 31
0.0
  0
LINE
  5
208
330
1F
100
AcDbEntity
  8
0
  6
Continuous
 62
     7
370
    30
100
AcDbLine
 10
56.3490002443
 20
165.2946027
 30
0.0
 11
55.5740001638
 21
178.4498507161
 31
0.0
  0
LINE
  5
209
330
1F
100
AcDbEntity
  8
0
  6
Continuous
 62
     7
370
    30
100
AcDbLine
 10
46.0940006216
 20
178.4498507161
 30
0.0
 11
45.3190005411
 21
165.2946027
 31
0.0
  0
LINE
  5
20A
330
1F
100
AcDbEntity
  8
0
  6
Continuous
 62
     7
370
    30
100
AcDbLine
 10
50.3703018677
 20
166.8946026595
 30
0.0
 11
51.2971915506
 21
166.8946026595
 31
0.0
  0
LINE
  5
20B
330
1F
100
AcDbEntity
  8
0
  6
Continuous
 62
     7
370
    30
100
AcDbLine
 10
48.8129491479
 20
160.6946025979
 30
0.0
 11
49.2629491984
 21
160.6946025979
 31
0.0
  0
LINE
  5
20C
330
1F
100
AcDbEntity
  8
0
  6
Continuous
 62
     7
370
    30
100
AcDbLine
 10
50.3345713279
 20
166.1946026845
 30
0.0
 11
51.3331993044
 21
166.1946026845
 31
0.0
  0
LINE
  5
20D
330
1F
100
AcDbEntity
  8
0
  6
Continuous
 62
     7
370
    30
100
AcDbLine
 10
50.3704404311
 20
166.8946026595
 30
0.0
 11
51.2973583156
 21
166.8946026595
 31
0.0
  0
LINE
  5
20E
330
1F
100
AcDbEntity
  8
0
  6
Continuous
 62
     7
370
    30
100
AcDbLine
 10
52.4050515871
 20
160.6946025979
 30
0.0
 11
52.8550516375
 21
160.6946025979
 31
0.0
  0
LINE
  5
20F
330
1F
100
AcDbEntity
  8
0
  6
Continuous
 62
     7
370
    30
100
AcDbLine
 10
55.5208123316
 20
178.4765843306
 30
0.0
 11
46.1440005367
 21
178.4765843306
 31
0.0
  0
LINE
  5
210
330
1F
100
AcDbEntity
  8
0
  6
Continuous
 62
     7
370
    30
100
AcDbLine
 10
51.3790004099
 20
165.2946027
 30
0.0
 11
56.3490002443
 21
165.2946027
 31
0.0
  0
SPLINE
  5
211
330
1F
100
AcDbEntity
  8
0
  6
Continuous
 62
     7
370
    30
100
AcDbSpline
210
0.0
220
0.0
230
1.0
 70
    24
 71
     3
 72
     8
 73
     4
 74
     0
 42
0.000000001
 43
0.00000001
 40
0.0000002005556143
 40
0.0000002005556143
 40
0.0000002005556143
 40
0.0000002005556143
 40
0.0018553761032595
 40
0.0018553761032595
 40
0.0018553761032595
 40
0.0018553761032595
 10
51.3790003927192
 20
165.2946026999524
 30
0.0
 10
51.34733311166873
 20
165.9112813309353
 30
0.0
 10
51.31566642936599
 20
166.527948302094
 30
0.0
 10
51.2840003927192
 20
167.1446026999525
 30
0.0
  0
LINE
  5
212
330
1F
100
AcDbEntity
  8
0
  6
Continuous
 62
     7
370
    30
100
AcDbLine
 10
50.3840004004
 20
167.1446027005
 30
0.0
 11
51.284000385
 21
167.1446027005
 31
0.0
  0
SPLINE
  5
213
330
1F
100
AcDbEntity
  8
0
  6
Continuous
 62
     7
370
    30
100
AcDbSpline
210
0.0
220
0.0
230
1.0
 70
    24
 71
     3
 72
     8
 73
     4
 74
     0
 42
0.000000001
 43
0.00000001
 40
0.0000002005556143
 40
0.0000002005556143
 40
0.0000002005556143
 40
0.0000002005556143
 40
0.0018553761032595
 40
0.0018553761032595
 40
0.0018553761032595
 40
0.0018553761032595
 10
50.2890003927192
 20
165.2946026999524
 30
0.0
 10
50.32066767376967
 20
165.9112813309353
 30
0.0
 10
50.35233435607241
 20
166.527948302094
 30
0.0
 10
50.3840003927192
 20
167.1446026999525
 30
0.0
  0
LINE
  5
214
330
1F
100
AcDbEntity
  8
0
  6
Continuous
 62
     7
370
    30
100
AcDbLine
 10
45.3190005411
 20
165.2946027
 30
0.0
 11
50.2890003756
 21
165.2946027
 31
0.0
  0
LINE
  5
215
330
1F
100
AcDbEntity
  8
0
  6
Continuous
 62
     7
370
    30
100
AcDbLine
 10
50.8340003927
 20
178.4498507161
 30
0.0
 11
55.5740001638
 21
178.4498507161
 31
0.0
  0
LINE
  5
216
330
1F
100
AcDbEntity
  8
0
  6
Continuous
 62
     7
370
    30
100
AcDbLine
 10
46.0940006216
 20
178.4498507161
 30
0.0
 11
50.8340003927
 21
178.4498507161
 31
0.0
  0
LINE
  5
217
330
1F
100
AcDbEntity
  8
0
  6
Continuous
 62
     7
370
    30
100
AcDbLine
 10
42.3340003927
 20
178.4466027
 30
0.0
 11
45.8340003927
 21
178.4466027
 31
0.0
  0
LINE
  5
218
330
1F
100
AcDbEntity
  8
0
  6
Continuous
 62
     7
370
    30
100
AcDbLine
 10
42.3340003927
 20
177.4466027
 30
0.0
 11
45.8340003927
 21
177.4466027
 31
0.0
  0
LINE
  5
219
330
1F
100
AcDbEntity
  8
0
  6
Continuous
 62
     7
370
    30
100
AcDbLine
 10
45.8340003927
 20
178.4466027
 30
0.0
 11
45.8340003927
 21
177.4466027
 31
0.0
  0
LINE
  5
21A
330
1F
100
AcDbEntity
  8
0
  6
CENTERX2
 62
     7
370
     0
100
AcDbLine
 10
50.8340003927
 20
181.1766382535
 30
0.0
 11
50.8340003927
 21
159.4369433807
 31
0.0
  0
LINE
  5
21B
330
1F
100
AcDbEntity
  8
0
  6
Continuous
 62
     7
370
    30
100
AcDbLine
 10
55.8340003927
 20
178.4466027
 30
0.0
 11
55.8340003927
 21
177.4466027
 31
0.0
  0
LINE
  5
21C
330
1F
100
AcDbEntity
  8
0
  6
Continuous
 62
     7
370
    30
100
AcDbLine
 10
59.3340003927
 20
177.4466027
 30
0.0
 11
55.8340003927
 21
177.4466027
 31
0.0
  0
LINE
  5
21D
330
1F
100
AcDbEntity
  8
0
  6
Continuous
 62
     7
370
    30
100
AcDbLine
 10
59.3340003927
 20
178.4466027
 30
0.0
 11
55.8340003927
 21
178.4466027
 31
0.0
  0
SPLINE
  5
21E
330
1F
100
AcDbEntity
  8
0
  6
Continuous
 62
     7
370
    30
100
AcDbSpline
210
0.0
220
0.0
230
1.0
 70
     8
 71
     3
 72
     9
 73
     5
 74
     0
 42
0.000000001
 43
0.00000001
 40
0.0
 40
0.0
 40
0.0
 40
0.0
 40
0.4909597646756348
 40
1.0
 40
1.0
 40
1.0
 40
1.0
 10
42.33400039271917
 20
178.4466026999525
 30
0.0
 10
42.16003207818492
 20
178.2630117805954
 30
0.0
 10
42.32533967587174
 20
177.9533072329311
 30
0.0
 10
42.53897735975983
 20
177.5925569630741
 30
0.0
 10
42.33400039271917
 20
177.4466026999525
 30
0.0
  0
SPLINE
  5
21F
330
1F
100
AcDbEntity
  8
0
  6
Continuous
 62
     7
370
    30
100
AcDbSpline
210
0.0
220
0.0
230
1.0
 70
     8
 71
     3
 72
     9
 73
     5
 74
     0
 42
0.000000001
 43
0.00000001
 40
0.0
 40
0.0
 40
0.0
 40
0.0
 40
0.4909597646756348
 40
1.0
 40
1.0
 40
1.0
 40
1.0
 10
59.33400039271917
 20
178.4466026999525
 30
0.0
 10
59.50796870725341
 20
178.2630117805954
 30
0.0
 10
59.3426611095666
 20
177.9533072329311
 30
0.0
 10
59.1290234256785
 20
177.5925569630741
 30
0.0
 10
59.33400039271917
 20
177.4466026999525
 30
0.0
  0
HATCH
  5
220
330
1F
100
AcDbEntity
  8
0
  6
Continuous
 62
     7
100
AcDbHatch
 10
0.0
 20
0.0
 30
0.0
210
0.0
220
0.0
230
1.0
  2
ANSI31
 70
     0
 71
     0
 91
        1
 92
        0
 93
        4
 72
     1
 10
45.83400039271917
 20
178.4466026999525
 11
42.33400039271917
 21
178.4466026999525
 72
     4
 94
        3
 73
     1
 74
     0
 95
        9
 96
        5
 40
0.0
 40
0.0
 40
0.0
 40
0.0
 40
0.4909597646756348
 40
1.0
 40
1.0
 40
1.0
 40
1.0
 10
42.33400039271917
 20
178.4466026999525
 42
1.0
 10
42.16003207818492
 20
178.2630117805954
 42
1.0
 10
42.32533967587174
 20
177.9533072329311
 42
1.0
 10
42.53897735975983
 20
177.5925569630741
 42
1.0
 10
42.33400039271917
 20
177.4466026999525
 42
1.0
 72
     1
 10
42.33400039271917
 20
177.4466026999525
 11
45.83400039271917
 21
177.4466026999525
 72
     1
 10
45.83400039271917
 20
177.4466026999525
 11
45.83400039271917
 21
178.4466026999525
 97
        0
 75
     0
 76
     1
 52
0.0
 41
0.125
 77
     0
 78
     1
 53
45.0
 43
0.0
 44
0.0
 45
-0.280633003783411
 46
0.2806330037834111
 79
     0
 98
        1
 10
0.0
 20
0.0
  0
HATCH
  5
221
330
1F
100
AcDbEntity
  8
0
  6
Continuous
 62
     7
100
AcDbHatch
 10
0.0
 20
0.0
 30
0.0
210
0.0
220
0.0
230
1.0
  2
ANSI31
 70
     0
 71
     0
 91
        1
 92
        0
 93
        4
 72
     4
 94
        3
 73
     1
 74
     0
 95
        9
 96
        5
 40
0.0
 40
0.0
 40
0.0
 40
0.0
 40
0.5090402353243653
 40
1.0
 40
1.0
 40
1.0
 40
1.0
 10
59.33400039271917
 20
177.4466026999525
 42
1.0
 10
59.1290234256785
 20
177.5925569630741
 42
1.0
 10
59.3426611095666
 20
177.9533072329311
 42
1.0
 10
59.50796870725341
 20
178.2630117805954
 42
1.0
 10
59.33400039271917
 20
178.4466026999525
 42
1.0
 72
     1
 10
59.33400039271918
 20
178.4466026999525
 11
55.83400039271918
 21
178.4466026999525
 72
     1
 10
55.83400039271918
 20
178.4466026999525
 11
55.83400039271918
 21
177.4466026999525
 72
     1
 10
55.83400039271918
 20
177.4466026999525
 11
59.33400039271918
 21
177.4466026999525
 97
        0
 75
     0
 76
     1
 52
0.0
 41
0.125
 77
     0
 78
     1
 53
45.0
 43
0.0
 44
0.0
 45
-0.280633003783411
 46
0.2806330037834111
 79
     0
 98
        1
 10
0.0
 20
0.0
  0
DIMENSION
  5
222
330
1F
100
AcDbEntity
  8
0
  6
Continuous
 62
     7
370
     0
100
AcDbDimension
  2
_D_13
 10
66.979478278
 20
178.4466027
 30
0.0
 11
66.979478278
 21
171.5071540348
 31
0.0
 70
   160
  1
<>
 71
     2
 42
-1.0
  3
SLDDIMSTYLE6
100
AcDbAlignedDimension
 13
56.3490003927
 23
165.2946027
 33
0.0
 14
59.3340003927
 24
178.4466027
 34
0.0
 50
90.0
100
AcDbRotatedDimension
  0
DIMENSION
  5
22C
330
1F
100
AcDbEntity
  8
0
  6
Continuous
 62
     7
370
     0
100
AcDbDimension
  2
_D_14
 10
55.8340003927
 20
185.1242860588
 30
0.0
 11
50.4526101449
 21
185.1242860588
 31
0.0
 70
   160
  1
%%c<>
 71
     2
 42
-1.0
  3
SLDDIMSTYLE11
100
AcDbAlignedDimension
 13
45.8340003927
 23
178.4466027
 33
0.0
 14
55.8340003927
 24
178.4466027
 34
0.0
100
AcDbRotatedDimension
  0
MTEXT
  5
23F
330
1F
100
AcDbEntity
  8
0
  6
Continuous
 62
     7
370
     0
100
AcDbMText
 10
43.6918345323
 20
196.3895959625
 30
0.0
 40
2.38125
 41
0.0
 71
     1
 72
     1
  1
(0.394 dia.)
  7
SLDTEXTSTYLE0
 73
     1
 44
1.0
  0
INSERT
  5
24A
330
1F
100
AcDbEntity
  8
0
  6
Continuous
 62
     7
370
     0
100
AcDbBlockReference
  2
SW_NOTE_6
 10
61.5035317861
 20
183.7537840565
 30
0.0
  0
LEADER
  5
24B
330
1F
100
AcDbEntity
  8
0
  6
Continuous
 62
     7
370
     0
100
AcDbLeader
  3
SLDDIMSTYLE10
 76
     2
 10
55.8340003927
 20
178.4466027
 30
0.0
 10
61.5035317861
 20
183.7537840565
 30
0.0
  0
LINE
  5
24C
330
1F
100
AcDbEntity
  8
0
  6
Continuous
 62
     7
370
    30
100
AcDbLine
 10
49.6772729075
 20
236.2970586594
 30
0.0
 11
49.6772729075
 21
240.8970587615
 31
0.0
  0
LINE
  5
24D
330
1F
100
AcDbEntity
  8
0
  6
Continuous
 62
     7
370
    30
100
AcDbLine
 10
49.227272857
 20
240.8970587615
 30
0.0
 11
49.227272857
 21
236.2970586594
 31
0.0
  0
LINE
  5
24E
330
1F
100
AcDbEntity
  8
0
  6
Continuous
 62
     7
370
    30
100
AcDbLine
 10
53.2693753466
 20
236.2970586594
 30
0.0
 11
53.2693753466
 21
240.8970587615
 31
0.0
  0
LINE
  5
24F
330
1F
100
AcDbEntity
  8
0
  6
Continuous
 62
     7
370
    30
100
AcDbLine
 10
52.8193752961
 20
240.8970587615
 30
0.0
 11
52.8193752961
 21
236.2970586594
 31
0.0
  0
ARC
  5
250
330
1F
100
AcDbEntity
  8
0
  6
Continuous
 62
     7
370
    30
100
AcDbCircle
 10
51.2483241018
 20
245.2470587615
 30
0.0
 40
10.00000000000002
100
AcDbArc
 50
62.0468383921
 51
117.9692772894
  0
LINE
  5
251
330
1F
100
AcDbEntity
  8
0
  6
Continuous
 62
     7
370
    30
100
AcDbLine
 10
55.9383239579
 20
254.0523067776
 30
0.0
 11
55.9383239579
 21
254.0790403921
 31
0.0
  0
LINE
  5
252
330
1F
100
AcDbEntity
  8
0
  6
Continuous
 62
     7
370
    30
100
AcDbLine
 10
46.5583242458
 20
254.0790403921
 30
0.0
 11
46.5583242458
 21
254.0523067776
 31
0.0
  0
LINE
  5
253
330
1F
100
AcDbEntity
  8
0
  6
Continuous
 62
     7
370
    30
100
AcDbLine
 10
56.7633239534
 20
240.8970587615
 30
0.0
 11
55.9883238729
 21
254.0523067776
 31
0.0
  0
LINE
  5
254
330
1F
100
AcDbEntity
  8
0
  6
Continuous
 62
     7
370
    30
100
AcDbLine
 10
46.5083243307
 20
254.0523067776
 30
0.0
 11
45.7333242502
 21
240.8970587615
 31
0.0
  0
LINE
  5
255
330
1F
100
AcDbEntity
  8
0
  6
Continuous
 62
     7
370
    30
100
AcDbLine
 10
50.7846255768
 20
242.497058721
 30
0.0
 11
51.7115152597
 21
242.497058721
 31
0.0
  0
LINE
  5
256
330
1F
100
AcDbEntity
  8
0
  6
Continuous
 62
     7
370
    30
100
AcDbLine
 10
49.227272857
 20
236.2970586594
 30
0.0
 11
49.6772729075
 21
236.2970586594
 31
0.0
  0
LINE
  5
257
330
1F
100
AcDbEntity
  8
0
  6
Continuous
 62
     7
370
    30
100
AcDbLine
 10
50.748895037
 20
241.797058746
 30
0.0
 11
51.7475230135
 21
241.797058746
 31
0.0
  0
LINE
  5
258
330
1F
100
AcDbEntity
  8
0
  6
Continuous
 62
     7
370
    30
100
AcDbLine
 10
50.7847641402
 20
242.497058721
 30
0.0
 11
51.7116820247
 21
242.497058721
 31
0.0
  0
LINE
  5
259
330
1F
100
AcDbEntity
  8
0
  6
Continuous
 62
     7
370
    30
100
AcDbLine
 10
52.8193752961
 20
236.2970586594
 30
0.0
 11
53.2693753466
 21
236.2970586594
 31
0.0
  0
LINE
  5
25A
330
1F
100
AcDbEntity
  8
0
  6
Continuous
 62
     7
370
    30
100
AcDbLine
 10
55.9351360407
 20
254.0790403921
 30
0.0
 11
46.5583242458
 21
254.0790403921
 31
0.0
  0
LINE
  5
25B
330
1F
100
AcDbEntity
  8
0
  6
Continuous
 62
     7
370
    30
100
AcDbLine
 10
51.793324119
 20
240.8970587615
 30
0.0
 11
56.7633239534
 21
240.8970587615
 31
0.0
  0
SPLINE
  5
25C
330
1F
100
AcDbEntity
  8
0
  6
Continuous
 62
     7
370
    30
100
AcDbSpline
210
0.0
220
0.0
230
1.0
 70
    24
 71
     3
 72
     8
 73
     4
 74
     0
 42
0.000000001
 43
0.00000001
 40
0.0000002005556143
 40
0.0000002005556143
 40
0.0000002005556143
 40
0.0000002005556143
 40
0.0018553761032595
 40
0.0018553761032595
 40
0.0018553761032595
 40
0.0018553761032595
 10
51.79332410181171
 20
240.8970587614599
 30
0.0
 10
51.76165682076125
 20
241.5137373924428
 30
0.0
 10
51.7299901384585
 20
242.1304043636015
 30
0.0
 10
51.69832410181171
 20
242.7470587614599
 30
0.0
  0
LINE
  5
25D
330
1F
100
AcDbEntity
  8
0
  6
Continuous
 62
     7
370
    30
100
AcDbLine
 10
50.7983241095
 20
242.747058762
 30
0.0
 11
51.6983240941
 21
242.747058762
 31
0.0
  0
SPLINE
  5
25E
330
1F
100
AcDbEntity
  8
0
  6
Continuous
 62
     7
370
    30
100
AcDbSpline
210
0.0
220
0.0
230
1.0
 70
    24
 71
     3
 72
     8
 73
     4
 74
     0
 42
0.000000001
 43
0.00000001
 40
0.0000002005556143
 40
0.0000002005556143
 40
0.0000002005556143
 40
0.0000002005556143
 40
0.0018553761032595
 40
0.0018553761032595
 40
0.0018553761032595
 40
0.0018553761032595
 10
50.70332410181172
 20
240.8970587614599
 30
0.0
 10
50.73499138286218
 20
241.5137373924428
 30
0.0
 10
50.76665806516493
 20
242.1304043636015
 30
0.0
 10
50.79832410181172
 20
242.7470587614599
 30
0.0
  0
LINE
  5
25F
330
1F
100
AcDbEntity
  8
0
  6
Continuous
 62
     7
370
    30
100
AcDbLine
 10
45.7333242502
 20
240.8970587615
 30
0.0
 11
50.7033240847
 21
240.8970587615
 31
0.0
  0
LINE
  5
260
330
1F
100
AcDbEntity
  8
0
  6
Continuous
 62
     7
370
    30
100
AcDbLine
 10
51.2483241018
 20
254.0523067776
 30
0.0
 11
55.9883238729
 21
254.0523067776
 31
0.0
  0
LINE
  5
261
330
1F
100
AcDbEntity
  8
0
  6
Continuous
 62
     7
370
    30
100
AcDbLine
 10
46.5083243307
 20
254.0523067776
 30
0.0
 11
51.2483241018
 21
254.0523067776
 31
0.0
  0
LINE
  5
262
330
1F
100
AcDbEntity
  8
0
  6
CENTERX2
 62
     7
370
     0
100
AcDbLine
 10
51.2483241018
 20
256.9342146596
 30
0.0
 11
51.2483241018
 21
235.1003122942
 31
0.0
  0
LINE
  5
263
330
1F
100
AcDbEntity
  8
0
  6
Continuous
 62
     7
370
     0
100
AcDbLine
 10
46.5050693151
 20
253.9970587615
 30
0.0
 11
55.9915788885
 21
253.9970587615
 31
0.0
  0
LINE
  5
264
330
1F
100
AcDbEntity
  8
0
  6
Continuous
 62
     7
370
     0
100
AcDbLine
 10
46.5083241018
 20
254.0523071843
 30
0.0
 11
38.7483241018
 21
256.8767162022
 31
0.0
  0
LINE
  5
265
330
1F
100
AcDbEntity
  8
0
  6
Continuous
 62
     7
370
     0
100
AcDbLine
 10
38.7483241018
 20
256.8767162022
 30
0.0
 11
38.7483241018
 21
262.4849620989
 31
0.0
  0
LINE
  5
266
330
1F
100
AcDbEntity
  8
0
  6
Continuous
 62
     7
370
     0
100
AcDbLine
 10
38.7483241018
 20
262.4849620989
 30
0.0
 11
63.7483241018
 21
262.4849620989
 31
0.0
  0
LINE
  5
267
330
1F
100
AcDbEntity
  8
0
  6
Continuous
 62
     7
370
     0
100
AcDbLine
 10
63.7483241018
 20
262.4849620989
 30
0.0
 11
63.7483241018
 21
257.7866417879
 31
0.0
  0
LINE
  5
268
330
1F
100
AcDbEntity
  8
0
  6
Continuous
 62
     7
370
     0
100
AcDbLine
 10
63.7483241018
 20
257.7866417879
 30
0.0
 11
55.9883241018
 21
254.0523071843
 31
0.0
  0
CIRCLE
  5
269
330
1F
100
AcDbEntity
  8
0
  6
Continuous
 62
     7
370
     0
100
AcDbCircle
 10
51.2483241018
 20
255.2470587615
 30
0.0
 40
0.0100000000000011
  0
ARC
  5
26A
330
1F
100
AcDbEntity
  8
0
  6
Continuous
 62
     7
370
     0
100
AcDbCircle
 10
51.2483241018
 20
245.2470587615
 30
0.0
 40
9.999999989390169
100
AcDbArc
 50
61.7057398876
 51
118.2942601124
  0
HATCH
  5
26B
330
1F
100
AcDbEntity
  8
0
  6
Continuous
 62
     7
100
AcDbHatch
 10
0.0
 20
0.0
 30
0.0
210
0.0
220
0.0
230
1.0
  2
ANSI31
 70
     0
 71
     0
 91
        1
 92
        0
 93
        8
 72
     2
 10
51.24832410181172
 20
245.2470587614599
 40
9.999999989390183
 50
270.0572957819314
 51
298.2942601124466
 73
     0
 72
     1
 10
55.98832410181172
 20
254.0523071842929
 11
63.74832410181172
 21
257.7866417878642
 72
     1
 10
63.74832410181172
 20
257.7866417878642
 11
63.74832410181172
 21
262.4849620988855
 72
     1
 10
63.74832410181172
 20
262.4849620988855
 11
38.74832410181171
 21
262.4849620988855
 72
     1
 10
38.74832410181171
 20
262.4849620988855
 11
38.74832410181171
 21
256.8767162021987
 72
     1
 10
38.74832410181171
 20
256.8767162021987
 11
46.50832410181172
 21
254.0523071842929
 72
     2
 10
51.24832410181172
 20
245.2470587614599
 40
9.999999989390183
 50
241.7057398875549
 51
269.9427042180698
 73
     0
 72
     2
 10
51.24832410181168
 20
255.2470587614599
 40
0.0100000000000013
 50
179.9712913193001
 51
360.0287086807007
 73
     0
 97
        0
 75
     0
 76
     1
 52
0.0
 41
0.25
 77
     0
 78
     1
 53
45.0
 43
0.0
 44
0.0
 45
-0.561266007566822
 46
0.5612660075668221
 79
     0
 98
        1
 10
0.0
 20
0.0
  0
DIMENSION
  5
26C
330
1F
100
AcDbEntity
  8
0
  6
Continuous
 62
     7
370
     0
100
AcDbDimension
  2
_D_15
 10
70.1547033548
 20
253.9970587615
 30
0.0
 11
70.1547033548
 21
246.5893485674
 31
0.0
 70
   160
  1
<>
 71
     2
 42
-1.0
  3
SLDDIMSTYLE3
100
AcDbAlignedDimension
 13
51.2483241018
 23
255.2470587615
 33
0.0
 14
55.9915788885
 24
253.9970587615
 34
0.0
 50
90.0
100
AcDbRotatedDimension
  0
MTEXT
  5
278
330
1F
100
AcDbEntity
  8
0
  6
Continuous
 62
     7
370
     0
100
AcDbMText
 10
38.0073341886
 20
270.2265855838
 30
0.0
 40
3.5
 41
0.0
 71
     1
 72
     1
  1
Detection range
  7
SLDTEXTSTYLE0
 73
     1
 44
1.0
  0
ARC
  5
279
330
1F
100
AcDbEntity
  8
0
  6
Continuous
 62
     7
370
    30
100
AcDbCircle
 10
138.5123396897
 20
120.3419200745
 30
0.0
 40
4.248281249999987
100
AcDbArc
 50
217.1744427315
 51
322.8255572685
  0
ARC
  5
27A
330
1F
100
AcDbEntity
  8
0
  6
Continuous
 62
     7
370
    30
100
AcDbCircle
 10
142.0980487246
 20
117.9685910377
 30
0.0
 40
0.278890884828466
100
AcDbArc
 50
69.0187054628
 51
223.9812945372
  0
ARC
  5
27B
330
1F
100
AcDbEntity
  8
0
  6
Continuous
 62
     7
370
    30
100
AcDbCircle
 10
138.5123396897
 20
120.3419200745
 30
0.0
 40
4.248281250000002
100
AcDbArc
 50
330.1744427315
 51
29.8255572685
  0
ARC
  5
27C
330
1F
100
AcDbEntity
  8
0
  6
Continuous
 62
     7
370
    30
100
AcDbCircle
 10
142.0980487246
 20
122.7152491114
 30
0.0
 40
0.278890884828466
100
AcDbArc
 50
136.0187054628
 51
290.9812945362
  0
ARC
  5
27D
330
1F
100
AcDbEntity
  8
0
  6
Continuous
 62
     7
370
    30
100
AcDbCircle
 10
138.5123396897
 20
120.3419200745
 30
0.0
 40
4.248281249999987
100
AcDbArc
 50
37.1744427315
 51
142.8255572685
  0
ARC
  5
27E
330
1F
100
AcDbEntity
  8
0
  6
Continuous
 62
     7
370
    30
100
AcDbCircle
 10
134.9266306548
 20
122.7152491114
 30
0.0
 40
0.278890884828466
100
AcDbArc
 50
249.0187054628
 51
43.9812945372
  0
ARC
  5
27F
330
1F
100
AcDbEntity
  8
0
  6
Continuous
 62
     7
370
    30
100
AcDbCircle
 10
138.5123396897
 20
120.3419200745
 30
0.0
 40
4.248281250000002
100
AcDbArc
 50
150.1744427315
 51
209.8255572685
  0
ARC
  5
280
330
1F
100
AcDbEntity
  8
0
  6
Continuous
 62
     7
370
    30
100
AcDbCircle
 10
134.9266306548
 20
117.9685910377
 30
0.0
 40
0.2788908848284606
100
AcDbArc
 50
316.0187054628
 51
110.9812945372
  0
CIRCLE
  5
281
330
1F
100
AcDbEntity
  8
0
  6
Continuous
 62
     7
370
    30
100
AcDbCircle
 10
138.5123396897
 20
120.3419200745
 30
0.0
 40
4.808057819884397
  0
LINE
  5
282
330
1F
100
AcDbEntity
  8
0
  6
Continuous
 62
     7
370
    30
100
AcDbLine
 10
135.1273112062
 20
117.7749226564
 30
0.0
 11
135.1409192551
 21
117.7777168087
 31
0.0
  0
LWPOLYLINE
  5
283
330
1F
100
AcDbEntity
  8
0
  6
Continuous
 62
     7
370
    30
100
AcDbPolyline
 90
        3
 70
   128
 43
0.0
 10
140.009715424
 20
116.3817837332
 10
139.9604873491
 20
116.3635180979
 10
139.7158425677
 20
116.2828075171
  0
LWPOLYLINE
  5
284
330
1F
100
AcDbEntity
  8
0
  6
Continuous
 62
     7
370
    30
100
AcDbPolyline
 90
        3
 70
   128
 43
0.0
 10
137.3088368117
 20
116.2828075171
 10
137.0641920303
 20
116.3635180979
 10
137.0149639555
 20
116.3817837332
  0
LINE
  5
285
330
1F
100
AcDbEntity
  8
0
  6
Continuous
 62
     7
370
    30
100
AcDbLine
 10
141.8837494686
 20
117.7777022378
 30
0.0
 11
141.8973681732
 21
117.7749226564
 31
0.0
  0
LINE
  5
286
330
1F
100
AcDbEntity
  8
0
  6
Continuous
 62
     7
370
    30
100
AcDbLine
 10
142.1979092713
 20
118.2289907245
 30
0.0
 11
142.1895558414
 21
118.2410982106
 31
0.0
  0
SPLINE
  5
287
330
1F
100
AcDbEntity
  8
0
  6
Continuous
 62
     7
370
    30
100
AcDbSpline
210
0.0
220
0.0
230
1.0
 70
     8
 71
     3
 72
     8
 73
     4
 74
     0
 42
0.000000001
 43
0.00000001
 40
0.0
 40
0.0
 40
0.0
 40
0.0
 40
1.0
 40
1.0
 40
1.0
 40
1.0
 10
134.8351113174214
 20
118.2411186920986
 30
0.0
 10
134.8322874934666
 20
118.2371487923861
 30
0.0
 10
134.8295060356062
 20
118.2331077297725
 30
0.0
 10
134.8267701081406
 20
118.2289907244521
 30
0.0
  0
ARC
  5
288
330
1F
100
AcDbEntity
  8
0
  6
Continuous
 62
     7
370
    30
100
AcDbCircle
 10
138.5123396897
 20
120.3419200745
 30
0.0
 40
4.233770651731181
100
AcDbArc
 50
351.7220607546
 51
8.2779392454
  0
SPLINE
  5
289
330
1F
100
AcDbEntity
  8
0
  6
Continuous
 62
     7
370
    30
100
AcDbSpline
210
0.0
220
0.0
230
1.0
 70
     8
 71
     3
 72
     8
 73
     4
 74
     0
 42
0.000000001
 43
0.00000001
 40
0.0
 40
0.0
 40
0.0
 40
0.0
 40
1.0
 40
1.0
 40
1.0
 40
1.0
 10
142.1895680620013
 20
122.4427214569998
 30
0.0
 10
142.1923918859561
 20
122.4466913567123
 30
0.0
 10
142.1951733438166
 20
122.450732419326
 30
0.0
 10
142.1979092712822
 20
122.4548494246463
 30
0.0
  0
LINE
  5
28A
330
1F
100
AcDbEntity
  8
0
  6
Continuous
 62
     7
370
    30
100
AcDbLine
 10
134.8267701081
 20
122.4548494246
 30
0.0
 11
134.835123538
 21
122.4427419385
 31
0.0
  0
ARC
  5
28B
330
1F
100
AcDbEntity
  8
0
  6
Continuous
 62
     7
370
    30
100
AcDbCircle
 10
138.5123396897
 20
120.3419200745
 30
0.0
 40
4.233770651731175
100
AcDbArc
 50
171.7220607546
 51
188.2779392454
  0
LINE
  5
28C
330
1F
100
AcDbEntity
  8
0
  6
Continuous
 62
     7
370
    30
100
AcDbLine
 10
141.8973681732
 20
122.9089174927
 30
0.0
 11
141.8837601244
 21
122.9061233404
 31
0.0
  0
LINE
  5
28D
330
1F
100
AcDbEntity
  8
0
  6
Continuous
 62
     7
370
    30
100
AcDbLine
 10
135.1409299108
 20
122.9061379113
 30
0.0
 11
135.1273112062
 21
122.9089174927
 31
0.0
  0
LWPOLYLINE
  5
28E
330
1F
100
AcDbEntity
  8
0
  6
Continuous
 62
     7
370
    30
100
AcDbPolyline
 90
        3
 70
   128
 43
0.0
 10
137.0149639555
 20
124.3020564159
 10
137.0641920303
 20
124.3203220512
 10
137.3088368117
 20
124.401032632
  0
LWPOLYLINE
  5
28F
330
1F
100
AcDbEntity
  8
0
  6
Continuous
 62
     7
370
    30
100
AcDbPolyline
 90
        3
 70
   128
 43
0.0
 10
139.7158425677
 20
124.401032632
 10
139.9604873491
 20
124.3203220512
 10
140.009715424
 20
124.3020564159
  0
LWPOLYLINE
  5
290
330
1F
100
AcDbEntity
  8
0
  6
Continuous
 62
     7
370
    30
100
AcDbPolyline
 90
        3
 70
   128
 43
0.0
 10
137.076000513
 20
116.534751838
 10
137.0854341722
 20
116.5312061183
 10
137.2681601642
 20
116.4676953107
  0
LWPOLYLINE
  5
291
330
1F
100
AcDbEntity
  8
0
  6
Continuous
 62
     7
370
    30
100
AcDbPolyline
 90
        3
 70
   128
 43
0.0
 10
139.7564509477
 20
116.4676733878
 10
139.9392452073
 20
116.5312061183
 10
139.9467769357
 20
116.5340348347
  0
ARC
  5
292
330
1F
100
AcDbEntity
  8
0
  6
Continuous
 62
     7
370
    30
100
AcDbCircle
 10
138.5123396897
 20
120.3419200745
 30
0.0
 40
4.069103121351966
100
AcDbArc
 50
173.9288798389
 51
186.0824382666
  0
ARC
  5
293
330
1F
100
AcDbEntity
  8
0
  6
Continuous
 62
     7
370
    30
100
AcDbCircle
 10
138.5123396897
 20
120.3419200745
 30
0.0
 40
4.069103121351974
100
AcDbArc
 50
354.0226927924
 51
6.0888133556
  0
LWPOLYLINE
  5
294
330
1F
100
AcDbEntity
  8
0
  6
Continuous
 62
     7
370
    30
100
AcDbPolyline
 90
        3
 70
   128
 43
0.0
 10
139.9486788664
 20
124.1490883111
 10
139.9392452073
 20
124.1526340308
 10
139.7565596588
 20
124.21613185
  0
LWPOLYLINE
  5
295
330
1F
100
AcDbEntity
  8
0
  6
Continuous
 62
     7
370
    30
100
AcDbPolyline
 90
        3
 70
   128
 43
0.0
 10
137.2682443384
 20
124.2161718693
 10
137.0854341722
 20
124.1526340308
 10
137.0779024437
 20
124.1498053144
  0
LINE
  5
296
330
1F
100
AcDbEntity
  8
0
  6
Continuous
 62
     7
370
    30
100
AcDbLine
 10
138.5123396986
 20
119.4723994429
 30
0.0
 11
138.7079095811
 21
119.2825460756
 31
0.0
  0
SPLINE
  5
297
330
1F
100
AcDbEntity
  8
0
  6
Continuous
 62
     7
370
    30
100
AcDbSpline
210
0.0
220
0.0
230
1.0
 70
     8
 71
     3
 72
     9
 73
     5
 74
     0
 42
0.000000001
 43
0.00000001
 40
0.0
 40
0.0
 40
0.0
 40
0.0
 40
0.499437219601813
 40
1.0
 40
1.0
 40
1.0
 40
1.0
 10
138.512338332092
 20
119.0182007512499
 30
0.0
 10
138.54012641119
 20
119.0656010799098
 30
0.0
 10
138.595765194219
 20
119.1605085613699
 30
0.0
 10
138.6705000317931
 20
119.2418363178411
 30
0.0
 10
138.7079095098818
 20
119.2825459657438
 30
0.0
  0
SPLINE
  5
298
330
1F
100
AcDbEntity
  8
0
  6
Continuous
 62
     7
370
    30
100
AcDbSpline
210
0.0
220
0.0
230
1.0
 70
     8
 71
     3
 72
     9
 73
     5
 74
     0
 42
0.000000001
 43
0.00000001
 40
0.0
 40
0.0
 40
0.0
 40
0.0
 40
0.5007719380250096
 40
1.0
 40
1.0
 40
1.0
 40
1.0
 10
138.3167698613708
 20
119.2825459464153
 30
0.0
 10
138.3541948051197
 20
119.2418189430747
 30
0.0
 10
138.4289293118025
 20
119.160490497433
 30
0.0
 10
138.4845653529785
 20
119.065581595539
 30
0.0
 10
138.5123404259908
 20
119.0182004083823
 30
0.0
  0
LINE
  5
299
330
1F
100
AcDbEntity
  8
0
  6
Continuous
 62
     7
370
    30
100
AcDbLine
 10
138.5123398342
 20
119.4723994351
 30
0.0
 11
138.3167698258
 21
119.2825460267
 31
0.0
  0
LINE
  5
29A
330
1F
100
AcDbEntity
  8
0
  6
Continuous
 62
     7
370
    30
100
AcDbLine
 10
140.4385613301
 20
119.1921765081
 30
0.0
 11
140.4614457182
 21
119.3405540363
 31
0.0
  0
SPLINE
  5
29B
330
1F
100
AcDbEntity
  8
0
  6
Continuous
 62
     7
370
    30
100
AcDbSpline
210
0.0
220
0.0
230
1.0
 70
     8
 71
     3
 72
     9
 73
     5
 74
     0
 42
0.000000001
 43
0.00000001
 40
0.0
 40
0.0
 40
0.0
 40
0.0
 40
0.5601400507552773
 40
1.0
 40
1.0
 40
1.0
 40
1.0
 10
140.4614457914984
 20
119.34055399148
 30
0.0
 10
140.5316138109011
 20
119.4654208120752
 30
0.0
 10
140.6568825170188
 20
119.6883415270407
 30
0.0
 10
140.798663724129
 20
119.9038188266303
 30
0.0
 10
140.8610275986924
 20
119.9985986606912
 30
0.0
  0
SPLINE
  5
29C
330
1F
100
AcDbEntity
  8
0
  6
Continuous
 62
     7
370
    30
100
AcDbSpline
210
0.0
220
0.0
230
1.0
 70
     8
 71
     3
 72
    16
 73
    12
 74
     0
 42
0.000000001
 43
0.00000001
 40
0.0
 40
0.0
 40
0.0
 40
0.0
 40
0.0957401961141524
 40
0.2088872803050527
 40
0.3221194752865264
 40
0.4353816787126082
 40
0.5485172048516237
 40
0.661830966197729
 40
0.7749686108638972
 40
0.8881705835832048
 40
1.0
 40
1.0
 40
1.0
 40
1.0
 10
140.8610268612688
 20
119.998599917036
 30
0.0
 10
140.9163703056109
 20
120.0404837869468
 30
0.0
 10
141.0371193957584
 20
120.1318665919692
 30
0.0
 10
141.2489781431597
 20
120.2262445138053
 30
0.0
 10
141.482589835557
 20
120.283413881745
 30
0.0
 10
141.7204859293258
 20
120.2949258551876
 30
0.0
 10
141.954240812696
 20
120.262565236339
 30
0.0
 10
142.1770015916338
 20
120.1878790738882
 30
0.0
 10
142.381034507194
 20
120.072380548472
 30
0.0
 10
142.5623218746987
 20
119.9222753924127
 30
0.0
 10
142.6555096089678
 20
119.7953128229208
 30
0.0
 10
142.7018192815008
 20
119.7322187358801
 30
0.0
  0
SPLINE
  5
29D
330
1F
100
AcDbEntity
  8
0
  6
Continuous
 62
     7
370
    30
100
AcDbSpline
210
0.0
220
0.0
230
1.0
 70
     8
 71
     3
 72
    11
 73
     7
 74
     0
 42
0.000000001
 43
0.00000001
 40
0.0
 40
0.0
 40
0.0
 40
0.0
 40
0.0872002292009817
 40
0.528987574076747
 40
0.7639668056699409
 40
1.0
 40
1.0
 40
1.0
 40
1.0
 10
141.8244105759799
 20
118.0434514504288
 30
0.0
 10
141.7943467849799
 20
118.0510810537307
 30
0.0
 10
141.6119691465912
 20
118.09736493829
 30
0.0
 10
141.3546216189559
 20
118.1578846362602
 30
0.0
 10
141.0533183391053
 20
118.2235749928195
 30
0.0
 10
140.903515654929
 20
118.251855452464
 30
0.0
 10
140.8284467095692
 20
118.2660273232249
 30
0.0
  0
SPLINE
  5
29E
330
1F
100
AcDbEntity
  8
0
  6
Continuous
 62
     7
370
    30
100
AcDbSpline
210
0.0
220
0.0
230
1.0
 70
     8
 71
     3
 72
     9
 73
     5
 74
     0
 42
0.000000001
 43
0.00000001
 40
0.0
 40
0.0
 40
0.0
 40
0.0
 40
0.5599817214417065
 40
1.0
 40
1.0
 40
1.0
 40
1.0
 10
140.8284466891795
 20
118.266027212482
 30
0.0
 10
140.8099048738062
 20
118.2693551128067
 30
0.0
 10
140.7767934084434
 20
118.2752979859348
 30
0.0
 10
140.744103339243
 20
118.2808578649569
 30
0.0
 10
140.7297191112675
 20
118.2833043133532
 30
0.0
  0
LINE
  5
29F
330
1F
100
AcDbEntity
  8
0
  6
Continuous
 62
     7
370
    30
100
AcDbLine
 10
140.7297183459
 20
118.2833042023
 30
0.0
 11
140.6997276123
 21
118.320123058
 31
0.0
  0
SPLINE
  5
2A0
330
1F
100
AcDbEntity
  8
0
  6
Continuous
 62
     7
370
    30
100
AcDbSpline
210
0.0
220
0.0
230
1.0
 70
     8
 71
     3
 72
    10
 73
     6
 74
     0
 42
0.000000001
 43
0.00000001
 40
0.0
 40
0.0
 40
0.0
 40
0.0
 40
0.3432007672516014
 40
0.6897548860270559
 40
1.0
 40
1.0
 40
1.0
 40
1.0
 10
140.438561324315
 20
119.1921764091868
 30
0.0
 10
140.4647675326529
 20
119.0941699335052
 30
0.0
 10
140.5174360053667
 20
118.8971993789084
 30
0.0
 10
140.6065879137576
 20
118.6045637418764
 30
0.0
 10
140.6698477620127
 20
118.4113773865075
 30
0.0
 10
140.6997291288799
 20
118.3201240478142
 30
0.0
  0
SPLINE
  5
2A1
330
1F
100
AcDbEntity
  8
0
  6
Continuous
 62
     7
370
    30
100
AcDbSpline
210
0.0
220
0.0
230
1.0
 70
     8
 71
     3
 72
    16
 73
    12
 74
     0
 42
0.000000001
 43
0.00000001
 40
0.0
 40
0.0
 40
0.0
 40
0.0
 40
0.1247999202319224
 40
0.2498462050639453
 40
0.3749636133296873
 40
0.4881736227343218
 40
0.6013858003013711
 40
0.7146917075156578
 40
0.8278124341470855
 40
0.9410253731780568
 40
1.0
 40
1.0
 40
1.0
 40
1.0
 10
136.1636525181539
 20
120.6852402320623
 30
0.0
 10
136.0906605445707
 20
120.6316704231741
 30
0.0
 10
135.9445325056587
 20
120.5244250544922
 30
0.0
 10
135.6920247120877
 20
120.4303320305111
 30
0.0
 10
135.4391641801326
 20
120.3890838642661
 30
0.0
 10
135.1939498899533
 20
120.3986414845361
 30
0.0
 10
134.9646256099293
 20
120.4511104942859
 30
0.0
 10
134.7492075739558
 20
120.5447389655196
 30
0.0
 10
134.5568454235943
 20
120.6787528178394
 30
0.0
 10
134.4126881332424
 20
120.8168225276511
 30
0.0
 10
134.3491065467969
 20
120.9197167164227
 30
0.0
 10
134.327329711084
 20
120.9549582064507
 30
0.0
  0
SPLINE
  5
2A2
330
1F
100
AcDbEntity
  8
0
  6
Continuous
 62
     7
370
    30
100
AcDbSpline
210
0.0
220
0.0
230
1.0
 70
     8
 71
     3
 72
    11
 73
     7
 74
     0
 42
0.000000001
 43
0.00000001
 40
0.0
 40
0.0
 40
0.0
 40
0.0
 40
0.0872002292009339
 40
0.5289875740767174
 40
0.763966805669925
 40
1.0
 40
1.0
 40
1.0
 40
1.0
 10
135.2002688034428
 20
122.6403886986696
 30
0.0
 10
135.2303325944428
 20
122.6327590953676
 30
0.0
 10
135.4127102328315
 20
122.5864752108084
 30
0.0
 10
135.6700577604668
 20
122.5259555128382
 30
0.0
 10
135.9713610403174
 20
122.4602651562788
 30
0.0
 10
136.1211637244938
 20
122.4319846966344
 30
0.0
 10
136.1962326698535
 20
122.4178128258734
 30
0.0
  0
SPLINE
  5
2A3
330
1F
100
AcDbEntity
  8
0
  6
Continuous
 62
     7
370
    30
100
AcDbSpline
210
0.0
220
0.0
230
1.0
 70
     8
 71
     3
 72
     9
 73
     5
 74
     0
 42
0.000000001
 43
0.00000001
 40
0.0
 40
0.0
 40
0.0
 40
0.0
 40
0.559981721441764
 40
1.0
 40
1.0
 40
1.0
 40
1.0
 10
136.1962326902432
 20
122.4178129366163
 30
0.0
 10
136.2147745056165
 20
122.4144850362917
 30
0.0
 10
136.2478859709793
 20
122.4085421631635
 30
0.0
 10
136.2805760401797
 20
122.4029822841415
 30
0.0
 10
136.2949602681552
 20
122.4005358357452
 30
0.0
  0
LINE
  5
2A4
330
1F
100
AcDbEntity
  8
0
  6
Continuous
 62
     7
370
    30
100
AcDbLine
 10
136.2949610335
 20
122.4005359468
 30
0.0
 11
136.3249517671
 21
122.3637170911
 31
0.0
  0
SPLINE
  5
2A5
330
1F
100
AcDbEntity
  8
0
  6
Continuous
 62
     7
370
    30
100
AcDbSpline
210
0.0
220
0.0
230
1.0
 70
     8
 71
     3
 72
    10
 73
     6
 74
     0
 42
0.000000001
 43
0.00000001
 40
0.0
 40
0.0
 40
0.0
 40
0.0
 40
0.3432007672516092
 40
0.6897548860270705
 40
1.0
 40
1.0
 40
1.0
 40
1.0
 10
136.5861180551077
 20
121.4916637399116
 30
0.0
 10
136.5599118467698
 20
121.5896702155931
 30
0.0
 10
136.507243374056
 20
121.7866407701899
 30
0.0
 10
136.4180914656652
 20
122.0792764072219
 30
0.0
 10
136.35483161741
 20
122.2724627625908
 30
0.0
 10
136.3249502505428
 20
122.3637161012841
 30
0.0
  0
LINE
  5
2A6
330
1F
100
AcDbEntity
  8
0
  6
Continuous
 62
     7
370
    30
100
AcDbLine
 10
136.586118012
 20
121.4916632276
 30
0.0
 11
136.5632336448
 21
121.3432861197
 31
0.0
  0
SPLINE
  5
2A7
330
1F
100
AcDbEntity
  8
0
  6
Continuous
 62
     7
370
    30
100
AcDbSpline
210
0.0
220
0.0
230
1.0
 70
     8
 71
     3
 72
     9
 73
     5
 74
     0
 42
0.000000001
 43
0.00000001
 40
0.0
 40
0.0
 40
0.0
 40
0.0
 40
0.5597682558644025
 40
0.9999999999999999
 40
0.9999999999999999
 40
0.9999999999999999
 40
0.9999999999999999
 10
136.1636510676833
 20
120.6852421476981
 30
0.0
 10
136.2427757346845
 20
120.8061805301244
 30
0.0
 10
136.3841282786564
 20
121.0222313353626
 30
0.0
 10
136.5084870016496
 20
121.2451501677357
 30
0.0
 10
136.5632336591714
 20
121.343286114112
 30
0.0
  0
SPLINE
  5
2A8
330
1F
100
AcDbEntity
  8
0
  6
Continuous
 62
     7
370
    30
100
AcDbSpline
210
0.0
220
0.0
230
1.0
 70
     8
 71
     3
 72
    11
 73
     7
 74
     0
 42
0.000000001
 43
0.00000001
 40
0.0
 40
0.0
 40
0.0
 40
0.0
 40
0.282477508582475
 40
0.5674768395196861
 40
0.94246115639221
 40
0.9999999999999999
 40
0.9999999999999999
 40
0.9999999999999999
 40
0.9999999999999999
 10
136.2949602523385
 20
118.2833043612719
 30
0.0
 10
136.1969158614989
 20
118.2657005416334
 30
0.0
 10
135.9999517869943
 20
118.2303357439827
 30
0.0
 10
135.655320655739
 20
118.1545001443925
 30
0.0
 10
135.3879550942396
 20
118.0912017244797
 30
0.0
 10
135.2232450255699
 20
118.0493938200147
 30
0.0
 10
135.2013335356249
 20
118.0438320866871
 30
0.0
  0
LINE
  5
2A9
330
1F
100
AcDbEntity
  8
0
  6
Continuous
 62
     7
370
    30
100
AcDbLine
 10
136.2949602707
 20
118.2833047359
 30
0.0
 11
136.3315044394
 21
118.2694388027
 31
0.0
  0
SPLINE
  5
2AA
330
1F
100
AcDbEntity
  8
0
  6
Continuous
 62
     7
370
    30
100
AcDbSpline
210
0.0
220
0.0
230
1.0
 70
     8
 71
     3
 72
     9
 73
     5
 74
     0
 42
0.000000001
 43
0.00000001
 40
0.0
 40
0.0
 40
0.0
 40
0.0
 40
0.5602177760246855
 40
1.0
 40
1.0
 40
1.0
 40
1.0
 10
136.6841097282569
 20
117.9005061375273
 30
0.0
 10
136.6198222630069
 20
117.9720118630246
 30
0.0
 10
136.5050678442768
 20
118.0996510215044
 30
0.0
 10
136.384519211516
 20
118.2175766991713
 30
0.0
 10
136.3315040657033
 20
118.2694383159594
 30
0.0
  0
SPLINE
  5
2AB
330
1F
100
AcDbEntity
  8
0
  6
Continuous
 62
     7
370
    30
100
AcDbSpline
210
0.0
220
0.0
230
1.0
 70
     8
 71
     3
 72
     9
 73
     5
 74
     0
 42
0.000000001
 43
0.00000001
 40
0.0
 40
0.0
 40
0.0
 40
0.0
 40
0.4977332639559695
 40
1.0
 40
1.0
 40
1.0
 40
1.0
 10
137.1292898159069
 20
117.3347152497636
 30
0.0
 10
137.0588754808621
 20
117.4314876868053
 30
0.0
 10
136.9174054603834
 20
117.6259139870941
 30
0.0
 10
136.762109672294
 20
117.8086992216876
 30
0.0
 10
136.6841097636889
 20
117.9005061648639
 30
0.0
  0
SPLINE
  5
2AC
330
1F
100
AcDbEntity
  8
0
  6
Continuous
 62
     7
370
    30
100
AcDbSpline
210
0.0
220
0.0
230
1.0
 70
     8
 71
     3
 72
    12
 73
     8
 74
     0
 42
0.000000001
 43
0.00000001
 40
0.0
 40
0.0
 40
0.0
 40
0.0
 40
0.2360345164037842
 40
0.472199744370175
 40
0.710913217621418
 40
0.9496810213219119
 40
1.0
 40
1.0
 40
1.0
 40
1.0
 10
137.1292898159069
 20
117.3347152497636
 30
0.0
 10
137.143325817209
 20
117.2564855332309
 30
0.0
 10
137.1714055926921
 20
117.0999827779911
 30
0.0
 10
137.1640993119775
 20
116.8645151979956
 30
0.0
 10
137.1185731368344
 20
116.63847950112
 30
0.0
 10
137.066934361549
 20
116.4756734600776
 30
0.0
 10
137.0201383382535
 20
116.3973277131705
 30
0.0
 10
137.0119929361045
 20
116.3836907079234
 30
0.0
  0
SPLINE
  5
2AD
330
1F
100
AcDbEntity
  8
0
  6
Continuous
 62
     7
370
    30
100
AcDbSpline
210
0.0
220
0.0
230
1.0
 70
     8
 71
     3
 72
    11
 73
     7
 74
     0
 42
0.000000001
 43
0.00000001
 40
0.0
 40
0.0
 40
0.0
 40
0.0
 40
0.2824775085824465
 40
0.5674768395196299
 40
0.9424611563921171
 40
1.0
 40
1.0
 40
1.0
 40
1.0
 10
140.7297191270842
 20
122.4005357878264
 30
0.0
 10
140.8277635179238
 20
122.4181396074649
 30
0.0
 10
141.0247275924284
 20
122.4535044051156
 30
0.0
 10
141.3693587236837
 20
122.5293400047058
 30
0.0
 10
141.6367242851831
 20
122.5926384246186
 30
0.0
 10
141.8014343538529
 20
122.6344463290837
 30
0.0
 10
141.8233458437979
 20
122.6400080624112
 30
0.0
  0
LINE
  5
2AE
330
1F
100
AcDbEntity
  8
0
  6
Continuous
 62
     7
370
    30
100
AcDbLine
 10
140.7297183258
 20
122.4005356972
 30
0.0
 11
140.6931749401
 21
122.4144013464
 31
0.0
  0
SPLINE
  5
2AF
330
1F
100
AcDbEntity
  8
0
  6
Continuous
 62
     7
370
    30
100
AcDbSpline
210
0.0
220
0.0
230
1.0
 70
     8
 71
     3
 72
     9
 73
     5
 74
     0
 42
0.000000001
 43
0.00000001
 40
0.0
 40
0.0
 40
0.0
 40
0.0
 40
0.5602177760239951
 40
1.0
 40
1.0
 40
1.0
 40
1.0
 10
140.3405696511658
 20
122.783334011571
 30
0.0
 10
140.4048571164157
 20
122.7118282860738
 30
0.0
 10
140.5196115351458
 20
122.584189127594
 30
0.0
 10
140.6401601679066
 20
122.4662634499271
 30
0.0
 10
140.6931753137195
 20
122.4144018331389
 30
0.0
  0
SPLINE
  5
2B0
330
1F
100
AcDbEntity
  8
0
  6
Continuous
 62
     7
370
    30
100
AcDbSpline
210
0.0
220
0.0
230
1.0
 70
     8
 71
     3
 72
     9
 73
     5
 74
     0
 42
0.000000001
 43
0.00000001
 40
0.0
 40
0.0
 40
0.0
 40
0.0
 40
0.4977332639559682
 40
1.0
 40
1.0
 40
1.0
 40
1.0
 10
139.8953895635158
 20
123.3491248993347
 30
0.0
 10
139.9658038985606
 20
123.2523524622931
 30
0.0
 10
140.1072739190393
 20
123.0579261620042
 30
0.0
 10
140.2625697071288
 20
122.8751409274107
 30
0.0
 10
140.3405696157338
 20
122.7833339842344
 30
0.0
  0
SPLINE
  5
2B1
330
1F
100
AcDbEntity
  8
0
  6
Continuous
 62
     7
370
    30
100
AcDbSpline
210
0.0
220
0.0
230
1.0
 70
     8
 71
     3
 72
    12
 73
     8
 74
     0
 42
0.000000001
 43
0.00000001
 40
0.0
 40
0.0
 40
0.0
 40
0.0
 40
0.2360345164037652
 40
0.4721997443701378
 40
0.7109132176213598
 40
0.949681021321832
 40
1.0
 40
1.0
 40
1.0
 40
1.0
 10
139.8953895635158
 20
123.3491248993347
 30
0.0
 10
139.8813535622137
 20
123.4273546158674
 30
0.0
 10
139.8532737867307
 20
123.5838573711072
 30
0.0
 10
139.8605800674452
 20
123.8193249511027
 30
0.0
 10
139.9061062425883
 20
124.0453606479783
 30
0.0
 10
139.9577450178737
 20
124.2081666890208
 30
0.0
 10
140.0045410411693
 20
124.2865124359279
 30
0.0
 10
140.0126864433183
 20
124.300149441175
 30
0.0
  0
SPLINE
  5
2B2
330
1F
100
AcDbEntity
  8
0
  6
Continuous
 62
     7
370
    30
100
AcDbSpline
210
0.0
220
0.0
230
1.0
 70
     8
 71
     3
 72
    13
 73
     9
 74
     0
 42
0.000000001
 43
0.00000001
 40
0.0
 40
0.0
 40
0.0
 40
0.0
 40
0.0059428645936112
 40
0.2396732650884949
 40
0.47345569305912
 40
0.7073131894823788
 40
0.853741677724362
 40
1.0
 40
1.0
 40
1.0
 40
1.0
 10
139.7152939459421
 20
124.4008501749452
 30
0.0
 10
139.716098143817
 20
124.3989656604718
 30
0.0
 10
139.7485311106835
 20
124.322963973098
 30
0.0
 10
139.7716485470883
 20
124.1600519449017
 30
0.0
 10
139.7804667995927
 20
123.9205245886403
 30
0.0
 10
139.7435682110395
 20
123.7115566384746
 30
0.0
 10
139.6876213482637
 20
123.5381980951391
 30
0.0
 10
139.6422949141919
 20
123.4468037810623
 30
0.0
 10
139.6196448733842
 20
123.401133192016
 30
0.0
  0
SPLINE
  5
2B3
330
1F
100
AcDbEntity
  8
0
  6
Continuous
 62
     7
370
    30
100
AcDbSpline
210
0.0
220
0.0
230
1.0
 70
     8
 71
     3
 72
    11
 73
     7
 74
     0
 42
0.000000001
 43
0.00000001
 40
0.0
 40
0.0
 40
0.0
 40
0.0
 40
0.194574666504666
 40
0.3904663294448267
 40
0.6936687936022018
 40
0.9999999999999999
 40
0.9999999999999999
 40
0.9999999999999999
 40
0.9999999999999999
 10
138.5123396897114
 20
122.7421271786868
 30
0.0
 10
138.5839685117847
 20
122.7785995125635
 30
0.0
 10
138.7277109821684
 20
122.8517910466463
 30
0.0
 10
138.9852373925017
 20
122.9970527630154
 30
0.0
 10
139.2841234200413
 20
123.1789422917621
 30
0.0
 10
139.5074207046406
 20
123.3268199763139
 30
0.0
 10
139.6196424405036
 20
123.4011383473841
 30
0.0
  0
SPLINE
  5
2B4
330
1F
100
AcDbEntity
  8
0
  6
Continuous
 62
     7
370
    30
100
AcDbSpline
210
0.0
220
0.0
230
1.0
 70
     8
 71
     3
 72
     9
 73
     5
 74
     0
 42
0.000000001
 43
0.00000001
 40
0.0
 40
0.0
 40
0.0
 40
0.0
 40
0.5599286859550895
 40
1.0
 40
1.0
 40
1.0
 40
1.0
 10
138.1091953767133
 20
122.9585538592329
 30
0.0
 10
138.1847602418608
 20
122.9158325344507
 30
0.0
 10
138.3197146870302
 20
122.8395347382245
 30
0.0
 10
138.4534754257341
 20
122.7718939495448
 30
0.0
 10
138.5123396897832
 20
122.7421271787874
 30
0.0
  0
SPLINE
  5
2B5
330
1F
100
AcDbEntity
  8
0
  6
Continuous
 62
     7
370
    30
100
AcDbSpline
210
0.0
220
0.0
230
1.0
 70
     8
 71
     3
 72
     9
 73
     5
 74
     0
 42
0.000000001
 43
0.00000001
 40
0.0
 40
0.0
 40
0.0
 40
0.0
 40
0.4976000606624377
 40
1.0
 40
1.0
 40
1.0
 40
1.0
 10
137.4050369389191
 20
123.4011383473841
 30
0.0
 10
137.5210591819526
 20
123.3240511030907
 30
0.0
 10
137.7542228252186
 20
123.1691330265317
 30
0.0
 10
137.9904931327994
 20
123.0289710807197
 30
0.0
 10
138.1091953209953
 20
122.9585537276463
 30
0.0
  0
SPLINE
  5
2B6
330
1F
100
AcDbEntity
  8
0
  6
Continuous
 62
     7
370
    30
100
AcDbSpline
210
0.0
220
0.0
230
1.0
 70
     8
 71
     3
 72
    12
 73
     8
 74
     0
 42
0.000000001
 43
0.00000001
 40
0.0
 40
0.0
 40
0.0
 40
0.0
 40
0.2332376891228828
 40
0.4669228134631496
 40
0.7003362545801124
 40
0.9339375355782845
 40
1.0
 40
1.0
 40
1.0
 40
1.0
 10
137.4050322625934
 20
123.4011341261071
 30
0.0
 10
137.3704519501297
 20
123.4746532205812
 30
0.0
 10
137.3012249875119
 20
123.6218324460496
 30
0.0
 10
137.2512403454761
 20
123.8593583972604
 30
0.0
 10
137.2462601259602
 20
124.0988791812847
 30
0.0
 10
137.2677440774702
 20
124.282144899901
 30
0.0
 10
137.3051352826099
 20
124.378351132907
 30
0.0
 10
137.3133783723963
 20
124.3995603079982
 30
0.0
  0
SPLINE
  5
2B7
330
1F
100
AcDbEntity
  8
0
  6
Continuous
 62
     7
370
    30
100
AcDbSpline
210
0.0
220
0.0
230
1.0
 70
     8
 71
     3
 72
    13
 73
     9
 74
     0
 42
0.000000001
 43
0.00000001
 40
0.0
 40
0.0
 40
0.0
 40
0.0
 40
0.0068583414402479
 40
0.2404293575813696
 40
0.4742515365161835
 40
0.7079571159977605
 40
0.854095710972444
 40
1.0
 40
1.0
 40
1.0
 40
1.0
 10
137.3094681592688
 20
116.2830153761981
 30
0.0
 10
137.3085409952112
 20
116.2851905751478
 30
0.0
 10
137.2760378804737
 20
116.3614454088651
 30
0.0
 10
137.25291840944
 20
116.5246202901178
 30
0.0
 10
137.2442784721513
 20
116.7640701587747
 30
0.0
 10
137.2812648651534
 20
116.9728823133055
 30
0.0
 10
137.337202752296
 20
117.1459550781713
 30
0.0
 10
137.382435101806
 20
117.2371464644342
 30
0.0
 10
137.4050331316085
 20
117.2827055761502
 30
0.0
  0
SPLINE
  5
2B8
330
1F
100
AcDbEntity
  8
0
  6
Continuous
 62
     7
370
    30
100
AcDbSpline
210
0.0
220
0.0
230
1.0
 70
     8
 71
     3
 72
    11
 73
     7
 74
     0
 42
0.000000001
 43
0.00000001
 40
0.0
 40
0.0
 40
0.0
 40
0.0
 40
0.1945746665046652
 40
0.3904663294448241
 40
0.6936687936022006
 40
1.0
 40
1.0
 40
1.0
 40
1.0
 10
138.5123396897114
 20
117.9417129704115
 30
0.0
 10
138.440710867638
 20
117.9052406365348
 30
0.0
 10
138.2969683972543
 20
117.832049102452
 30
0.0
 10
138.039441986921
 20
117.6867873860829
 30
0.0
 10
137.7405559593814
 20
117.5048978573363
 30
0.0
 10
137.5172586747821
 20
117.3570201727844
 30
0.0
 10
137.4050369389191
 20
117.2827018017142
 30
0.0
  0
SPLINE
  5
2B9
330
1F
100
AcDbEntity
  8
0
  6
Continuous
 62
     7
370
    30
100
AcDbSpline
210
0.0
220
0.0
230
1.0
 70
     8
 71
     3
 72
     9
 73
     5
 74
     0
 42
0.000000001
 43
0.00000001
 40
0.0
 40
0.0
 40
0.0
 40
0.0
 40
0.5599286859551769
 40
1.0
 40
1.0
 40
1.0
 40
1.0
 10
138.9154840027094
 20
117.7252862898655
 30
0.0
 10
138.8399191375619
 20
117.7680076146476
 30
0.0
 10
138.7049646923925
 20
117.8443054108738
 30
0.0
 10
138.5712039536886
 20
117.9119461995536
 30
0.0
 10
138.5123396896395
 20
117.9417129703109
 30
0.0
  0
SPLINE
  5
2BA
330
1F
100
AcDbEntity
  8
0
  6
Continuous
 62
     7
370
    30
100
AcDbSpline
210
0.0
220
0.0
230
1.0
 70
     8
 71
     3
 72
     9
 73
     5
 74
     0
 42
0.000000001
 43
0.00000001
 40
0.0
 40
0.0
 40
0.0
 40
0.0
 40
0.4976000606624387
 40
1.0
 40
1.0
 40
1.0
 40
1.0
 10
139.6196424405036
 20
117.2827018017142
 30
0.0
 10
139.5036201974702
 20
117.3597890460077
 30
0.0
 10
139.2704565542041
 20
117.5147071225666
 30
0.0
 10
139.0341862466233
 20
117.6548690683786
 30
0.0
 10
138.9154840584274
 20
117.725286421452
 30
0.0
  0
SPLINE
  5
2BB
330
1F
100
AcDbEntity
  8
0
  6
Continuous
 62
     7
370
    30
100
AcDbSpline
210
0.0
220
0.0
230
1.0
 70
     8
 71
     3
 72
    12
 73
     8
 74
     0
 42
0.000000001
 43
0.00000001
 40
0.0
 40
0.0
 40
0.0
 40
0.0
 40
0.2334771203777472
 40
0.4669389547917445
 40
0.7006494290617168
 40
0.933965853238308
 40
1.0
 40
1.0
 40
1.0
 40
1.0
 10
139.6196424462084
 20
117.2827018300569
 30
0.0
 10
139.6542604510253
 20
117.2091013819508
 30
0.0
 10
139.7234941941862
 20
117.0619053044283
 30
0.0
 10
139.773470483124
 20
116.8242451245338
 30
0.0
 10
139.778404006815
 20
116.5847733890204
 30
0.0
 10
139.7568894196137
 20
116.4015054756008
 30
0.0
 10
139.7195145203467
 20
116.305396881733
 30
0.0
 10
139.711269940837
 20
116.2841961572025
 30
0.0
  0
SPLINE
  5
2BC
330
1F
100
AcDbEntity
  8
0
  6
Continuous
 62
     7
370
    30
100
AcDbSpline
210
0.0
220
0.0
230
1.0
 70
     8
 71
     3
 72
    12
 73
     8
 74
     0
 42
0.000000001
 43
0.00000001
 40
0.0
 40
0.0
 40
0.0
 40
0.0
 40
0.1455359869850127
 40
0.4119076606609086
 40
0.6546437806844818
 40
0.8972555306251712
 40
1.0
 40
1.0
 40
1.0
 40
1.0
 10
140.0147842310071
 20
116.384666868095
 30
0.0
 10
139.993197785472
 20
116.4253958736605
 30
0.0
 10
139.9321020904033
 20
116.5406703823996
 30
0.0
 10
139.8786070258476
 20
116.7463716021822
 30
0.0
 10
139.8525982041097
 20
116.9905513654696
 30
0.0
 10
139.8645079336488
 20
117.1868217492019
 30
0.0
 10
139.8883087516479
 20
117.3008049264306
 30
0.0
 10
139.8953895635147
 20
117.3347152497636
 30
0.0
  0
SPLINE
  5
2BD
330
1F
100
AcDbEntity
  8
0
  6
Continuous
 62
     7
370
    30
100
AcDbSpline
210
0.0
220
0.0
230
1.0
 70
     8
 71
     3
 72
    11
 73
     7
 74
     0
 42
0.000000001
 43
0.00000001
 40
0.0
 40
0.0
 40
0.0
 40
0.0
 40
0.2799640576347702
 40
0.5600398913269322
 40
0.7799965631225401
 40
1.0
 40
1.0
 40
1.0
 40
1.0
 10
140.6931749966638
 20
118.2694385780457
 30
0.0
 10
140.6128469873067
 20
118.189768231312
 30
0.0
 10
140.452158897518
 20
118.0303957293428
 30
0.0
 10
140.2411913568094
 20
117.7878202853951
 30
0.0
 10
140.0556291706874
 20
117.5551469140378
 30
0.0
 10
139.9488063169535
 20
117.4081978853856
 30
0.0
 10
139.8953892127769
 20
117.3347155611659
 30
0.0
  0
SPLINE
  5
2BE
330
1F
100
AcDbEntity
  8
0
  6
Continuous
 62
     7
370
    30
100
AcDbSpline
210
0.0
220
0.0
230
1.0
 70
     8
 71
     3
 72
     9
 73
     5
 74
     0
 42
0.000000001
 43
0.00000001
 40
0.0
 40
0.0
 40
0.0
 40
0.0
 40
0.6569159632915017
 40
1.0
 40
1.0
 40
1.0
 40
1.0
 10
140.6931750010507
 20
118.2694385679531
 30
0.0
 10
140.7011522296791
 20
118.2725558923332
 30
0.0
 10
140.7132956834452
 20
118.2773012852818
 30
0.0
 10
140.72552384733
 20
118.2817708988333
 30
0.0
 10
140.7297191351571
 20
118.2833043518931
 30
0.0
  0
SPLINE
  5
2BF
330
1F
100
AcDbEntity
  8
0
  6
Continuous
 62
     7
370
    30
100
AcDbSpline
210
0.0
220
0.0
230
1.0
 70
     8
 71
     3
 72
    12
 73
     8
 74
     0
 42
0.000000001
 43
0.00000001
 40
0.0
 40
0.0
 40
0.0
 40
0.0
 40
0.1455359869850722
 40
0.4119076606609511
 40
0.6546437806845045
 40
0.8972555306251746
 40
1.0
 40
1.0
 40
1.0
 40
1.0
 10
137.0098951484156
 20
124.2991732810034
 30
0.0
 10
137.0314815939507
 20
124.2584442754378
 30
0.0
 10
137.0925772890194
 20
124.1431697666988
 30
0.0
 10
137.1460723535751
 20
123.9374685469162
 30
0.0
 10
137.1720811753131
 20
123.6932887836287
 30
0.0
 10
137.1601714457739
 20
123.4970183998964
 30
0.0
 10
137.1363706277749
 20
123.3830352226677
 30
0.0
 10
137.129289815908
 20
123.3491248993348
 30
0.0
  0
SPLINE
  5
2C0
330
1F
100
AcDbEntity
  8
0
  6
Continuous
 62
     7
370
    30
100
AcDbSpline
210
0.0
220
0.0
230
1.0
 70
     8
 71
     3
 72
    11
 73
     7
 74
     0
 42
0.000000001
 43
0.00000001
 40
0.0
 40
0.0
 40
0.0
 40
0.0
 40
0.2799640576315914
 40
0.5600398912678851
 40
0.77999656305803
 40
1.0
 40
1.0
 40
1.0
 40
1.0
 10
136.3315043827589
 20
122.4144015710527
 30
0.0
 10
136.4118323966155
 20
122.4940719223943
 30
0.0
 10
136.5725204953901
 20
122.6534444335663
 30
0.0
 10
136.7834880470025
 20
122.8960198925505
 30
0.0
 10
136.9690502420872
 20
123.1286932784325
 30
0.0
 10
137.0758731007038
 20
123.2756423161292
 30
0.0
 10
137.1292902073304
 20
123.3491246448834
 30
0.0
  0
LINE
  5
2C1
330
1F
100
AcDbEntity
  8
0
  6
Continuous
 62
     7
370
    30
100
AcDbLine
 10
136.3315043784
 20
122.4144015811
 30
0.0
 11
136.2949602443
 21
122.4005357972
 31
0.0
  0
SPLINE
  5
2C2
330
1F
100
AcDbEntity
  8
0
  6
Continuous
 62
     7
370
    30
100
AcDbSpline
210
0.0
220
0.0
230
1.0
 70
     8
 71
     3
 72
    10
 73
     6
 74
     0
 42
0.000000001
 43
0.00000001
 40
0.0
 40
0.0
 40
0.0
 40
0.0
 40
0.4076235758860802
 40
0.8148133593858364
 40
1.0
 40
1.0
 40
1.0
 40
1.0
 10
140.8610276352796
 20
119.9985986597377
 30
0.0
 10
140.8793531239666
 20
120.0912525324036
 30
0.0
 10
140.9159845993834
 20
120.2764616756258
 30
0.0
 10
140.9014004212985
 20
120.5102367007363
 30
0.0
 10
140.8706429573288
 20
120.6435618525532
 30
0.0
 10
140.8610276667898
 20
120.6852414940266
 30
0.0
  0
SPLINE
  5
2C3
330
1F
100
AcDbEntity
  8
0
  6
Continuous
 62
     7
370
    30
100
AcDbSpline
210
0.0
220
0.0
230
1.0
 70
     8
 71
     3
 72
    16
 73
    12
 74
     0
 42
0.000000001
 43
0.00000001
 40
0.0
 40
0.0
 40
0.0
 40
0.0
 40
0.094853753269369
 40
0.2081157001682072
 40
0.3213238312369341
 40
0.4346805003974452
 40
0.5479111674647446
 40
0.6612100338514671
 40
0.7742503371498469
 40
0.8873309372641702
 40
1.0
 40
1.0
 40
1.0
 40
1.0
 10
142.6995760195529
 20
120.9534783447482
 30
0.0
 10
142.6616749331169
 20
120.8988736392025
 30
0.0
 10
142.5785173260756
 20
120.7790671356597
 30
0.0
 10
142.4095022040351
 20
120.6321081719935
 30
0.0
 10
142.2088680820395
 20
120.5105767378661
 30
0.0
 10
141.9881682944794
 20
120.4297502469661
 30
0.0
 10
141.755527483629
 20
120.3909532946653
 30
0.0
 10
141.5177884643863
 20
120.3958750388507
 30
0.0
 10
141.2832944083986
 20
120.4463566314064
 30
0.0
 10
141.0579796421235
 20
120.5387545822369
 30
0.0
 10
140.9265984317286
 20
120.6364718902099
 30
0.0
 10
140.8610275792657
 20
120.6852414757915
 30
0.0
  0
SPLINE
  5
2C4
330
1F
100
AcDbEntity
  8
0
  6
Continuous
 62
     7
370
    30
100
AcDbSpline
210
0.0
220
0.0
230
1.0
 70
     8
 71
     3
 72
    10
 73
     6
 74
     0
 42
0.000000001
 43
0.00000001
 40
0.0
 40
0.0
 40
0.0
 40
0.0
 40
0.1851866406138673
 40
0.5923764241137401
 40
1.0
 40
1.0
 40
1.0
 40
1.0
 10
136.1636517126329
 20
119.9985986550717
 30
0.0
 10
136.1540364220939
 20
120.040278296545
 30
0.0
 10
136.1232789581242
 20
120.1736034483619
 30
0.0
 10
136.1086947800392
 20
120.4073784734724
 30
0.0
 10
136.1453262554561
 20
120.5925876166947
 30
0.0
 10
136.1636517441431
 20
120.6852414893606
 30
0.0
  0
SPLINE
  5
2C5
330
1F
100
AcDbEntity
  8
0
  6
Continuous
 62
     7
370
    30
100
AcDbSpline
210
0.0
220
0.0
230
1.0
 70
     8
 71
     3
 72
    16
 73
    12
 74
     0
 42
0.000000001
 43
0.00000001
 40
0.0
 40
0.0
 40
0.0
 40
0.0
 40
0.0973885576213465
 40
0.2106534328370893
 40
0.3238610923010521
 40
0.4372179897911233
 40
0.5504468176618887
 40
0.6631103713238327
 40
0.7755151285943476
 40
0.8879624219640959
 40
1.0
 40
1.0
 40
1.0
 40
1.0
 10
134.324816900524
 20
119.7305909503226
 30
0.0
 10
134.3639418931322
 20
119.7864922784625
 30
0.0
 10
134.4485700486769
 20
119.9074079893061
 30
0.0
 10
134.6194081007048
 20
120.0548840036988
 30
0.0
 10
134.8205832645108
 20
120.1755219957493
 30
0.0
 10
135.0416220913348
 20
120.2554322285075
 30
0.0
 10
135.2740253145912
 20
120.2931878080872
 30
0.0
 10
135.5108833998142
 20
120.2874132111773
 30
0.0
 10
135.7439579382568
 20
120.2365892586338
 30
0.0
 10
135.9678550592269
 20
120.1443287988438
 30
0.0
 10
136.0984668446282
 20
120.0471178361359
 30
0.0
 10
136.1636535452182
 20
119.998601066377
 30
0.0
  0
LINE
  5
2C6
330
1F
100
AcDbEntity
  8
0
  6
Continuous
 62
     7
370
    30
100
AcDbLine
 10
136.5632336607
 20
119.3405540321
 30
0.0
 11
136.5861180496
 21
119.1921764068
 31
0.0
  0
SPLINE
  5
2C7
330
1F
100
AcDbEntity
  8
0
  6
Continuous
 62
     7
370
    30
100
AcDbSpline
210
0.0
220
0.0
230
1.0
 70
     8
 71
     3
 72
     9
 73
     5
 74
     0
 42
0.000000001
 43
0.00000001
 40
0.0
 40
0.0
 40
0.0
 40
0.0
 40
0.5596893528475576
 40
1.0
 40
1.0
 40
1.0
 40
1.0
 10
136.4788749867718
 20
118.8068266232524
 30
0.0
 10
136.5001336062306
 20
118.8794461208586
 30
0.0
 10
136.53811649683
 20
119.0091957707971
 30
0.0
 10
136.5714437155353
 20
119.1362382546513
 30
0.0
 10
136.5861180447712
 20
119.192176412933
 30
0.0
  0
SPLINE
  5
2C8
330
1F
100
AcDbEntity
  8
0
  6
Continuous
 62
     7
370
    30
100
AcDbSpline
210
0.0
220
0.0
230
1.0
 70
     8
 71
     3
 72
     9
 73
     5
 74
     0
 42
0.000000001
 43
0.00000001
 40
0.0
 40
0.0
 40
0.0
 40
0.0
 40
0.4990219509998476
 40
1.0
 40
1.0
 40
1.0
 40
1.0
 10
136.3249502505428
 20
118.3201240478142
 30
0.0
 10
136.3517052873104
 20
118.4014152594645
 30
0.0
 10
136.4053202369413
 20
118.5643163332297
 30
0.0
 10
136.4543248495493
 20
118.7258845179593
 30
0.0
 10
136.4788750847657
 20
118.8068266319256
 30
0.0
  0
LINE
  5
2C9
330
1F
100
AcDbEntity
  8
0
  6
Continuous
 62
     7
370
    30
100
AcDbLine
 10
136.3249510276
 20
118.3201244902
 30
0.0
 11
136.2949605339
 21
118.2833045382
 31
0.0
  0
SPLINE
  5
2CA
330
1F
100
AcDbEntity
  8
0
  6
Continuous
 62
     7
370
    30
100
AcDbSpline
210
0.0
220
0.0
230
1.0
 70
     8
 71
     3
 72
     9
 73
     5
 74
     0
 42
0.000000001
 43
0.00000001
 40
0.0
 40
0.0
 40
0.0
 40
0.0
 40
0.5601698079986566
 40
1.0
 40
1.0
 40
1.0
 40
1.0
 10
136.5632335765982
 20
119.3405539848309
 30
0.0
 10
136.4930617197211
 20
119.4654274436884
 30
0.0
 10
136.3677928175505
 20
119.688348167145
 30
0.0
 10
136.2260114006531
 20
119.9038252477248
 30
0.0
 10
136.1636516528368
 20
119.9985985734481
 30
0.0
  0
SPLINE
  5
2CB
330
1F
100
AcDbEntity
  8
0
  6
Continuous
 62
     7
370
    30
100
AcDbSpline
210
0.0
220
0.0
230
1.0
 70
     8
 71
     3
 72
     9
 73
     5
 74
     0
 42
0.000000001
 43
0.00000001
 40
0.0
 40
0.0
 40
0.0
 40
0.0
 40
0.4990219509998475
 40
1.0
 40
1.0
 40
1.0
 40
1.0
 10
140.6997291288799
 20
122.3637161012841
 30
0.0
 10
140.6729740921123
 20
122.2824248896338
 30
0.0
 10
140.6193591424814
 20
122.1195238158686
 30
0.0
 10
140.5703545298734
 20
121.957955631139
 30
0.0
 10
140.545804294657
 20
121.8770135171727
 30
0.0
  0
LINE
  5
2CC
330
1F
100
AcDbEntity
  8
0
  6
Continuous
 62
     7
370
    30
100
AcDbLine
 10
140.6997285172
 20
122.3637158699
 30
0.0
 11
140.7297186627
 21
122.4005353948
 31
0.0
  0
SPLINE
  5
2CD
330
1F
100
AcDbEntity
  8
0
  6
Continuous
 62
     7
370
    30
100
AcDbSpline
210
0.0
220
0.0
230
1.0
 70
     8
 71
     3
 72
     9
 73
     5
 74
     0
 42
0.000000001
 43
0.00000001
 40
0.0
 40
0.0
 40
0.0
 40
0.0
 40
0.5598658984165333
 40
1.0
 40
1.0
 40
1.0
 40
1.0
 10
140.8610275852772
 20
120.6852414797135
 30
0.0
 10
140.7818896535337
 20
120.8062014555965
 30
0.0
 10
140.6405380692217
 20
121.0222531498059
 30
0.0
 10
140.5161799770302
 20
121.2451719553671
 30
0.0
 10
140.4614457398488
 20
121.3432861235789
 30
0.0
  0
LINE
  5
2CE
330
1F
100
AcDbEntity
  8
0
  6
Continuous
 62
     7
370
    30
100
AcDbLine
 10
140.4614457188
 20
121.343286117
 30
0.0
 11
140.4385613298
 21
121.4916637423
 31
0.0
  0
SPLINE
  5
2CF
330
1F
100
AcDbEntity
  8
0
  6
Continuous
 62
     7
370
    30
100
AcDbSpline
210
0.0
220
0.0
230
1.0
 70
     8
 71
     3
 72
     9
 73
     5
 74
     0
 42
0.000000001
 43
0.00000001
 40
0.0
 40
0.0
 40
0.0
 40
0.0
 40
0.5596893528475565
 40
1.0
 40
1.0
 40
1.0
 40
1.0
 10
140.545804392651
 20
121.8770135258459
 30
0.0
 10
140.5245457731921
 20
121.8043940282397
 30
0.0
 10
140.4865628825927
 20
121.6746443783012
 30
0.0
 10
140.4532356638874
 20
121.5476018944471
 30
0.0
 10
140.4385613346516
 20
121.4916637361654
 30
0.0
  0
SPLINE
  5
2D0
330
1F
100
AcDbEntity
  8
0
  6
Continuous
 62
     7
370
    30
100
AcDbSpline
210
0.0
220
0.0
230
1.0
 70
     8
 71
     3
 72
     9
 73
     5
 74
     0
 42
0.000000001
 43
0.00000001
 40
0.0
 40
0.0
 40
0.0
 40
0.0
 40
0.4996087495232949
 40
1.0
 40
1.0
 40
1.0
 40
1.0
 10
137.1292897390226
 20
123.3491251124115
 30
0.0
 10
137.1744918173276
 20
123.3619733559786
 30
0.0
 10
137.2649667706749
 20
123.387689966385
 30
0.0
 10
137.3583225297014
 20
123.3966532614395
 30
0.0
 10
137.4050369346998
 20
123.4011384158603
 30
0.0
  0
SPLINE
  5
2D1
330
1F
100
AcDbEntity
  8
0
  6
Continuous
 62
     7
370
    30
100
AcDbSpline
210
0.0
220
0.0
230
1.0
 70
     8
 71
     3
 72
     9
 73
     5
 74
     0
 42
0.000000001
 43
0.00000001
 40
0.0
 40
0.0
 40
0.0
 40
0.0
 40
0.5002486770911998
 40
1.0
 40
1.0
 40
1.0
 40
1.0
 10
139.6196422742321
 20
123.4011383593983
 30
0.0
 10
139.6663434032874
 20
123.3966549651662
 30
0.0
 10
139.7596992304867
 20
123.3876926341548
 30
0.0
 10
139.8501744959639
 20
123.3619766727635
 30
0.0
 10
139.8953896295766
 20
123.3491250870383
 30
0.0
  0
SPLINE
  5
2D2
330
1F
100
AcDbEntity
  8
0
  6
Continuous
 62
     7
370
    30
100
AcDbSpline
210
0.0
220
0.0
230
1.0
 70
     8
 71
     3
 72
     9
 73
     5
 74
     0
 42
0.000000001
 43
0.00000001
 40
0.0
 40
0.0
 40
0.0
 40
0.0
 40
0.4996087492230219
 40
1.0
 40
1.0
 40
1.0
 40
1.0
 10
139.8953895086705
 20
117.3347149948614
 30
0.0
 10
139.8501874524777
 20
117.3218667626107
 30
0.0
 10
139.7597125433351
 20
117.2961501748393
 30
0.0
 10
139.6663568324693
 20
117.2871868853325
 30
0.0
 10
139.619642451542
 20
117.282701733685
 30
0.0
  0
SPLINE
  5
2D3
330
1F
100
AcDbEntity
  8
0
  6
Continuous
 62
     7
370
    30
100
AcDbSpline
210
0.0
220
0.0
230
1.0
 70
     8
 71
     3
 72
     9
 73
     5
 74
     0
 42
0.000000001
 43
0.00000001
 40
0.0
 40
0.0
 40
0.0
 40
0.0
 40
0.5002486658571067
 40
1.0
 40
1.0
 40
1.0
 40
1.0
 10
137.4050347285689
 20
117.2827019454794
 30
0.0
 10
137.3583340045666
 20
117.2871853852272
 30
0.0
 10
137.2649789849739
 20
117.296147807426
 30
0.0
 10
137.1745044962778
 20
117.321863573604
 30
0.0
 10
137.129289749846
 20
117.33471506206
 30
0.0
  0
SPLINE
  5
2D4
330
1F
100
AcDbEntity
  8
0
  6
Continuous
 62
     7
370
    30
100
AcDbSpline
210
0.0
220
0.0
230
1.0
 70
     8
 71
     3
 72
     9
 73
     5
 74
     0
 42
0.000000001
 43
0.00000001
 40
0.0
 40
0.0
 40
0.0
 40
0.0
 40
0.5596465387843256
 40
1.0
 40
1.0
 40
1.0
 40
1.0
 10
138.3167690694582
 20
119.282545697078
 30
0.0
 10
138.2139371674655
 20
119.286372074458
 30
0.0
 10
138.0301927951406
 20
119.2932092066741
 30
0.0
 10
137.8381526277162
 20
119.2948108291852
 30
0.0
 10
137.7535870752985
 20
119.2955161092015
 30
0.0
  0
SPLINE
  5
2D5
330
1F
100
AcDbEntity
  8
0
  6
Continuous
 62
     7
370
    30
100
AcDbSpline
210
0.0
220
0.0
230
1.0
 70
    24
 71
     3
 72
     9
 73
     5
 74
     0
 42
0.000000001
 43
0.00000001
 40
0.0
 40
0.0
 40
0.0
 40
0.0
 40
0.5598205095559966
 40
1.0
 40
1.0
 40
1.0
 40
1.0
 10
138.5123396897112
 20
118.5424602231327
 30
0.0
 10
138.5123396897106
 20
118.632937018865
 30
0.0
 10
138.5123396897096
 20
118.7945545269553
 30
0.0
 10
138.5123396897108
 20
118.9498446052169
 30
0.0
 10
138.5123396897114
 20
119.0182001127371
 30
0.0
  0
SPLINE
  5
2D6
330
1F
100
AcDbEntity
  8
0
  6
Continuous
 62
     7
370
    30
100
AcDbSpline
210
0.0
220
0.0
230
1.0
 70
    24
 71
     3
 72
     9
 73
     5
 74
     0
 42
0.000000001
 43
0.00000001
 40
0.0
 40
0.0
 40
0.0
 40
0.0
 40
0.4984444583729875
 40
1.0
 40
1.0
 40
1.0
 40
1.0
 10
138.5123396897114
 20
117.9417129704115
 30
0.0
 10
138.5123396897114
 20
118.0422906415391
 30
0.0
 10
138.5123396897114
 20
118.2440737478372
 30
0.0
 10
138.5123396897114
 20
118.4427919884858
 30
0.0
 10
138.5123396897114
 20
118.5424602233055
 30
0.0
  0
LINE
  5
2D7
330
1F
100
AcDbEntity
  8
0
  6
Continuous
 62
     7
370
    30
100
AcDbLine
 10
136.331503628
 20
118.2694385467
 30
0.0
 11
136.3249494629
 21
118.3201244458
 31
0.0
  0
LINE
  5
2D8
330
1F
100
AcDbEntity
  8
0
  6
Continuous
 62
     7
370
    30
100
AcDbLine
 10
136.586118105
 20
119.1921766906
 30
0.0
 11
136.6523832536
 21
119.2664265186
 31
0.0
  0
SPLINE
  5
2D9
330
1F
100
AcDbEntity
  8
0
  6
Continuous
 62
     7
370
    30
100
AcDbSpline
210
0.0
220
0.0
230
1.0
 70
     8
 71
     3
 72
    11
 73
     7
 74
     0
 42
0.000000001
 43
0.00000001
 40
0.0
 40
0.0
 40
0.0
 40
0.0
 40
0.2591394803711068
 40
0.5208747265108981
 40
0.7598953547788638
 40
1.0
 40
1.0
 40
1.0
 40
1.0
 10
137.7535870752724
 20
119.2955161104235
 30
0.0
 10
137.6591386991363
 20
119.2953684741114
 30
0.0
 10
137.4692958700203
 20
119.2950717226337
 30
0.0
 10
137.1886392837839
 20
119.2884128129917
 30
0.0
 10
136.9155864053577
 20
119.278819435024
 30
0.0
 10
136.7402498084675
 20
119.2705635844394
 30
0.0
 10
136.6523831612251
 20
119.2664263197504
 30
0.0
  0
SPLINE
  5
2DA
330
1F
100
AcDbEntity
  8
0
  6
Continuous
 62
     7
370
    30
100
AcDbSpline
210
0.0
220
0.0
230
1.0
 70
    24
 71
     3
 72
     9
 73
     5
 74
     0
 42
0.000000001
 43
0.00000001
 40
0.0
 40
0.0
 40
0.0
 40
0.0
 40
0.4982181358202519
 40
1.0
 40
1.0
 40
1.0
 40
1.0
 10
138.5123396897114
 20
122.1413799257928
 30
0.0
 10
138.5123396897114
 20
122.240381238533
 30
0.0
 10
138.5123396897114
 20
122.4390920152437
 30
0.0
 10
138.5123396897114
 20
122.6408757567251
 30
0.0
 10
138.5123396897114
 20
122.7421271786868
 30
0.0
  0
LINE
  5
2DB
330
1F
100
AcDbEntity
  8
0
  6
Continuous
 62
     7
370
    30
100
AcDbLine
 10
140.6931757514
 20
122.4144016024
 30
0.0
 11
140.6997299166
 21
122.3637157033
 31
0.0
  0
LINE
  5
2DC
330
1F
100
AcDbEntity
  8
0
  6
Continuous
 62
     7
370
    30
100
AcDbLine
 10
140.4385612745
 20
121.4916634585
 30
0.0
 11
140.372296242
 21
121.4174137502
 31
0.0
  0
SPLINE
  5
2DD
330
1F
100
AcDbEntity
  8
0
  6
Continuous
 62
     7
370
    30
100
AcDbSpline
210
0.0
220
0.0
230
1.0
 70
     8
 71
     3
 72
    11
 73
     7
 74
     0
 42
0.000000001
 43
0.00000001
 40
0.0
 40
0.0
 40
0.0
 40
0.0
 40
0.2805444149185896
 40
0.560243389630749
 40
0.7800081594686818
 40
1.0
 40
1.0
 40
1.0
 40
1.0
 10
140.3722961324622
 20
121.4174123109815
 30
0.0
 10
140.2695874226876
 20
121.4126112149703
 30
0.0
 10
140.0644795230153
 20
121.4030234913862
 30
0.0
 10
139.776607902011
 20
121.3937380575648
 30
0.0
 10
139.5113207763256
 20
121.3884999160955
 30
0.0
 10
139.3511960219072
 20
121.3883826869316
 30
0.0
 10
139.2710923040585
 20
121.3883240420837
 30
0.0
  0
SPLINE
  5
2DE
330
1F
100
AcDbEntity
  8
0
  6
Continuous
 62
     7
370
    30
100
AcDbSpline
210
0.0
220
0.0
230
1.0
 70
     8
 71
     3
 72
     9
 73
     5
 74
     0
 42
0.000000001
 43
0.00000001
 40
0.0
 40
0.0
 40
0.0
 40
0.0
 40
0.497405241529748
 40
1.0
 40
1.0
 40
1.0
 40
1.0
 10
139.2710923041502
 20
121.3883240386748
 30
0.0
 10
139.1756163840359
 20
121.389176339057
 30
0.0
 10
138.9836684266305
 20
121.3908898320223
 30
0.0
 10
138.8001466119867
 20
121.3978140883952
 30
0.0
 10
138.7079095098818
 20
121.4012941833545
 30
0.0
  0
SPLINE
  5
2DF
330
1F
100
AcDbEntity
  8
0
  6
Continuous
 62
     7
370
    30
100
AcDbSpline
210
0.0
220
0.0
230
1.0
 70
     8
 71
     3
 72
     9
 73
     5
 74
     0
 42
0.000000001
 43
0.00000001
 40
0.0
 40
0.0
 40
0.0
 40
0.0
 40
0.5007719380636858
 40
1.0
 40
1.0
 40
1.0
 40
1.0
 10
138.7079095465672
 20
121.4012941738257
 30
0.0
 10
138.6704845969411
 20
121.442021181064
 30
0.0
 10
138.5957500785278
 20
121.5233496344829
 30
0.0
 10
138.5401140300749
 20
121.6182585478402
 30
0.0
 10
138.5123389534319
 20
121.6656397407161
 30
0.0
  0
SPLINE
  5
2E0
330
1F
100
AcDbEntity
  8
0
  6
Continuous
 62
     7
370
    30
100
AcDbSpline
210
0.0
220
0.0
230
1.0
 70
    24
 71
     3
 72
     9
 73
     5
 74
     0
 42
0.000000001
 43
0.00000001
 40
0.0
 40
0.0
 40
0.0
 40
0.0
 40
0.5601023093689981
 40
1.0
 40
1.0
 40
1.0
 40
1.0
 10
138.51233968971
 20
121.6656400366585
 30
0.0
 10
138.5123396897106
 20
121.7528219282241
 30
0.0
 10
138.5123396897116
 20
121.9084754402829
 30
0.0
 10
138.5123396897114
 20
122.0702262799594
 30
0.0
 10
138.5123396897114
 20
122.1413801007908
 30
0.0
  0
LINE
  5
2E1
330
1F
100
AcDbEntity
  8
0
  6
Continuous
 62
     7
370
    30
100
AcDbLine
 10
136.6523829682
 20
121.4174130669
 30
0.0
 11
136.5861183207
 21
121.4916630583
 31
0.0
  0
LINE
  5
2E2
330
1F
100
AcDbEntity
  8
0
  6
Continuous
 62
     7
370
    30
100
AcDbLine
 10
136.3249488605
 20
122.3637161119
 30
0.0
 11
136.3315032006
 21
122.4144016346
 31
0.0
  0
SPLINE
  5
2E3
330
1F
100
AcDbEntity
  8
0
  6
Continuous
 62
     7
370
    30
100
AcDbSpline
210
0.0
220
0.0
230
1.0
 70
     8
 71
     3
 72
     9
 73
     5
 74
     0
 42
0.000000001
 43
0.00000001
 40
0.0
 40
0.0
 40
0.0
 40
0.0
 40
0.4994372108210817
 40
1.0
 40
1.0
 40
1.0
 40
1.0
 10
138.5123410473352
 20
121.6656393978566
 30
0.0
 10
138.4845529661671
 20
121.6182390679325
 30
0.0
 10
138.4289141780152
 20
121.5233315822724
 30
0.0
 10
138.3541793595367
 20
121.4420038372666
 30
0.0
 10
138.3167698903503
 20
121.4012941943889
 30
0.0
  0
SPLINE
  5
2E4
330
1F
100
AcDbEntity
  8
0
  6
Continuous
 62
     7
370
    30
100
AcDbSpline
210
0.0
220
0.0
230
1.0
 70
     8
 71
     3
 72
    11
 73
     7
 74
     0
 42
0.000000001
 43
0.00000001
 40
0.0
 40
0.0
 40
0.0
 40
0.0
 40
0.2798529629404087
 40
0.5600571313730821
 40
0.780226174264034
 40
1.0
 40
1.0
 40
1.0
 40
1.0
 10
137.1774215103026
 20
121.396285750386
 30
0.0
 10
137.2864150733593
 20
121.3935424284699
 30
0.0
 10
137.504538982509
 20
121.3880523418665
 30
0.0
 10
137.8051723423866
 20
121.3877759691003
 30
0.0
 10
138.0767336068922
 20
121.3922688373445
 30
0.0
 10
138.2368057116047
 20
121.3982875795756
 30
0.0
 10
138.3167698645778
 20
121.4012942472603
 30
0.0
  0
SPLINE
  5
2E5
330
1F
100
AcDbEntity
  8
0
  6
Continuous
 62
     7
370
    30
100
AcDbSpline
210
0.0
220
0.0
230
1.0
 70
     8
 71
     3
 72
     9
 73
     5
 74
     0
 42
0.000000001
 43
0.00000001
 40
0.0
 40
0.0
 40
0.0
 40
0.0
 40
0.4990293863291602
 40
1.0
 40
1.0
 40
1.0
 40
1.0
 10
136.6523831612251
 20
121.4174138293479
 30
0.0
 10
136.7393873014813
 20
121.4132758834201
 30
0.0
 10
136.9137340286276
 20
121.4049838949298
 30
0.0
 10
137.0894120046629
 20
121.3991888904839
 30
0.0
 10
137.1774215081257
 20
121.3962857635504
 30
0.0
  0
LINE
  5
2E6
330
1F
100
AcDbEntity
  8
0
  6
Continuous
 62
     7
370
    30
100
AcDbLine
 10
140.3722964112
 20
119.2664270822
 30
0.0
 11
140.438561256
 21
119.19217685
 31
0.0
  0
LINE
  5
2E7
330
1F
100
AcDbEntity
  8
0
  6
Continuous
 62
     7
370
    30
100
AcDbLine
 10
140.699730519
 20
118.3201240372
 30
0.0
 11
140.6931761788
 21
118.2694385145
 31
0.0
  0
SPLINE
  5
2E8
330
1F
100
AcDbEntity
  8
0
  6
Continuous
 62
     7
370
    30
100
AcDbSpline
210
0.0
220
0.0
230
1.0
 70
     8
 71
     3
 72
    13
 73
     9
 74
     0
 42
0.000000001
 43
0.00000001
 40
0.0
 40
0.0
 40
0.0
 40
0.0
 40
0.1808182060911754
 40
0.3635794344392008
 40
0.5255522887189459
 40
0.6889974199252149
 40
0.8441516942004422
 40
1.0
 40
1.0
 40
1.0
 40
1.0
 10
138.7079095098818
 20
119.2825459657438
 30
0.0
 10
138.8035757597103
 20
119.2860583139691
 30
0.0
 10
138.995936262336
 20
119.2931207531387
 30
0.0
 10
139.2859284748233
 20
119.2964383712549
 30
0.0
 10
139.57096291725
 20
119.2945441713191
 30
0.0
 10
139.8426118905771
 20
119.288243107531
 30
0.0
 10
140.1105696103786
 20
119.2787404179007
 30
0.0
 10
140.2849243192778
 20
119.2705371212766
 30
0.0
 10
140.3722962181976
 20
119.2664263197504
 30
0.0
  0
LINE
  5
2E9
330
1F
100
AcDbEntity
  8
0
  6
Continuous
 62
     7
370
    30
100
AcDbLine
 10
138.7079095917
 20
121.4012941526
 30
0.0
 11
138.5123395578
 21
121.2114407289
 31
0.0
  0
LINE
  5
2EA
330
1F
100
AcDbEntity
  8
0
  6
Continuous
 62
     7
370
    30
100
AcDbLine
 10
140.4614456205
 20
121.3432860008
 30
0.0
 11
140.3722962075
 21
121.4174138146
 31
0.0
  0
LINE
  5
2EB
330
1F
100
AcDbEntity
  8
0
  6
Continuous
 62
     7
370
    30
100
AcDbLine
 10
140.3722965214
 20
119.26642656
 30
0.0
 11
140.4614456665
 21
119.3405540958
 31
0.0
  0
SPLINE
  5
2EC
330
1F
100
AcDbEntity
  8
0
  6
Continuous
 62
     7
370
    30
100
AcDbSpline
210
0.0
220
0.0
230
1.0
 70
    24
 71
     3
 72
    14
 73
    10
 74
     0
 42
0.000000001
 43
0.00000001
 40
0.0
 40
0.0
 40
0.0
 40
0.0
 40
0.1872724093621159
 40
0.3764548587095027
 40
0.5024117858114283
 40
0.6283691242746258
 40
0.7578515384959544
 40
0.8873669350843458
 40
0.9999999999999999
 40
0.9999999999999999
 40
0.9999999999999999
 40
0.9999999999999999
 10
138.5123396897114
 20
121.2114405931192
 30
0.0
 10
138.5123396897114
 20
121.1050497716563
 30
0.0
 10
138.5123396897114
 20
120.8911830210857
 30
0.0
 10
138.5123396897114
 20
120.59734639508
 30
0.0
 10
138.5123396897114
 20
120.3375889342801
 30
0.0
 10
138.5123396897114
 20
120.1129017026636
 30
0.0
 10
138.5123396897114
 20
119.8879266178592
 30
0.0
 10
138.5123396897114
 20
119.6733453269431
 30
0.0
 10
138.5123396897114
 20
119.5361941348398
 30
0.0
 10
138.5123396897114
 20
119.4723995559791
 30
0.0
  0
LINE
  5
2ED
330
1F
100
AcDbEntity
  8
0
  6
Continuous
 62
     7
370
    30
100
AcDbLine
 10
136.6523831565
 20
119.2664263463
 30
0.0
 11
136.5632337589
 21
119.3405541483
 31
0.0
  0
LINE
  5
2EE
330
1F
100
AcDbEntity
  8
0
  6
Continuous
 62
     7
370
    30
100
AcDbLine
 10
136.5632337129
 20
121.3432860533
 30
0.0
 11
136.6523831656
 21
121.4174138233
 31
0.0
  0
LINE
  5
2EF
330
1F
100
AcDbEntity
  8
0
  6
Continuous
 62
     7
370
    30
100
AcDbLine
 10
138.3167697984
 20
121.4012940735
 30
0.0
 11
138.5123396786
 21
121.2114407088
 31
0.0
  0
HATCH
  5
2F0
330
1F
100
AcDbEntity
  8
0
  6
Continuous
 62
     7
370
     0
100
AcDbHatch
 10
0.0
 20
0.0
 30
0.0
210
0.0
220
0.0
230
1.0
  2
ANSI31
 70
     0
 71
     0
 91
        2
 92
        0
 93
        1
 72
     2
 10
138.5123396897114
 20
120.3419200745492
 40
4.808057819884392
 50
0.0
 51
360.0
 73
     1
 97
        0
 92
        0
 93
        8
 72
     2
 10
134.9266306548225
 20
117.9685910377073
 40
0.2788908848284596
 50
316.0187054628111
 51
470.9812945371977
 73
     1
 72
     2
 10
138.5123396897114
 20
120.3419200745492
 40
4.248281250000001
 50
150.1744427314988
 51
209.825557268502
 73
     0
 72
     2
 10
134.9266306548225
 20
122.715249111391
 40
0.2788908848284596
 50
249.0187054628039
 51
403.9812945371953
 73
     1
 72
     2
 10
138.5123396897114
 20
120.3419200745492
 40
4.248281250000001
 50
217.1744427314994
 51
322.8255572685022
 73
     0
 72
     2
 10
142.0980487246002
 20
122.715249111391
 40
0.2788908848284596
 50
136.0187054628056
 51
290.9812945362293
 73
     1
 72
     2
 10
138.5123396897114
 20
120.3419200745492
 40
4.248281250000001
 50
330.1744427314896
 51
389.825557268502
 73
     0
 72
     2
 10
142.0980487246002
 20
117.9685910377073
 40
0.2788908848284596
 50
69.01870546280313
 51
223.9812945371952
 73
     1
 72
     2
 10
138.5123396897114
 20
120.3419200745492
 40
4.248281250000001
 50
37.1744427314986
 51
142.8255572685033
 73
     0
 97
        0
 75
     0
 76
     1
 52
0.0
 41
1.0
 77
     0
 78
     1
 53
45.0
 43
0.0
 44
0.0
 45
-2.245064030267288
 46
2.245064030267288
 79
     0
 98
        1
 10
0.0
 20
0.0
  0
INSERT
  5
2F7
330
1F
100
AcDbEntity
  8
0
  6
Continuous
 62
     7
370
     0
100
AcDbBlockReference
  2
SW_NOTE_7
 10
125.2269235113
 20
107.8430175359
 30
0.0
  0
ENDSEC
  0
SECTION
  2
OBJECTS
  0
DICTIONARY
  5
C
330
0
100
AcDbDictionary
281
     1
  3
ACAD_GROUP
350
D
  3
ACAD_LAYOUT
350
1A
  3
ACAD_MLINESTYLE
350
17
  3
ACAD_PLOTSETTINGS
350
19
  3
ACAD_PLOTSTYLENAME
350
E
  3
ACAD_SCALELIST
350
47
  0
DICTIONARY
  5
D
102
{ACAD_REACTORS
330
C
102
}
330
C
100
AcDbDictionary
281
     1
  0
DICTIONARY
  5
1A
102
{ACAD_REACTORS
330
C
102
}
330
C
100
AcDbDictionary
281
     1
  3
Layout1
350
1E
  3
Layout2
350
26
  3
Model
350
22
  0
DICTIONARY
  5
17
102
{ACAD_REACTORS
330
C
102
}
330
C
100
AcDbDictionary
281
     1
  3
Standard
350
18
  0
DICTIONARY
  5
19
102
{ACAD_REACTORS
330
C
102
}
330
C
100
AcDbDictionary
281
     1
  0
ACDBDICTIONARYWDFLT
  5
E
102
{ACAD_REACTORS
330
C
102
}
330
C
100
AcDbDictionary
281
     1
  3
Normal
350
F
100
AcDbDictionaryWithDefault
340
F
  0
DICTIONARY
  5
47
102
{ACAD_REACTORS
330
C
102
}
330
C
100
AcDbDictionary
281
     1
  3
A0
350
48
  3
A1
350
49
  3
A2
350
4A
  3
A3
350
4B
  3
A4
350
4C
  3
A5
350
4D
  3
A6
350
4E
  3
A7
350
4F
  3
A8
350
50
  3
A9
350
51
  3
B0
350
52
  3
B1
350
53
  3
B2
350
54
  3
B3
350
55
  3
B4
350
56
  3
B5
350
57
  3
B6
350
58
  3
B7
350
59
  3
B8
350
5A
  3
B9
350
5B
  3
C0
350
5C
  3
C1
350
5D
  3
C2
350
5E
  3
C3
350
5F
  3
C4
350
60
  3
C5
350
61
  3
C6
350
62
  3
C7
350
63
  3
C8
350
64
  3
C9
350
65
  3
D0
350
66
  3
D1
350
67
  3
D2
350
68
  0
LAYOUT
  5
1E
102
{ACAD_REACTORS
330
1A
102
}
330
1A
100
AcDbPlotSettings
  1

  2
none_device
  4

  6

 40
0.0
 41
0.0
 42
0.0
 43
0.0
 44
0.0
 45
0.0
 46
0.0
 47
0.0
 48
0.0
 49
0.0
140
0.0
141
0.0
142
1.0
143
1.0
 70
   688
 72
     1
 73
     0
 74
     5
  7

 75
    16
147
1.0
148
0.0
149
0.0
100
AcDbLayout
  1
Layout1
 70
     1
 71
     1
 10
0.0
 20
0.0
 11
420.0
 21
297.0
 12
0.0
 22
0.0
 32
0.0
 14
1.0000000000E+20
 24
1.0000000000E+20
 34
1.0000000000E+20
 15
-1.0000000000E+20
 25
-1.0000000000E+20
 35
-1.0000000000E+20
146
0.0
 13
0.0
 23
0.0
 33
0.0
 16
1.0
 26
0.0
 36
0.0
 17
0.0
 27
1.0
 37
0.0
 76
     0
330
1B
  0
LAYOUT
  5
26
102
{ACAD_REACTORS
330
1A
102
}
330
1A
100
AcDbPlotSettings
  1

  2
none_device
  4

  6

 40
0.0
 41
0.0
 42
0.0
 43
0.0
 44
0.0
 45
0.0
 46
0.0
 47
0.0
 48
0.0
 49
0.0
140
0.0
141
0.0
142
1.0
143
1.0
 70
   688
 72
     1
 73
     0
 74
     5
  7

 75
    16
147
1.0
148
0.0
149
0.0
100
AcDbLayout
  1
Layout2
 70
     1
 71
     2
 10
0.0
 20
0.0
 11
0.0
 21
0.0
 12
0.0
 22
0.0
 32
0.0
 14
0.0
 24
0.0
 34
0.0
 15
0.0
 25
0.0
 35
0.0
146
0.0
 13
0.0
 23
0.0
 33
0.0
 16
1.0
 26
0.0
 36
0.0
 17
0.0
 27
1.0
 37
0.0
 76
     0
330
23
  0
LAYOUT
  5
22
102
{ACAD_REACTORS
330
1A
102
}
330
1A
100
AcDbPlotSettings
  1

  2
none_device
  4
Letter_(8.50_x_11.00_Inches)
  6

 40
6.35
 41
6.35
 42
6.35000508
 43
6.35000508
 44
215.9
 45
279.4
 46
0.0
 47
0.0
 48
0.0
 49
0.0
140
0.0
141
0.0
142
1.0
143
1.0
 70
  1712
 72
     1
 73
     0
 74
     0
  7

 75
     0
147
1.0
148
0.0
149
0.0
100
AcDbLayout
  1
Model
 70
     1
 71
     0
 10
0.0
 20
0.0
 11
210.0
 21
297.0
 12
0.0
 22
0.0
 32
0.0
 14
0.0
 24
0.0
 34
0.0
 15
210.0
 25
297.0
 35
0.0
146
0.0
 13
0.0
 23
0.0
 33
0.0
 16
1.0
 26
0.0
 36
0.0
 17
0.0
 27
1.0
 37
0.0
 76
     0
330
1F
331
29
  0
MLINESTYLE
  5
18
102
{ACAD_REACTORS
330
17
102
}
330
17
100
AcDbMlineStyle
  2
Standard
 70
     0
  3

 62
   256
 51
90.0
 52
90.0
 71
     2
 49
0.5
 62
   256
  6
BYLAYER
 49
-0.5
 62
   256
  6
BYLAYER
  0
ACDBPLACEHOLDER
  5
F
102
{ACAD_REACTORS
330
E
102
}
330
E
  0
SCALE
  5
48
102
{ACAD_REACTORS
330
47
102
}
330
47
100
AcDbScale
 70
     0
300
1:1
140
1.0
141
1.0
290
     1
  0
SCALE
  5
49
102
{ACAD_REACTORS
330
47
102
}
330
47
100
AcDbScale
 70
     0
300
1:2
140
1.0
141
2.0
290
     0
  0
SCALE
  5
4A
102
{ACAD_REACTORS
330
47
102
}
330
47
100
AcDbScale
 70
     0
300
1:4
140
1.0
141
4.0
290
     0
  0
SCALE
  5
4B
102
{ACAD_REACTORS
330
47
102
}
330
47
100
AcDbScale
 70
     0
300
1:5
140
1.0
141
5.0
290
     0
  0
SCALE
  5
4C
102
{ACAD_REACTORS
330
47
102
}
330
47
100
AcDbScale
 70
     0
300
1:8
140
1.0
141
8.0
290
     0
  0
SCALE
  5
4D
102
{ACAD_REACTORS
330
47
102
}
330
47
100
AcDbScale
 70
     0
300
1:10
140
1.0
141
10.0
290
     0
  0
SCALE
  5
4E
102
{ACAD_REACTORS
330
47
102
}
330
47
100
AcDbScale
 70
     0
300
1:16
140
1.0
141
16.0
290
     0
  0
SCALE
  5
4F
102
{ACAD_REACTORS
330
47
102
}
330
47
100
AcDbScale
 70
     0
300
1:20
140
1.0
141
20.0
290
     0
  0
SCALE
  5
50
102
{ACAD_REACTORS
330
47
102
}
330
47
100
AcDbScale
 70
     0
300
1:30
140
1.0
141
30.0
290
     0
  0
SCALE
  5
51
102
{ACAD_REACTORS
330
47
102
}
330
47
100
AcDbScale
 70
     0
300
1:40
140
1.0
141
40.0
290
     0
  0
SCALE
  5
52
102
{ACAD_REACTORS
330
47
102
}
330
47
100
AcDbScale
 70
     0
300
1:50
140
1.0
141
50.0
290
     0
  0
SCALE
  5
53
102
{ACAD_REACTORS
330
47
102
}
330
47
100
AcDbScale
 70
     0
300
1:100
140
1.0
141
100.0
290
     0
  0
SCALE
  5
54
102
{ACAD_REACTORS
330
47
102
}
330
47
100
AcDbScale
 70
     0
300
2:1
140
2.0
141
1.0
290
     0
  0
SCALE
  5
55
102
{ACAD_REACTORS
330
47
102
}
330
47
100
AcDbScale
 70
     0
300
4:1
140
4.0
141
1.0
290
     0
  0
SCALE
  5
56
102
{ACAD_REACTORS
330
47
102
}
330
47
100
AcDbScale
 70
     0
300
8:1
140
8.0
141
1.0
290
     0
  0
SCALE
  5
57
102
{ACAD_REACTORS
330
47
102
}
330
47
100
AcDbScale
 70
     0
300
10:1
140
10.0
141
1.0
290
     0
  0
SCALE
  5
58
102
{ACAD_REACTORS
330
47
102
}
330
47
100
AcDbScale
 70
     0
300
100:1
140
100.0
141
1.0
290
     0
  0
SCALE
  5
59
102
{ACAD_REACTORS
330
47
102
}
330
47
100
AcDbScale
 70
     0
300
1/128" = 1'-0"
140
0.0078125
141
12.0
290
     0
  0
SCALE
  5
5A
102
{ACAD_REACTORS
330
47
102
}
330
47
100
AcDbScale
 70
     0
300
1/64" = 1'-0"
140
0.015625
141
12.0
290
     0
  0
SCALE
  5
5B
102
{ACAD_REACTORS
330
47
102
}
330
47
100
AcDbScale
 70
     0
300
1/32" = 1'-0"
140
0.03125
141
12.0
290
     0
  0
SCALE
  5
5C
102
{ACAD_REACTORS
330
47
102
}
330
47
100
AcDbScale
 70
     0
300
1/16" = 1'-0"
140
0.0625
141
12.0
290
     0
  0
SCALE
  5
5D
102
{ACAD_REACTORS
330
47
102
}
330
47
100
AcDbScale
 70
     0
300
3/32" = 1'-0"
140
0.09375
141
12.0
290
     0
  0
SCALE
  5
5E
102
{ACAD_REACTORS
330
47
102
}
330
47
100
AcDbScale
 70
     0
300
1/8" = 1'-0"
140
0.125
141
12.0
290
     0
  0
SCALE
  5
5F
102
{ACAD_REACTORS
330
47
102
}
330
47
100
AcDbScale
 70
     0
300
3/16" = 1'-0"
140
0.1875
141
12.0
290
     0
  0
SCALE
  5
60
102
{ACAD_REACTORS
330
47
102
}
330
47
100
AcDbScale
 70
     0
300
1/4" = 1'-0"
140
0.25
141
12.0
290
     0
  0
SCALE
  5
61
102
{ACAD_REACTORS
330
47
102
}
330
47
100
AcDbScale
 70
     0
300
3/8" = 1'-0"
140
0.375
141
12.0
290
     0
  0
SCALE
  5
62
102
{ACAD_REACTORS
330
47
102
}
330
47
100
AcDbScale
 70
     0
300
1/2" = 1'-0"
140
0.5
141
12.0
290
     0
  0
SCALE
  5
63
102
{ACAD_REACTORS
330
47
102
}
330
47
100
AcDbScale
 70
     0
300
3/4" = 1'-0"
140
0.75
141
12.0
290
     0
  0
SCALE
  5
64
102
{ACAD_REACTORS
330
47
102
}
330
47
100
AcDbScale
 70
     0
300
1" = 1'-0"
140
1.0
141
12.0
290
     0
  0
SCALE
  5
65
102
{ACAD_REACTORS
330
47
102
}
330
47
100
AcDbScale
 70
     0
300
1-1/2" = 1'-0"
140
1.5
141
12.0
290
     0
  0
SCALE
  5
66
102
{ACAD_REACTORS
330
47
102
}
330
47
100
AcDbScale
 70
     0
300
3" = 1'-0"
140
3.0
141
12.0
290
     0
  0
SCALE
  5
67
102
{ACAD_REACTORS
330
47
102
}
330
47
100
AcDbScale
 70
     0
300
6" = 1'-0"
140
6.0
141
12.0
290
     0
  0
SCALE
  5
68
102
{ACAD_REACTORS
330
47
102
}
330
47
100
AcDbScale
 70
     0
300
1'-0" = 1'-0"
140
12.0
141
12.0
290
     0
  0
ENDSEC
  0
EOF
