  0
SECTION
  2
HEADER
  9
$ACADVER
  1
AC1015
  9
$ACADMAINTVER
 70
     6
  9
$DWGCODEPAGE
  3
DOS932
  9
$INSBASE
 10
0.0
 20
0.0
 30
0.0
  9
$EXTMIN
 10
0.0
 20
0.0
 30
0.0
  9
$EXTMAX
 10
210.0
 20
297.0
 30
0.0
  9
$LIMMIN
 10
0.0
 20
0.0
  9
$LIMMAX
 10
210.0
 20
297.0
  9
$ORTHOMODE
 70
     0
  9
$REGENMODE
 70
     1
  9
$FILLMODE
 70
     1
  9
$QTEXTMODE
 70
     0
  9
$MIRRTEXT
 70
     1
  9
$LTSCALE
 40
1.0
  9
$ATTMODE
 70
     1
  9
$TEXTSIZE
 40
3.5
  9
$TRACEWID
 40
1.0
  9
$TEXTSTYLE
  7
Standard
  9
$CLAYER
  8
0
  9
$CELTYPE
  6
ByLayer
  9
$CECOLOR
 62
   256
  9
$CELTSCALE
 40
1.0
  9
$DISPSILH
 70
     0
  9
$DIMSCALE
 40
1.0
  9
$DIMASZ
 40
1.5
  9
$DIMEXO
 40
1.0
  9
$DIMDLI
 40
3.75
  9
$DIMRND
 40
0.0
  9
$DIMDLE
 40
0.0
  9
$DIMEXE
 40
1.0
  9
$DIMTP
 40
0.0
  9
$DIMTM
 40
0.0
  9
$DIMTXT
 40
3.5
  9
$DIMCEN
 40
2.5
  9
$DIMTSZ
 40
0.0
  9
$DIMTOL
 70
     0
  9
$DIMLIM
 70
     0
  9
$DIMTIH
 70
     1
  9
$DIMTOH
 70
     1
  9
$DIMSE1
 70
     0
  9
$DIMSE2
 70
     0
  9
$DIMTAD
 70
     1
  9
$DIMZIN
 70
     0
  9
$DIMBLK
  1

  9
$DIMASO
 70
     1
  9
$DIMSHO
 70
     1
  9
$DIMPOST
  1

  9
$DIMAPOST
  1

  9
$DIMALT
 70
     0
  9
$DIMALTD
 70
     3
  9
$DIMALTF
 40
0.0393700787
  9
$DIMLFAC
 40
1.0
  9
$DIMTOFL
 70
     1
  9
$DIMTVP
 40
0.0
  9
$DIMTIX
 70
     0
  9
$DIMSOXD
 70
     0
  9
$DIMSAH
 70
     0
  9
$DIMBLK1
  1

  9
$DIMBLK2
  1

  9
$DIMSTYLE
  2
ISO-25
  9
$DIMCLRD
 70
     0
  9
$DIMCLRE
 70
     0
  9
$DIMCLRT
 70
     0
  9
$DIMTFAC
 40
1.0
  9
$DIMGAP
 40
1.524
  9
$DIMJUST
 70
     0
  9
$DIMSD1
 70
     0
  9
$DIMSD2
 70
     0
  9
$DIMTOLJ
 70
     0
  9
$DIMTZIN
 70
     0
  9
$DIMALTZ
 70
     0
  9
$DIMALTTZ
 70
     0
  9
$DIMUPT
 70
     0
  9
$DIMDEC
 70
     1
  9
$DIMTDEC
 70
     1
  9
$DIMALTU
 70
     2
  9
$DIMALTTD
 70
     3
  9
$DIMTXSTY
  7
Standard
  9
$DIMAUNIT
 70
     0
  9
$DIMADEC
 70
     1
  9
$DIMALTRND
 40
0.0
  9
$DIMAZIN
 70
     0
  9
$DIMDSEP
 70
    44
  9
$DIMATFIT
 70
     3
  9
$DIMFRAC
 70
     0
  9
$DIMLDRBLK
  1

  9
$DIMLUNIT
 70
     2
  9
$DIMLWD
 70
    -2
  9
$DIMLWE
 70
    -2
  9
$DIMTMOVE
 70
     0
  9
$LUNITS
 70
     2
  9
$LUPREC
 70
     2
  9
$SKETCHINC
 40
1.0
  9
$FILLETRAD
 40
10.0
  9
$AUNITS
 70
     0
  9
$AUPREC
 70
     2
  9
$MENU
  1
.
  9
$ELEVATION
 40
0.0
  9
$PELEVATION
 40
0.0
  9
$THICKNESS
 40
0.0
  9
$LIMCHECK
 70
     0
  9
$CHAMFERA
 40
0.0
  9
$CHAMFERB
 40
0.0
  9
$CHAMFERC
 40
0.0
  9
$CHAMFERD
 40
0.0
  9
$SKPOLY
 70
     0
  9
$TDCREATE
 40
2458131.643366065
  9
$TDUCREATE
 40
2458131.601699398
  9
$TDUPDATE
 40
2458131.643368843
  9
$TDUUPDATE
 40
2458131.601702176
  9
$TDINDWG
 40
0.0000000116
  9
$TDUSRTIMER
 40
0.0000000116
  9
$USRTIMER
 70
     1
  9
$ANGBASE
 50
0.0
  9
$ANGDIR
 70
     0
  9
$PDMODE
 70
     0
  9
$PDSIZE
 40
-1.0
  9
$PLINEWID
 40
0.0
  9
$SPLFRAME
 70
     0
  9
$SPLINETYPE
 70
     6
  9
$SPLINESEGS
 70
     8
  9
$HANDSEED
  5
3FB
  9
$SURFTAB1
 70
     6
  9
$SURFTAB2
 70
     6
  9
$SURFTYPE
 70
     6
  9
$SURFU
 70
     6
  9
$SURFV
 70
     6
  9
$UCSBASE
  2

  9
$UCSNAME
  2

  9
$UCSORG
 10
0.0
 20
0.0
 30
0.0
  9
$UCSXDIR
 10
1.0
 20
0.0
 30
0.0
  9
$UCSYDIR
 10
0.0
 20
1.0
 30
0.0
  9
$UCSORTHOREF
  2

  9
$UCSORTHOVIEW
 70
     0
  9
$UCSORGTOP
 10
0.0
 20
0.0
 30
0.0
  9
$UCSORGBOTTOM
 10
0.0
 20
0.0
 30
0.0
  9
$UCSORGLEFT
 10
0.0
 20
0.0
 30
0.0
  9
$UCSORGRIGHT
 10
0.0
 20
0.0
 30
0.0
  9
$UCSORGFRONT
 10
0.0
 20
0.0
 30
0.0
  9
$UCSORGBACK
 10
0.0
 20
0.0
 30
0.0
  9
$PUCSBASE
  2

  9
$PUCSNAME
  2

  9
$PUCSORG
 10
0.0
 20
0.0
 30
0.0
  9
$PUCSXDIR
 10
1.0
 20
0.0
 30
0.0
  9
$PUCSYDIR
 10
0.0
 20
1.0
 30
0.0
  9
$PUCSORTHOREF
  2

  9
$PUCSORTHOVIEW
 70
     0
  9
$PUCSORGTOP
 10
0.0
 20
0.0
 30
0.0
  9
$PUCSORGBOTTOM
 10
0.0
 20
0.0
 30
0.0
  9
$PUCSORGLEFT
 10
0.0
 20
0.0
 30
0.0
  9
$PUCSORGRIGHT
 10
0.0
 20
0.0
 30
0.0
  9
$PUCSORGFRONT
 10
0.0
 20
0.0
 30
0.0
  9
$PUCSORGBACK
 10
0.0
 20
0.0
 30
0.0
  9
$USERI1
 70
     0
  9
$USERI2
 70
     0
  9
$USERI3
 70
     0
  9
$USERI4
 70
     0
  9
$USERI5
 70
     0
  9
$USERR1
 40
0.0
  9
$USERR2
 40
0.0
  9
$USERR3
 40
0.0
  9
$USERR4
 40
0.0
  9
$USERR5
 40
0.0
  9
$WORLDVIEW
 70
     1
  9
$SHADEDGE
 70
     3
  9
$SHADEDIF
 70
    70
  9
$TILEMODE
 70
     1
  9
$MAXACTVP
 70
    64
  9
$PINSBASE
 10
0.0
 20
0.0
 30
0.0
  9
$PLIMCHECK
 70
     0
  9
$PEXTMIN
 10
1.0000000000E+20
 20
1.0000000000E+20
 30
1.0000000000E+20
  9
$PEXTMAX
 10
-1.0000000000E+20
 20
-1.0000000000E+20
 30
-1.0000000000E+20
  9
$PLIMMIN
 10
0.0
 20
0.0
  9
$PLIMMAX
 10
420.0
 20
297.0
  9
$UNITMODE
 70
     0
  9
$VISRETAIN
 70
     1
  9
$PLINEGEN
 70
     0
  9
$PSLTSCALE
 70
     1
  9
$TREEDEPTH
 70
  3020
  9
$CMLSTYLE
  2
Standard
  9
$CMLJUST
 70
     0
  9
$CMLSCALE
 40
20.0
  9
$PROXYGRAPHICS
 70
     1
  9
$MEASUREMENT
 70
     1
  9
$CELWEIGHT
370
    -1
  9
$ENDCAPS
280
     0
  9
$JOINSTYLE
280
     0
  9
$LWDISPLAY
290
     1
  9
$INSUNITS
 70
     4
  9
$HYPERLINKBASE
  1

  9
$STYLESHEET
  1

  9
$XEDIT
290
     1
  9
$CEPSNTYPE
380
     0
  9
$PSTYLEMODE
290
     1
  9
$FINGERPRINTGUID
  2
{E56E848D-66B5-4890-93C8-7E7393EC5D6A}
  9
$VERSIONGUID
  2
{FAEB1C32-E019-11D5-929B-00C0DF256EC4}
  9
$EXTNAMES
290
     1
  9
$PSVPSCALE
 40
0.0
  9
$OLESTARTUP
290
     0
  0
ENDSEC
  0
SECTION
  2
CLASSES
  0
CLASS
  1
ACDBDICTIONARYWDFLT
  2
AcDbDictionaryWithDefault
  3
ObjectDBX Classes
 90
        0
280
     0
281
     0
  0
CLASS
  1
VISUALSTYLE
  2
AcDbVisualStyle
  3
ObjectDBX Classes
 90
     4095
280
     0
281
     0
  0
CLASS
  1
MATERIAL
  2
AcDbMaterial
  3
ObjectDBX Classes
 90
     1153
280
     0
281
     0
  0
CLASS
  1
SCALE
  2
AcDbScale
  3
ObjectDBX Classes
 90
     1153
280
     0
281
     0
  0
CLASS
  1
SUN
  2
AcDbSun
  3
SCENEOE
 90
     1153
280
     0
281
     0
  0
CLASS
  1
ACDBPLACEHOLDER
  2
AcDbPlaceHolder
  3
ObjectDBX Classes
 90
        0
280
     0
281
     0
  0
CLASS
  1
LAYOUT
  2
AcDbLayout
  3
ObjectDBX Classes
 90
        0
280
     0
281
     0
  0
ENDSEC
  0
SECTION
  2
TABLES
  0
TABLE
  2
VPORT
  5
8
330
0
100
AcDbSymbolTable
 70
     1
  0
VPORT
  5
29
330
8
100
AcDbSymbolTableRecord
100
AcDbViewportTableRecord
  2
*Active
 70
     0
 10
0.0
 20
0.0
 11
1.0
 21
1.0
 12
105.0
 22
148.5
 13
0.0
 23
0.0
 14
10.0
 24
10.0
 15
10.0
 25
10.0
 16
0.0
 26
0.0
 36
1.0
 17
0.0
 27
0.0
 37
0.0
 40
297.0
 41
0.7070707071
 42
50.0
 43
0.0
 44
0.0
 50
0.0
 51
0.0
 71
     0
 72
  2000
 73
     1
 74
     3
 75
     0
 76
     0
 77
     0
 78
     0
281
     0
 65
     1
110
0.0
120
0.0
130
0.0
111
1.0
121
0.0
131
0.0
112
0.0
122
1.0
132
0.0
 79
     0
146
0.0
  0
ENDTAB
  0
TABLE
  2
LTYPE
  5
5
330
0
100
AcDbSymbolTable
 70
     6
  0
LTYPE
  5
14
330
5
100
AcDbSymbolTableRecord
100
AcDbLinetypeTableRecord
  2
ByBlock
 70
     0
  3

 72
    65
 73
     0
 40
0.0
  0
LTYPE
  5
15
330
5
100
AcDbSymbolTableRecord
100
AcDbLinetypeTableRecord
  2
ByLayer
 70
     0
  3

 72
    65
 73
     0
 40
0.0
  0
LTYPE
  5
16
330
5
100
AcDbSymbolTableRecord
100
AcDbLinetypeTableRecord
  2
Continuous
 70
     0
  3
Solid line
 72
    65
 73
     0
 40
0.0
  0
LTYPE
  5
6A
330
5
100
AcDbSymbolTableRecord
100
AcDbLinetypeTableRecord
  2
HIDDEN
 70
     0
  3
Hidden __ __ __ __ __ __ __ __ __ __ __ __ __ __
 72
    65
 73
     2
 40
1.905
 49
1.27
 74
     0
 49
-0.635
 74
     0
  0
LTYPE
  5
6B
330
5
100
AcDbSymbolTableRecord
100
AcDbLinetypeTableRecord
  2
PHANTOM
 70
     0
  3
Phantom ______  __  __  ______  __  __  ______
 72
    65
 73
     6
 40
12.7
 49
6.35
 74
     0
 49
-1.27
 74
     0
 49
1.27
 74
     0
 49
-1.27
 74
     0
 49
1.27
 74
     0
 49
-1.27
 74
     0
  0
LTYPE
  5
6C
330
5
100
AcDbSymbolTableRecord
100
AcDbLinetypeTableRecord
  2
CENTER
 70
     0
  3
Center ____ _ ____ _ ____ _ ____ _ ____ _ ____
 72
    65
 73
     4
 40
10.16
 49
6.35
 74
     0
 49
-1.27
 74
     0
 49
1.27
 74
     0
 49
-1.27
 74
     0
  0
LTYPE
  5
6D
330
5
100
AcDbSymbolTableRecord
100
AcDbLinetypeTableRecord
  2
CENTERX2
 70
     0
  3
Center (2x) ________  __  ________  __  _____
 72
    65
 73
     4
 40
20.32
 49
12.7
 74
     0
 49
-2.54
 74
     0
 49
2.54
 74
     0
 49
-2.54
 74
     0
  0
LTYPE
  5
6E
330
5
100
AcDbSymbolTableRecord
100
AcDbLinetypeTableRecord
  2
DOT2
 70
     0
  3
Dot (.5x) ........................................
 72
    65
 73
     2
 40
0.635
 49
0.0
 74
     0
 49
-0.635
 74
     0
  0
ENDTAB
  0
TABLE
  2
LAYER
  5
2
330
0
100
AcDbSymbolTable
 70
     1
  0
LAYER
  5
10
330
2
100
AcDbSymbolTableRecord
100
AcDbLayerTableRecord
  2
0
 70
     0
 62
     7
  6
Continuous
370
    -3
390
F
  0
ENDTAB
  0
TABLE
  2
STYLE
  5
3
330
0
100
AcDbSymbolTable
 70
     4
  0
STYLE
  5
11
330
3
100
AcDbSymbolTableRecord
100
AcDbTextStyleTableRecord
  2
Standard
 70
     0
 40
0.0
 41
1.0
 50
0.0
 71
     0
 42
3.5
  3
txt
  4
bigfont
  0
STYLE
  5
87
330
3
100
AcDbSymbolTableRecord
100
AcDbTextStyleTableRecord
  2
SLDTEXTSTYLE0
 70
     0
 40
0.0
 41
0.7
 50
0.0
 71
     0
 42
3.5
  3
TXT
  4
bigfont
  0
STYLE
  5
E9
330
3
100
AcDbSymbolTableRecord
100
AcDbTextStyleTableRecord
  2
SLDTEXTSTYLE1
 70
     0
 40
0.0
 41
0.6090909091
 50
0.0
 71
     0
 42
3.5
  3
TXT
  4
bigfont
  0
STYLE
  5
3F7
330
3
100
AcDbSymbolTableRecord
100
AcDbTextStyleTableRecord
  2
SLDTEXTSTYLE2
 70
     0
 40
0.0
 41
0.75
 50
0.0
 71
     0
 42
3.5
  3
TXT
  4
bigfont
  0
ENDTAB
  0
TABLE
  2
VIEW
  5
6
330
0
100
AcDbSymbolTable
 70
     0
  0
ENDTAB
  0
TABLE
  2
UCS
  5
7
330
0
100
AcDbSymbolTable
 70
     0
  0
ENDTAB
  0
TABLE
  2
APPID
  5
9
330
0
100
AcDbSymbolTable
 70
     1
  0
APPID
  5
12
330
9
100
AcDbSymbolTableRecord
100
AcDbRegAppTableRecord
  2
ACAD
 70
     0
  0
ENDTAB
  0
TABLE
  2
DIMSTYLE
  5
A
330
0
100
AcDbSymbolTable
 70
    14
100
AcDbDimStyleTable
  0
DIMSTYLE
105
27
330
A
100
AcDbSymbolTableRecord
100
AcDbDimStyleTableRecord
  2
ISO-25
 70
     0
 41
2.5
 42
0.625
 43
3.75
 44
1.25
 73
     0
 74
     0
 77
     1
 78
     8
140
2.5
141
2.5
143
0.0393700787
147
0.625
171
     3
172
     1
178
     0
271
     2
272
     2
274
     3
278
    44
283
     0
284
     8
340
11
  0
DIMSTYLE
105
88
102
{ACAD_REACTORS
330
86
102
}
330
A
100
AcDbSymbolTableRecord
100
AcDbDimStyleTableRecord
  2
SLDDIMSTYLE0
 70
     0
 41
1.5
 44
0.0
 45
0.000000001
 78
    12
 79
     3
140
3.5
141
0.0
147
0.875
172
     1
173
     1
178
     0
271
     1
272
     1
276
     2
284
    12
340
87
341
89
343
89
344
8C
  0
DIMSTYLE
105
9D
102
{ACAD_REACTORS
330
9C
330
A7
102
}
330
A
100
AcDbSymbolTableRecord
100
AcDbDimStyleTableRecord
  2
SLDDIMSTYLE1
 70
     0
 41
1.5
 44
0.0
 73
     0
 74
     0
 77
     3
 78
    12
 79
     3
140
3.5
147
0.875
173
     1
178
     0
179
     2
272
     2
276
     2
284
    12
340
87
341
8C
343
8C
344
8C
  0
DIMSTYLE
105
B2
102
{ACAD_REACTORS
330
B1
102
}
330
A
100
AcDbSymbolTableRecord
100
AcDbDimStyleTableRecord
  2
SLDDIMSTYLE2
 70
     0
 41
1.5
 44
0.0
 45
0.000000001
 47
0.1
 71
     1
 78
     8
 79
     2
140
3.5
141
0.0
147
0.875
172
     1
173
     1
178
     0
271
     1
272
     1
276
     2
284
     8
340
87
341
89
343
89
344
8C
  0
DIMSTYLE
105
14C
102
{ACAD_REACTORS
330
14B
330
156
330
170
330
195
330
363
102
}
330
A
100
AcDbSymbolTableRecord
100
AcDbDimStyleTableRecord
  2
SLDDIMSTYLE3
 70
     0
 41
1.5
 44
0.0
 45
0.000000001
 73
     0
 74
     0
 77
     3
 78
    12
 79
     3
140
3.5
147
0.875
173
     1
178
     0
271
     1
272
     1
276
     2
284
    12
340
87
341
8C
343
8C
344
8C
  0
DIMSTYLE
105
163
102
{ACAD_REACTORS
330
162
330
270
102
}
330
A
100
AcDbSymbolTableRecord
100
AcDbDimStyleTableRecord
  2
SLDDIMSTYLE4
 70
     0
 41
1.5
 44
0.0
 45
0.000000001
 73
     0
 74
     0
 77
     3
 78
    12
 79
     3
140
3.5
147
0.875
172
     1
173
     1
178
     0
271
     6
272
     1
276
     2
284
    12
289
     0
340
87
341
8C
343
8C
344
8C
  0
DIMSTYLE
105
17C
102
{ACAD_REACTORS
330
17B
102
}
330
A
100
AcDbSymbolTableRecord
100
AcDbDimStyleTableRecord
  2
SLDDIMSTYLE5
 70
     0
 41
1.5
 44
0.0
 45
0.000000001
 47
0.05
 48
0.05
 71
     1
 73
     0
 74
     0
 77
     3
 78
     8
 79
     2
140
3.5
147
0.875
172
     1
173
     1
178
     0
271
     2
272
     2
276
     2
284
     8
289
     0
340
87
341
8C
343
8C
344
8C
  0
DIMSTYLE
105
189
102
{ACAD_REACTORS
330
188
102
}
330
A
100
AcDbSymbolTableRecord
100
AcDbDimStyleTableRecord
  2
SLDDIMSTYLE6
 70
     0
 41
1.5
 44
0.0
 45
0.000000001
 73
     0
 74
     0
 77
     3
 78
    12
 79
     3
140
3.5
147
0.875
172
     1
173
     1
178
     0
271
     1
272
     2
276
     2
284
    12
289
     0
340
87
341
8C
343
8C
344
8C
  0
DIMSTYLE
105
243
102
{ACAD_REACTORS
330
242
102
}
330
A
100
AcDbSymbolTableRecord
100
AcDbDimStyleTableRecord
  2
SLDDIMSTYLE7
 70
     0
 41
1.5
 44
0.0
 45
0.000000001
 47
0.2
 48
0.2
 71
     1
 78
    12
 79
     3
140
3.5
141
0.0
147
0.875
172
     1
173
     1
178
     0
271
     2
272
     1
276
     2
284
     8
340
87
341
89
343
89
344
8C
  0
DIMSTYLE
105
250
102
{ACAD_REACTORS
330
24F
330
25A
102
}
330
A
100
AcDbSymbolTableRecord
100
AcDbDimStyleTableRecord
  2
SLDDIMSTYLE8
 70
     0
 41
1.5
 44
0.0
 73
     0
 74
     0
 77
     3
 78
    12
 79
     3
140
3.5
147
0.875
173
     1
178
     0
179
     2
272
     2
276
     2
284
    12
340
87
341
8C
343
8C
344
8C
  0
DIMSTYLE
105
265
102
{ACAD_REACTORS
330
264
102
}
330
A
100
AcDbSymbolTableRecord
100
AcDbDimStyleTableRecord
  2
SLDDIMSTYLE9
 70
     0
 41
1.5
 44
0.0
 45
0.000000001
 73
     0
 74
     0
 77
     3
 78
    12
 79
     3
140
3.5
147
0.875
173
     1
178
     0
271
     6
272
     1
276
     2
284
    12
340
87
341
8C
343
8C
344
8C
  0
DIMSTYLE
105
2DE
102
{ACAD_REACTORS
330
2DD
102
}
330
A
100
AcDbSymbolTableRecord
100
AcDbDimStyleTableRecord
  2
SLDDIMSTYLE10
 70
     0
 41
1.5
 44
0.0
 45
0.000000001
 73
     0
 74
     0
 77
     3
 78
    12
 79
     3
140
3.5
147
0.875
172
     1
173
     1
178
     0
271
     1
272
     1
276
     2
284
    12
289
     0
340
87
341
8C
343
8C
344
8C
  0
DIMSTYLE
105
2EB
102
{ACAD_REACTORS
330
2EA
102
}
330
A
100
AcDbSymbolTableRecord
100
AcDbDimStyleTableRecord
  2
SLDDIMSTYLE11
 70
     0
 41
1.5
 44
0.0
 45
0.000000001
 47
0.2
 71
     1
 73
     0
 74
     0
 77
     3
 78
    12
 79
     3
140
3.5
147
0.875
173
     1
178
     0
271
     1
272
     1
276
     2
284
     8
340
87
341
8C
343
8C
344
8C
  0
DIMSTYLE
105
302
330
A
100
AcDbSymbolTableRecord
100
AcDbDimStyleTableRecord
  2
SLDDIMSTYLE12
 70
     0
 41
1.5
 44
0.0
 45
0.000000001
146
1.5
147
0.0
173
     1
178
     0
271
     0
272
     0
276
     2
340
11
341
8C
343
8C
344
8C
  0
ENDTAB
  0
TABLE
  2
BLOCK_RECORD
  5
1
330
0
100
AcDbSymbolTable
 70
    29
  0
BLOCK_RECORD
  5
1F
330
1
100
AcDbSymbolTableRecord
100
AcDbBlockTableRecord
  2
*Model_Space
340
22
  0
BLOCK_RECORD
  5
1B
330
1
100
AcDbSymbolTableRecord
100
AcDbBlockTableRecord
  2
*Paper_Space
340
1E
  0
BLOCK_RECORD
  5
23
330
1
100
AcDbSymbolTableRecord
100
AcDbBlockTableRecord
  2
*Paper_Space0
340
26
  0
BLOCK_RECORD
  5
89
330
1
100
AcDbSymbolTableRecord
100
AcDbBlockTableRecord
  2
_NONE
340
0
  0
BLOCK_RECORD
  5
8C
330
1
100
AcDbSymbolTableRecord
100
AcDbBlockTableRecord
  2
_OPEN30
340
0
102
{BLKREFS
331
95
331
A2
331
A3
331
AC
331
AD
331
B6
331
150
331
151
331
15A
331
15B
331
167
331
168
331
174
331
175
331
180
331
181
331
18D
331
18E
331
199
331
19A
331
1A2
331
1A4
331
247
331
255
331
256
331
25F
331
260
331
269
331
26A
331
274
331
275
331
2E2
331
2E3
331
2EF
331
2F0
331
367
331
368
102
}
  0
BLOCK_RECORD
  5
92
330
1
100
AcDbSymbolTableRecord
100
AcDbBlockTableRecord
  2
_D
340
0
  0
BLOCK_RECORD
  5
9E
330
1
100
AcDbSymbolTableRecord
100
AcDbBlockTableRecord
  2
_D_1
340
0
  0
BLOCK_RECORD
  5
A8
330
1
100
AcDbSymbolTableRecord
100
AcDbBlockTableRecord
  2
_D_2
340
0
  0
BLOCK_RECORD
  5
B3
330
1
100
AcDbSymbolTableRecord
100
AcDbBlockTableRecord
  2
_D_3
340
0
  0
BLOCK_RECORD
  5
C2
330
1
100
AcDbSymbolTableRecord
100
AcDbBlockTableRecord
  2
SW_NOTE_0
340
0
102
{BLKREFS
331
C8
102
}
  0
BLOCK_RECORD
  5
C9
330
1
100
AcDbSymbolTableRecord
100
AcDbBlockTableRecord
  2
SW_NOTE_1
340
0
102
{BLKREFS
331
CE
102
}
  0
BLOCK_RECORD
  5
E6
330
1
100
AcDbSymbolTableRecord
100
AcDbBlockTableRecord
  2
SW_NOTE_2
340
0
102
{BLKREFS
331
EC
102
}
  0
BLOCK_RECORD
  5
ED
330
1
100
AcDbSymbolTableRecord
100
AcDbBlockTableRecord
  2
SW_NOTE_3
340
0
102
{BLKREFS
331
F4
102
}
  0
BLOCK_RECORD
  5
14D
330
1
100
AcDbSymbolTableRecord
100
AcDbBlockTableRecord
  2
_D_4
340
0
  0
BLOCK_RECORD
  5
157
330
1
100
AcDbSymbolTableRecord
100
AcDbBlockTableRecord
  2
_D_5
340
0
  0
BLOCK_RECORD
  5
164
330
1
100
AcDbSymbolTableRecord
100
AcDbBlockTableRecord
  2
_D_6
340
0
  0
BLOCK_RECORD
  5
171
330
1
100
AcDbSymbolTableRecord
100
AcDbBlockTableRecord
  2
_D_7
340
0
  0
BLOCK_RECORD
  5
17D
330
1
100
AcDbSymbolTableRecord
100
AcDbBlockTableRecord
  2
_D_8
340
0
  0
BLOCK_RECORD
  5
18A
330
1
100
AcDbSymbolTableRecord
100
AcDbBlockTableRecord
  2
_D_9
340
0
  0
BLOCK_RECORD
  5
196
330
1
100
AcDbSymbolTableRecord
100
AcDbBlockTableRecord
  2
_D_10
340
0
  0
BLOCK_RECORD
  5
244
330
1
100
AcDbSymbolTableRecord
100
AcDbBlockTableRecord
  2
_D_11
340
0
  0
BLOCK_RECORD
  5
251
330
1
100
AcDbSymbolTableRecord
100
AcDbBlockTableRecord
  2
_D_12
340
0
  0
BLOCK_RECORD
  5
25B
330
1
100
AcDbSymbolTableRecord
100
AcDbBlockTableRecord
  2
_D_13
340
0
  0
BLOCK_RECORD
  5
266
330
1
100
AcDbSymbolTableRecord
100
AcDbBlockTableRecord
  2
_D_14
340
0
  0
BLOCK_RECORD
  5
271
330
1
100
AcDbSymbolTableRecord
100
AcDbBlockTableRecord
  2
_D_15
340
0
  0
BLOCK_RECORD
  5
2DF
330
1
100
AcDbSymbolTableRecord
100
AcDbBlockTableRecord
  2
_D_16
340
0
  0
BLOCK_RECORD
  5
2EC
330
1
100
AcDbSymbolTableRecord
100
AcDbBlockTableRecord
  2
_D_17
340
0
  0
BLOCK_RECORD
  5
2FC
330
1
100
AcDbSymbolTableRecord
100
AcDbBlockTableRecord
  2
SW_NOTE_4
340
0
102
{BLKREFS
331
301
102
}
  0
BLOCK_RECORD
  5
364
330
1
100
AcDbSymbolTableRecord
100
AcDbBlockTableRecord
  2
_D_18
340
0
  0
BLOCK_RECORD
  5
370
330
1
100
AcDbSymbolTableRecord
100
AcDbBlockTableRecord
  2
SW_NOTE_5
340
0
102
{BLKREFS
331
375
102
}
  0
BLOCK_RECORD
  5
3F4
330
1
100
AcDbSymbolTableRecord
100
AcDbBlockTableRecord
  2
SW_NOTE_6
340
0
102
{BLKREFS
331
3FA
102
}
  0
ENDTAB
  0
ENDSEC
  0
SECTION
  2
BLOCKS
  0
BLOCK
  5
20
330
1F
100
AcDbEntity
  8
0
100
AcDbBlockBegin
  2
*Model_Space
 70
     0
 10
0.0
 20
0.0
 30
0.0
  3
*Model_Space
  1
*Model_Space
  0
ENDBLK
  5
21
330
1F
100
AcDbEntity
  8
0
100
AcDbBlockEnd
  0
BLOCK
  5
1C
330
1B
100
AcDbEntity
 67
     1
  8
0
100
AcDbBlockBegin
  2
*Paper_Space
 70
     0
 10
0.0
 20
0.0
 30
0.0
  3
*Paper_Space
  1
*Paper_Space
  0
ENDBLK
  5
1D
330
1B
100
AcDbEntity
 67
     1
  8
0
100
AcDbBlockEnd
  0
BLOCK
  5
24
330
23
100
AcDbEntity
  8
0
100
AcDbBlockBegin
  2
*Paper_Space0
 70
     0
 10
0.0
 20
0.0
 30
0.0
  3
*Paper_Space0
  1
*Paper_Space0
  0
ENDBLK
  5
25
330
23
100
AcDbEntity
  8
0
100
AcDbBlockEnd
  0
BLOCK
  5
8A
330
89
100
AcDbEntity
  8
0
100
AcDbBlockBegin
  2
_NONE
 70
     0
 10
0.0
 20
0.0
 30
0.0
  3
_NONE
  1
_NONE
  0
ENDBLK
  5
8B
330
89
100
AcDbEntity
  8
0
100
AcDbBlockEnd
  0
BLOCK
  5
8D
330
8C
100
AcDbEntity
  8
0
100
AcDbBlockBegin
  2
_OPEN30
 70
     0
 10
0.0
 20
0.0
 30
0.0
  3
_OPEN30
  1
_OPEN30
  0
LINE
  5
8F
330
8C
100
AcDbEntity
  8
0
  6
ByBlock
 62
     0
370
    -2
100
AcDbLine
 10
-1.0
 20
0.267949
 30
0.0
 11
0.0
 21
0.0
 31
0.0
  0
LINE
  5
90
330
8C
100
AcDbEntity
  8
0
  6
ByBlock
 62
     0
370
    -2
100
AcDbLine
 10
0.0
 20
0.0
 30
0.0
 11
-1.0
 21
-0.267949
 31
0.0
  0
LINE
  5
91
330
8C
100
AcDbEntity
  8
0
  6
ByBlock
 62
     0
370
    -2
100
AcDbLine
 10
0.0
 20
0.0
 30
0.0
 11
-1.0
 21
0.0
 31
0.0
  0
ENDBLK
  5
8E
330
8C
100
AcDbEntity
  8
0
100
AcDbBlockEnd
  0
BLOCK
  5
93
330
92
100
AcDbEntity
  8
0
100
AcDbBlockBegin
  2
_D
 70
     0
 10
0.0
 20
0.0
 30
0.0
  3
_D
  1
_D
  0
INSERT
  5
95
330
92
100
AcDbEntity
  8
0
  6
Continuous
 62
     7
370
     0
100
AcDbBlockReference
  2
_OPEN30
 10
49.7217704092
 20
125.7986733964
 30
0.1
 41
1.5
 42
1.5
 50
37.5895241603
  0
LINE
  5
96
330
92
100
AcDbEntity
  8
0
  6
Continuous
 62
     7
370
     0
100
AcDbLine
 10
49.7217704092
 20
125.7986733964
 30
0.0
 11
43.1711074406
 21
120.755891542
 31
0.0
  0
LINE
  5
97
330
92
100
AcDbEntity
  8
0
  6
Continuous
 62
     7
370
     0
100
AcDbLine
 10
53.747168443
 20
128.8974748855
 30
0.0
 11
49.7217704092
 21
125.7986733964
 31
0.0
  0
LINE
  5
98
330
92
100
AcDbEntity
  8
0
  6
Continuous
 62
     7
370
     0
100
AcDbLine
 10
43.1711074406
 20
120.755891542
 30
0.0
 11
23.8400646502
 21
120.755891542
 31
0.0
  0
MTEXT
  5
99
330
92
100
AcDbEntity
  8
0
  6
Continuous
 62
     7
370
     0
100
AcDbMText
 10
23.8400646502
 20
125.2676288641
 30
0.0
 40
3.5
 41
0.0
 71
     1
 72
     1
  1
%%c
  7
SLDTEXTSTYLE0
 73
     1
 44
1.0
  0
MTEXT
  5
9A
330
92
100
AcDbEntity
  8
0
  6
Continuous
 62
     7
370
     0
100
AcDbMText
 10
27.7099951652
 20
125.2676288641
 30
0.0
 40
3.5
 41
0.0
 71
     1
 72
     1
  1
5.1
  7
SLDTEXTSTYLE0
 73
     1
 44
1.0
  0
MTEXT
  5
9B
330
92
100
AcDbEntity
  8
0
  6
Continuous
 62
     7
370
     0
100
AcDbMText
 10
32.6099949905
 20
125.2676288641
 30
0.0
 40
3.5
 41
0.0
 71
     1
 72
     1
  1
±0.1
  7
SLDTEXTSTYLE0
 73
     1
 44
1.0
  0
ENDBLK
  5
94
330
92
100
AcDbEntity
  8
0
100
AcDbBlockEnd
  0
BLOCK
  5
9F
330
9E
100
AcDbEntity
  8
0
100
AcDbBlockBegin
  2
_D_1
 70
     0
 10
0.0
 20
0.0
 30
0.0
  3
_D_1
  1
_D_1
  0
ARC
  5
A1
330
9E
100
AcDbEntity
  8
0
  6
Continuous
 62
     7
370
     0
100
AcDbCircle
 10
51.7344694261
 20
127.3480741409
 30
0.0
 40
16.68740954512722
100
AcDbArc
 50
0.0
 51
45.0
  0
INSERT
  5
A2
330
9E
100
AcDbEntity
  8
0
  6
Continuous
 62
     7
370
     0
100
AcDbBlockReference
  2
_OPEN30
 10
68.4218789712
 20
127.3480741409
 30
0.1
 41
1.5
 42
1.5
 50
272.5682030927
  0
INSERT
  5
A3
330
9E
100
AcDbEntity
  8
0
  6
Continuous
 62
     7
370
     0
100
AcDbBlockReference
  2
_OPEN30
 10
63.5342498759
 20
139.1478545907
 30
0.1
 41
1.5
 42
1.5
 50
132.4317969073
  0
LINE
  5
A4
330
9E
100
AcDbEntity
  8
0
  6
Continuous
 62
     7
370
     0
100
AcDbLine
 10
56.6741111514
 20
127.3480741409
 30
0.0
 11
69.4218789712
 21
127.3480741409
 31
0.0
  0
LINE
  5
A5
330
9E
100
AcDbEntity
  8
0
  6
Continuous
 62
     7
370
     0
100
AcDbLine
 10
54.2376274315
 20
129.8512321463
 30
0.0
 11
64.2413566571
 21
139.8549613719
 31
0.0
  0
MTEXT
  5
A6
330
9E
100
AcDbEntity
  8
0
  6
Continuous
 62
     7
370
     0
100
AcDbMText
 10
70.9943052883
 20
137.0977837393
 30
0.0
 40
3.5
 41
0.0
 71
     1
 72
     1
  1
45°
  7
SLDTEXTSTYLE0
 11
0.2751694437706756
 21
-0.9613957443295331
 31
0.0
 73
     1
 44
1.0
  0
ENDBLK
  5
A0
330
9E
100
AcDbEntity
  8
0
100
AcDbBlockEnd
  0
BLOCK
  5
A9
330
A8
100
AcDbEntity
  8
0
100
AcDbBlockBegin
  2
_D_2
 70
     0
 10
0.0
 20
0.0
 30
0.0
  3
_D_2
  1
_D_2
  0
ARC
  5
AB
330
A8
100
AcDbEntity
  8
0
  6
Continuous
 62
     7
370
     0
100
AcDbCircle
 10
51.7344694261
 20
127.3480741409
 30
0.0
 40
16.55045093580884
100
AcDbArc
 50
315.0
 51
0.0
  0
INSERT
  5
AC
330
A8
100
AcDbEntity
  8
0
  6
Continuous
 62
     7
370
     0
100
AcDbBlockReference
  2
_OPEN30
 10
63.4374055145
 20
115.6451380525
 30
0.1
 41
1.5
 42
1.5
 50
227.5893404481
  0
INSERT
  5
AD
330
A8
100
AcDbEntity
  8
0
  6
Continuous
 62
     7
370
     0
100
AcDbBlockReference
  2
_OPEN30
 10
68.2849203619
 20
127.3480741409
 30
0.1
 41
1.5
 42
1.5
 50
87.4106595519
  0
LINE
  5
AE
330
A8
100
AcDbEntity
  8
0
  6
Continuous
 62
     7
370
     0
100
AcDbLine
 10
54.2376274315
 20
124.8449161355
 30
0.0
 11
64.1445122957
 21
114.9380312713
 31
0.0
  0
LINE
  5
AF
330
A8
100
AcDbEntity
  8
0
  6
Continuous
 62
     7
370
     0
100
AcDbLine
 10
56.6741111514
 20
127.3480741409
 30
0.0
 11
69.2849203619
 21
127.3480741409
 31
0.0
  0
MTEXT
  5
B0
330
A8
100
AcDbEntity
  8
0
  6
Continuous
 62
     7
370
     0
100
AcDbMText
 10
62.4034185962
 20
120.4416664764
 30
0.0
 40
3.5
 41
0.0
 71
     1
 72
     1
  1
45°
  7
SLDTEXTSTYLE0
 11
0.2456779600317749
 21
0.9693515048498278
 31
0.0
 73
     1
 44
1.0
  0
ENDBLK
  5
AA
330
A8
100
AcDbEntity
  8
0
100
AcDbBlockEnd
  0
BLOCK
  5
B4
330
B3
100
AcDbEntity
  8
0
100
AcDbBlockBegin
  2
_D_3
 70
     0
 10
0.0
 20
0.0
 30
0.0
  3
_D_3
  1
_D_3
  0
INSERT
  5
B6
330
B3
100
AcDbEntity
  8
0
  6
Continuous
 62
     7
370
     0
100
AcDbBlockReference
  2
_OPEN30
 10
49.7050836255
 20
129.3703552824
 30
0.1
 41
1.5
 42
1.5
 50
315.8856962665
  0
LINE
  5
B7
330
B3
100
AcDbEntity
  8
0
  6
Continuous
 62
     7
370
     0
100
AcDbLine
 10
49.7050836255
 20
129.3703552824
 30
0.0
 11
44.8093019867
 21
134.1170683174
 31
0.0
  0
LINE
  5
B8
330
B3
100
AcDbEntity
  8
0
  6
Continuous
 62
     7
370
     0
100
AcDbLine
 10
50.1717527782
 20
128.9178954479
 30
0.0
 11
49.7050836255
 21
129.3703552824
 31
0.0
  0
LINE
  5
B9
330
B3
100
AcDbEntity
  8
0
  6
Continuous
 62
     7
370
     0
100
AcDbLine
 10
44.8093019867
 20
134.1170683174
 30
0.0
 11
22.2018701041
 21
134.1170683174
 31
0.0
  0
MTEXT
  5
BA
330
B3
100
AcDbEntity
  8
0
  6
Continuous
 62
     7
370
     0
100
AcDbMText
 10
22.2018701041
 20
138.628806105
 30
0.0
 40
3.5
 41
0.0
 71
     1
 72
     1
  1
3-
  7
SLDTEXTSTYLE0
 73
     1
 44
1.0
  0
MTEXT
  5
BB
330
B3
100
AcDbEntity
  8
0
  6
Continuous
 62
     7
370
     0
100
AcDbMText
 10
26.275481099
 20
138.628806105
 30
0.0
 40
3.5
 41
0.0
 71
     1
 72
     1
  1
%%c
  7
SLDTEXTSTYLE0
 73
     1
 44
1.0
  0
MTEXT
  5
BC
330
B3
100
AcDbEntity
  8
0
  6
Continuous
 62
     7
370
     0
100
AcDbMText
 10
30.1454118469
 20
138.628806105
 30
0.0
 40
3.5
 41
0.0
 71
     1
 72
     1
  1
0.7
  7
SLDTEXTSTYLE0
 73
     1
 44
1.0
  0
MTEXT
  5
BD
330
B3
100
AcDbEntity
  8
0
  6
Continuous
 62
     7
370
     0
100
AcDbMText
 10
36.248536905
 20
138.628806105
 30
0.0
 40
3.5
 41
0.0
 71
     1
 72
     1
  1

  7
SLDTEXTSTYLE0
 73
     1
 44
1.0
  0
MTEXT
  5
BE
330
B3
100
AcDbEntity
  8
0
  6
Continuous
 62
     7
370
     0
100
AcDbMText
 10
36.2849948013
 20
142.7024171
 30
0.0
 40
3.5
 41
0.0
 71
     1
 72
     1
  1
+
  7
SLDTEXTSTYLE0
 73
     1
 44
1.0
  0
MTEXT
  5
BF
330
B3
100
AcDbEntity
  8
0
  6
Continuous
 62
     7
370
     0
100
AcDbMText
 10
37.8867308691
 20
138.628806105
 30
0.0
 40
3.5
 41
0.0
 71
     1
 72
     1
  1

  7
SLDTEXTSTYLE0
 73
     1
 44
1.0
  0
MTEXT
  5
C0
330
B3
100
AcDbEntity
  8
0
  6
Continuous
 62
     7
370
     0
100
AcDbMText
 10
38.3218009972
 20
142.7024171
 30
0.0
 40
3.5
 41
0.0
 71
     1
 72
     1
  1
0.1
  7
SLDTEXTSTYLE0
 73
     1
 44
1.0
  0
MTEXT
  5
C1
330
B3
100
AcDbEntity
  8
0
  6
Continuous
 62
     7
370
     0
100
AcDbMText
 10
38.3218009972
 20
138.628806105
 30
0.0
 40
3.5
 41
0.0
 71
     1
 72
     1
  1
0
  7
SLDTEXTSTYLE0
 73
     1
 44
1.0
  0
ENDBLK
  5
B5
330
B3
100
AcDbEntity
  8
0
100
AcDbBlockEnd
  0
BLOCK
  5
C3
330
C2
100
AcDbEntity
  8
0
100
AcDbBlockBegin
  2
SW_NOTE_0
 70
     0
 10
0.0
 20
0.0
 30
0.0
  3
SW_NOTE_0
  1
SW_NOTE_0
  0
MTEXT
  5
C5
330
C2
100
AcDbEntity
  8
0
  6
Continuous
 62
     0
370
     0
100
AcDbMText
 10
0.0
 20
4.5117370892
 30
0.0
 40
3.5
 41
0.0
 71
     1
 72
     1
  1
Recommended
  7
SLDTEXTSTYLE0
 73
     1
 44
1.0
  0
MTEXT
  5
C6
330
C2
100
AcDbEntity
  8
0
  6
Continuous
 62
     0
370
     0
100
AcDbMText
 10
0.0
 20
0.0117372829
 30
0.0
 40
3.5
 41
0.0
 71
     1
 72
     1
  1
panel mouting hole
  7
SLDTEXTSTYLE0
 73
     1
 44
1.0
  0
MTEXT
  5
C7
330
C2
100
AcDbEntity
  8
0
  6
Continuous
 62
     0
370
     0
100
AcDbMText
 10
0.0
 20
-4.4882625234
 30
0.0
 40
3.5
 41
0.0
 71
     1
 72
     1
  1
dimensions
  7
SLDTEXTSTYLE0
 73
     1
 44
1.0
  0
ENDBLK
  5
C4
330
C2
100
AcDbEntity
  8
0
100
AcDbBlockEnd
  0
BLOCK
  5
CA
330
C9
100
AcDbEntity
  8
0
100
AcDbBlockBegin
  2
SW_NOTE_1
 70
     0
 10
0.0
 20
0.0
 30
0.0
  3
SW_NOTE_1
  1
SW_NOTE_1
  0
MTEXT
  5
CC
330
C9
100
AcDbEntity
  8
0
  6
Continuous
 62
     0
370
     0
100
AcDbMText
 10
0.0
 20
4.5117370892
 30
0.0
 40
3.5
 41
0.0
 71
     1
 72
     1
  1
Recommended
  7
SLDTEXTSTYLE0
 73
     1
 44
1.0
  0
MTEXT
  5
CD
330
C9
100
AcDbEntity
  8
0
  6
Continuous
 62
     0
370
     0
100
AcDbMText
 10
0.0
 20
0.0117372829
 30
0.0
 40
3.5
 41
0.0
 71
     1
 72
     1
  1
PC board pattern
  7
SLDTEXTSTYLE0
 73
     1
 44
1.0
  0
ENDBLK
  5
CB
330
C9
100
AcDbEntity
  8
0
100
AcDbBlockEnd
  0
BLOCK
  5
E7
330
E6
100
AcDbEntity
  8
0
100
AcDbBlockBegin
  2
SW_NOTE_2
 70
     0
 10
0.0
 20
0.0
 30
0.0
  3
SW_NOTE_2
  1
SW_NOTE_2
  0
MTEXT
  5
EA
330
E6
100
AcDbEntity
  8
0
  6
Continuous
 62
     0
370
     0
100
AcDbMText
 10
0.0
 20
4.7749217527
 30
0.0
 40
3.7041666667
 41
0.0
 71
     1
 72
     1
  1
±0.5     mm
  7
SLDTEXTSTYLE1
 73
     1
 44
1.0
  0
MTEXT
  5
EB
330
E6
100
AcDbEntity
  8
0
  6
Continuous
 62
     0
370
     0
100
AcDbMText
 10
0.0
 20
-0.1639670765
 30
0.0
 40
3.7041666667
 41
0.0
 71
     1
 72
     1
  1
(±0.020 inch)
  7
SLDTEXTSTYLE0
 73
     1
 44
1.0
  0
ENDBLK
  5
E8
330
E6
100
AcDbEntity
  8
0
100
AcDbBlockEnd
  0
BLOCK
  5
EE
330
ED
100
AcDbEntity
  8
0
100
AcDbBlockBegin
  2
SW_NOTE_3
 70
     0
 10
0.0
 20
0.0
 30
0.0
  3
SW_NOTE_3
  1
SW_NOTE_3
  0
MTEXT
  5
F0
330
ED
100
AcDbEntity
  8
0
  6
Continuous
 62
     0
370
     0
100
AcDbMText
 10
0.0
 20
4.7749217527
 30
0.0
 40
3.7041666667
 41
0.0
 71
     1
 72
     1
  1
Note1 : In oredr to ensure proper detection, install it with
  7
SLDTEXTSTYLE0
 73
     1
 44
1.0
  0
MTEXT
  5
F1
330
ED
100
AcDbEntity
  8
0
  6
Continuous
 62
     0
370
     0
100
AcDbMText
 10
14.0063802083
 20
-0.1639670765
 30
0.0
 40
3.7041666667
 41
0.0
 71
     1
 72
     1
  1
the lens exposed at least 4.5mm (0.177inch)
  7
SLDTEXTSTYLE0
 73
     1
 44
1.0
  0
MTEXT
  5
F2
330
ED
100
AcDbEntity
  8
0
  6
Continuous
 62
     0
370
     0
100
AcDbMText
 10
0.0
 20
-5.1028559057
 30
0.0
 40
3.7041666667
 41
0.0
 71
     1
 72
     1
  1
Note2 : As for panel mouting hole, tapering or making
  7
SLDTEXTSTYLE0
 73
     1
 44
1.0
  0
MTEXT
  5
F3
330
ED
100
AcDbEntity
  8
0
  6
Continuous
 62
     0
370
     0
100
AcDbMText
 10
14.0063802083
 20
-10.0417447349
 30
0.0
 40
3.7041666667
 41
0.0
 71
     1
 72
     1
  1
a large size hole should be done.
  7
SLDTEXTSTYLE0
 73
     1
 44
1.0
  0
ENDBLK
  5
EF
330
ED
100
AcDbEntity
  8
0
100
AcDbBlockEnd
  0
BLOCK
  5
14E
330
14D
100
AcDbEntity
  8
0
100
AcDbBlockBegin
  2
_D_4
 70
     0
 10
0.0
 20
0.0
 30
0.0
  3
_D_4
  1
_D_4
  0
INSERT
  5
150
330
14D
100
AcDbEntity
  8
0
  6
Continuous
 62
     7
370
     0
100
AcDbBlockReference
  2
_OPEN30
 10
172.5587681413
 20
216.6771041221
 30
0.1
 41
1.5
 42
1.5
 50
90.0
  0
INSERT
  5
151
330
14D
100
AcDbEntity
  8
0
  6
Continuous
 62
     7
370
     0
100
AcDbBlockReference
  2
_OPEN30
 10
172.5587681413
 20
199.4771041221
 30
0.1
 41
1.5
 42
1.5
 50
270.0
  0
LINE
  5
152
330
14D
100
AcDbEntity
  8
0
  6
Continuous
 62
     7
370
     0
100
AcDbLine
 10
149.2587681413
 20
216.6771041221
 30
0.0
 11
173.5587681413
 21
216.6771041221
 31
0.0
  0
LINE
  5
153
330
14D
100
AcDbEntity
  8
0
  6
Continuous
 62
     7
370
     0
100
AcDbLine
 10
154.7587681413
 20
199.4771041221
 30
0.0
 11
173.5587681413
 21
199.4771041221
 31
0.0
  0
LINE
  5
154
330
14D
100
AcDbEntity
  8
0
  6
Continuous
 62
     7
370
     0
100
AcDbLine
 10
172.5587681413
 20
216.6771041221
 30
0.0
 11
172.5587681413
 21
199.4771041221
 31
0.0
  0
MTEXT
  5
155
330
14D
100
AcDbEntity
  8
0
  6
Continuous
 62
     7
370
     0
100
AcDbMText
 10
168.0470312849
 20
204.206343258
 30
0.0
 40
3.5
 41
0.0
 71
     1
 72
     1
  1
17.2
  7
SLDTEXTSTYLE0
 11
-1.237326553584439E-14
 21
1.0
 31
0.0
 73
     1
 44
1.0
  0
ENDBLK
  5
14F
330
14D
100
AcDbEntity
  8
0
100
AcDbBlockEnd
  0
BLOCK
  5
158
330
157
100
AcDbEntity
  8
0
100
AcDbBlockBegin
  2
_D_5
 70
     0
 10
0.0
 20
0.0
 30
0.0
  3
_D_5
  1
_D_5
  0
INSERT
  5
15A
330
157
100
AcDbEntity
  8
0
  6
Continuous
 62
     7
370
     0
100
AcDbBlockReference
  2
_OPEN30
 10
140.9587681413
 20
222.2731386223
 30
0.1
 41
1.5
 42
1.5
 50
180.0
  0
INSERT
  5
15B
330
157
100
AcDbEntity
  8
0
  6
Continuous
 62
     7
370
     0
100
AcDbBlockReference
  2
_OPEN30
 10
155.5587681413
 20
222.2731386223
 30
0.1
 41
1.5
 42
1.5
 50
0.0
  0
LINE
  5
15C
330
157
100
AcDbEntity
  8
0
  6
Continuous
 62
     7
370
     0
100
AcDbLine
 10
140.9587681413
 20
213.1771041221
 30
0.0
 11
140.9587681413
 21
223.2731386223
 31
0.0
  0
LINE
  5
15D
330
157
100
AcDbEntity
  8
0
  6
Continuous
 62
     7
370
     0
100
AcDbLine
 10
155.5587681413
 20
213.1771041221
 30
0.0
 11
155.5587681413
 21
223.2731386223
 31
0.0
  0
LINE
  5
15E
330
157
100
AcDbEntity
  8
0
  6
Continuous
 62
     7
370
     0
100
AcDbLine
 10
140.9587681413
 20
222.2731386223
 30
0.0
 11
155.5587681413
 21
222.2731386223
 31
0.0
  0
LINE
  5
15F
330
157
100
AcDbEntity
  8
0
  6
Continuous
 62
     7
370
     0
100
AcDbLine
 10
155.5587681413
 20
222.2731386223
 30
0.0
 11
169.4106846166
 21
222.2731386223
 31
0.0
  0
MTEXT
  5
160
330
157
100
AcDbEntity
  8
0
  6
Continuous
 62
     7
370
     0
100
AcDbMText
 10
158.6039490116
 20
226.7848759444
 30
0.0
 40
3.5
 41
0.0
 71
     1
 72
     1
  1
%%c
  7
SLDTEXTSTYLE0
 73
     1
 44
1.0
  0
MTEXT
  5
161
330
157
100
AcDbEntity
  8
0
  6
Continuous
 62
     7
370
     0
100
AcDbMText
 10
162.4738795266
 20
226.7848759444
 30
0.0
 40
3.5
 41
0.0
 71
     1
 72
     1
  1
14.6
  7
SLDTEXTSTYLE0
 73
     1
 44
1.0
  0
ENDBLK
  5
159
330
157
100
AcDbEntity
  8
0
100
AcDbBlockEnd
  0
BLOCK
  5
165
330
164
100
AcDbEntity
  8
0
100
AcDbBlockBegin
  2
_D_6
 70
     0
 10
0.0
 20
0.0
 30
0.0
  3
_D_6
  1
_D_6
  0
INSERT
  5
167
330
164
100
AcDbEntity
  8
0
  6
Continuous
 62
     7
370
     0
100
AcDbBlockReference
  2
_OPEN30
 10
153.7587681413
 20
186.7063059937
 30
0.1
 41
1.5
 42
1.5
 50
180.0
  0
INSERT
  5
168
330
164
100
AcDbEntity
  8
0
  6
Continuous
 62
     7
370
     0
100
AcDbBlockReference
  2
_OPEN30
 10
142.7587681413
 20
186.7063059937
 30
0.1
 41
1.5
 42
1.5
 50
0.0
  0
LINE
  5
169
330
164
100
AcDbEntity
  8
0
  6
Continuous
 62
     7
370
     0
100
AcDbLine
 10
153.7587681413
 20
198.4771041221
 30
0.0
 11
153.7587681413
 21
185.7063059937
 31
0.0
  0
LINE
  5
16A
330
164
100
AcDbEntity
  8
0
  6
Continuous
 62
     7
370
     0
100
AcDbLine
 10
142.7587681413
 20
198.4771041221
 30
0.0
 11
142.7587681413
 21
185.7063059937
 31
0.0
  0
LINE
  5
16B
330
164
100
AcDbEntity
  8
0
  6
Continuous
 62
     7
370
     0
100
AcDbLine
 10
153.7587681413
 20
186.7063059937
 30
0.0
 11
156.7587681413
 21
186.7063059937
 31
0.0
  0
LINE
  5
16C
330
164
100
AcDbEntity
  8
0
  6
Continuous
 62
     7
370
     0
100
AcDbLine
 10
153.7587681413
 20
186.7063059937
 30
0.0
 11
142.7587681413
 21
186.7063059937
 31
0.0
  0
LINE
  5
16D
330
164
100
AcDbEntity
  8
0
  6
Continuous
 62
     7
370
     0
100
AcDbLine
 10
142.7587681413
 20
186.7063059937
 30
0.0
 11
139.7587681413
 21
186.7063059937
 31
0.0
  0
MTEXT
  5
16E
330
164
100
AcDbEntity
  8
0
  6
Continuous
 62
     7
370
     0
100
AcDbMText
 10
143.3573419588
 20
191.2180433158
 30
0.0
 40
3.5
 41
0.0
 71
     1
 72
     1
  1
%%c
  7
SLDTEXTSTYLE0
 73
     1
 44
1.0
  0
MTEXT
  5
16F
330
164
100
AcDbEntity
  8
0
  6
Continuous
 62
     7
370
     0
100
AcDbMText
 10
147.2272724739
 20
191.2180433158
 30
0.0
 40
3.5
 41
0.0
 71
     1
 72
     1
  1
11
  7
SLDTEXTSTYLE0
 73
     1
 44
1.0
  0
ENDBLK
  5
166
330
164
100
AcDbEntity
  8
0
100
AcDbBlockEnd
  0
BLOCK
  5
172
330
171
100
AcDbEntity
  8
0
100
AcDbBlockBegin
  2
_D_7
 70
     0
 10
0.0
 20
0.0
 30
0.0
  3
_D_7
  1
_D_7
  0
INSERT
  5
174
330
171
100
AcDbEntity
  8
0
  6
Continuous
 62
     7
370
     0
100
AcDbBlockReference
  2
_OPEN30
 10
139.9587681413
 20
230.6416835861
 30
0.1
 41
1.5
 42
1.5
 50
180.0
  0
INSERT
  5
175
330
171
100
AcDbEntity
  8
0
  6
Continuous
 62
     7
370
     0
100
AcDbBlockReference
  2
_OPEN30
 10
156.5587681413
 20
230.6416835861
 30
0.1
 41
1.5
 42
1.5
 50
0.0
  0
LINE
  5
176
330
171
100
AcDbEntity
  8
0
  6
Continuous
 62
     7
370
     0
100
AcDbLine
 10
139.9587681413
 20
210.3771041221
 30
0.0
 11
139.9587681413
 21
231.6416835861
 31
0.0
  0
LINE
  5
177
330
171
100
AcDbEntity
  8
0
  6
Continuous
 62
     7
370
     0
100
AcDbLine
 10
156.5587681413
 20
210.3771041221
 30
0.0
 11
156.5587681413
 21
231.6416835861
 31
0.0
  0
LINE
  5
178
330
171
100
AcDbEntity
  8
0
  6
Continuous
 62
     7
370
     0
100
AcDbLine
 10
139.9587681413
 20
230.6416835861
 30
0.0
 11
156.5587681413
 21
230.6416835861
 31
0.0
  0
LINE
  5
179
330
171
100
AcDbEntity
  8
0
  6
Continuous
 62
     7
370
     0
100
AcDbLine
 10
156.5587681413
 20
230.6416835861
 30
0.0
 11
167.4757194754
 21
230.6416835861
 31
0.0
  0
MTEXT
  5
17A
330
171
100
AcDbEntity
  8
0
  6
Continuous
 62
     7
370
     0
100
AcDbMText
 10
160.5389141527
 20
235.1534204424
 30
0.0
 40
3.5
 41
0.0
 71
     1
 72
     1
  1
16.6
  7
SLDTEXTSTYLE0
 73
     1
 44
1.0
  0
ENDBLK
  5
173
330
171
100
AcDbEntity
  8
0
100
AcDbBlockEnd
  0
BLOCK
  5
17E
330
17D
100
AcDbEntity
  8
0
100
AcDbBlockBegin
  2
_D_8
 70
     0
 10
0.0
 20
0.0
 30
0.0
  3
_D_8
  1
_D_8
  0
INSERT
  5
180
330
17D
100
AcDbEntity
  8
0
  6
Continuous
 62
     7
370
     0
100
AcDbBlockReference
  2
_OPEN30
 10
146.2377169171
 20
196.2927139378
 30
0.1
 41
1.5
 42
1.5
 50
0.0
  0
INSERT
  5
181
330
17D
100
AcDbEntity
  8
0
  6
Continuous
 62
     7
370
     0
100
AcDbBlockReference
  2
_OPEN30
 10
146.6877169171
 20
196.2927139378
 30
0.1
 41
1.5
 42
1.5
 50
180.0
  0
LINE
  5
182
330
17D
100
AcDbEntity
  8
0
  6
Continuous
 62
     7
370
     0
100
AcDbLine
 10
146.2377169171
 20
196.2927139378
 30
0.0
 11
116.5314200886
 21
196.2927139378
 31
0.0
  0
LINE
  5
183
330
17D
100
AcDbEntity
  8
0
  6
Continuous
 62
     7
370
     0
100
AcDbLine
 10
146.2377169171
 20
196.2927139378
 30
0.0
 11
146.6877169171
 21
196.2927139378
 31
0.0
  0
LINE
  5
184
330
17D
100
AcDbEntity
  8
0
  6
Continuous
 62
     7
370
     0
100
AcDbLine
 10
146.6877169171
 20
196.2927139378
 30
0.0
 11
149.6877169171
 21
196.2927139378
 31
0.0
  0
MTEXT
  5
185
330
17D
100
AcDbEntity
  8
0
  6
Continuous
 62
     7
370
     0
100
AcDbMText
 10
116.5314200886
 20
200.8044512598
 30
0.0
 40
3.5
 41
0.0
 71
     1
 72
     1
  1
%%c
  7
SLDTEXTSTYLE0
 73
     1
 44
1.0
  0
MTEXT
  5
186
330
17D
100
AcDbEntity
  8
0
  6
Continuous
 62
     7
370
     0
100
AcDbMText
 10
120.4013506037
 20
200.8044512598
 30
0.0
 40
3.5
 41
0.0
 71
     1
 72
     1
  1
0.45
  7
SLDTEXTSTYLE0
 73
     1
 44
1.0
  0
MTEXT
  5
187
330
17D
100
AcDbEntity
  8
0
  6
Continuous
 62
     7
370
     0
100
AcDbMText
 10
128.5412806936
 20
200.8044512598
 30
0.0
 40
3.5
 41
0.0
 71
     1
 72
     1
  1
±0.05
  7
SLDTEXTSTYLE0
 73
     1
 44
1.0
  0
ENDBLK
  5
17F
330
17D
100
AcDbEntity
  8
0
100
AcDbBlockEnd
  0
BLOCK
  5
18B
330
18A
100
AcDbEntity
  8
0
100
AcDbBlockBegin
  2
_D_9
 70
     0
 10
0.0
 20
0.0
 30
0.0
  3
_D_9
  1
_D_9
  0
INSERT
  5
18D
330
18A
100
AcDbEntity
  8
0
  6
Continuous
 62
     7
370
     0
100
AcDbBlockReference
  2
_OPEN30
 10
164.095775504
 20
199.4771041221
 30
0.1
 41
1.5
 42
1.5
 50
90.0
  0
INSERT
  5
18E
330
18A
100
AcDbEntity
  8
0
  6
Continuous
 62
     7
370
     0
100
AcDbBlockReference
  2
_OPEN30
 10
164.095775504
 20
207.3771041221
 30
0.1
 41
1.5
 42
1.5
 50
270.0
  0
LINE
  5
18F
330
18A
100
AcDbEntity
  8
0
  6
Continuous
 62
     7
370
     0
100
AcDbLine
 10
154.7587681413
 20
199.4771041221
 30
0.0
 11
165.095775504
 21
199.4771041221
 31
0.0
  0
LINE
  5
190
330
18A
100
AcDbEntity
  8
0
  6
Continuous
 62
     7
370
     0
100
AcDbLine
 10
156.8599193699
 20
207.3771041221
 30
0.0
 11
165.095775504
 21
207.3771041221
 31
0.0
  0
LINE
  5
191
330
18A
100
AcDbEntity
  8
0
  6
Continuous
 62
     7
370
     0
100
AcDbLine
 10
164.095775504
 20
199.4771041221
 30
0.0
 11
164.095775504
 21
196.4771041221
 31
0.0
  0
LINE
  5
192
330
18A
100
AcDbEntity
  8
0
  6
Continuous
 62
     7
370
     0
100
AcDbLine
 10
164.095775504
 20
199.4771041221
 30
0.0
 11
164.095775504
 21
207.3771041221
 31
0.0
  0
LINE
  5
193
330
18A
100
AcDbEntity
  8
0
  6
Continuous
 62
     7
370
     0
100
AcDbLine
 10
164.095775504
 20
207.3771041221
 30
0.0
 11
164.095775504
 21
210.3771041221
 31
0.0
  0
MTEXT
  5
194
330
18A
100
AcDbEntity
  8
0
  6
Continuous
 62
     7
370
     0
100
AcDbMText
 10
159.5840386476
 20
201.0509117279
 30
0.0
 40
3.5
 41
0.0
 71
     1
 72
     1
  1
7.9
  7
SLDTEXTSTYLE0
 11
6.123233995736766E-17
 21
1.0
 31
0.0
 73
     1
 44
1.0
  0
ENDBLK
  5
18C
330
18A
100
AcDbEntity
  8
0
100
AcDbBlockEnd
  0
BLOCK
  5
197
330
196
100
AcDbEntity
  8
0
100
AcDbBlockBegin
  2
_D_10
 70
     0
 10
0.0
 20
0.0
 30
0.0
  3
_D_10
  1
_D_10
  0
INSERT
  5
199
330
196
100
AcDbEntity
  8
0
  6
Continuous
 62
     7
370
     0
100
AcDbBlockReference
  2
_OPEN30
 10
164.095775504
 20
199.4771041221
 30
0.1
 41
1.5
 42
1.5
 50
90.0
  0
INSERT
  5
19A
330
196
100
AcDbEntity
  8
0
  6
Continuous
 62
     7
370
     0
100
AcDbBlockReference
  2
_OPEN30
 10
164.095775504
 20
194.8771041221
 30
0.1
 41
1.5
 42
1.5
 50
270.0
  0
LINE
  5
19B
330
196
100
AcDbEntity
  8
0
  6
Continuous
 62
     7
370
     0
100
AcDbLine
 10
154.7587681413
 20
199.4771041221
 30
0.0
 11
165.095775504
 21
199.4771041221
 31
0.0
  0
LINE
  5
19C
330
196
100
AcDbEntity
  8
0
  6
Continuous
 62
     7
370
     0
100
AcDbLine
 10
151.2798193655
 20
194.8771041221
 30
0.0
 11
165.095775504
 21
194.8771041221
 31
0.0
  0
LINE
  5
19D
330
196
100
AcDbEntity
  8
0
  6
Continuous
 62
     7
370
     0
100
AcDbLine
 10
164.095775504
 20
199.4771041221
 30
0.0
 11
164.095775504
 21
194.8771041221
 31
0.0
  0
LINE
  5
19E
330
196
100
AcDbEntity
  8
0
  6
Continuous
 62
     7
370
     0
100
AcDbLine
 10
164.095775504
 20
194.8771041221
 30
0.0
 11
164.095775504
 21
187.4607313027
 31
0.0
  0
MTEXT
  5
19F
330
196
100
AcDbEntity
  8
0
  6
Continuous
 62
     7
370
     0
100
AcDbMText
 10
159.5840386476
 20
187.4607313027
 30
0.0
 40
3.5
 41
0.0
 71
     1
 72
     1
  1
4.6
  7
SLDTEXTSTYLE0
 11
-1.059690869644414E-14
 21
1.0
 31
0.0
 73
     1
 44
1.0
  0
ENDBLK
  5
198
330
196
100
AcDbEntity
  8
0
100
AcDbBlockEnd
  0
BLOCK
  5
245
330
244
100
AcDbEntity
  8
0
100
AcDbBlockBegin
  2
_D_11
 70
     0
 10
0.0
 20
0.0
 30
0.0
  3
_D_11
  1
_D_11
  0
INSERT
  5
247
330
244
100
AcDbEntity
  8
0
  6
Continuous
 62
     7
370
     0
100
AcDbBlockReference
  2
_OPEN30
 10
146.828012577
 20
154.1389832435
 30
0.1
 41
1.5
 42
1.5
 50
304.2836016513
  0
LINE
  5
248
330
244
100
AcDbEntity
  8
0
  6
Continuous
 62
     7
370
     0
100
AcDbLine
 10
146.828012577
 20
154.1389832435
 30
0.0
 11
139.0815704599
 21
165.5018271963
 31
0.0
  0
LINE
  5
249
330
244
100
AcDbEntity
  8
0
  6
Continuous
 62
     7
370
     0
100
AcDbLine
 10
149.6895237056
 20
149.9415847563
 30
0.0
 11
146.828012577
 21
154.1389832435
 31
0.0
  0
LINE
  5
24A
330
244
100
AcDbEntity
  8
0
  6
Continuous
 62
     7
370
     0
100
AcDbLine
 10
139.0815704599
 20
165.5018271963
 30
0.0
 11
106.1394196048
 21
165.5018271963
 31
0.0
  0
MTEXT
  5
24B
330
244
100
AcDbEntity
  8
0
  6
Continuous
 62
     7
370
     0
100
AcDbMText
 10
106.1394196048
 20
170.0135645183
 30
0.0
 40
3.5
 41
0.0
 71
     1
 72
     1
  1
P.D.C.
  7
SLDTEXTSTYLE0
 73
     1
 44
1.0
  0
MTEXT
  5
24C
330
244
100
AcDbEntity
  8
0
  6
Continuous
 62
     7
370
     0
100
AcDbMText
 10
116.4741413712
 20
170.0135645183
 30
0.0
 40
3.5
 41
0.0
 71
     1
 72
     1
  1
%%c
  7
SLDTEXTSTYLE0
 73
     1
 44
1.0
  0
MTEXT
  5
24D
330
244
100
AcDbEntity
  8
0
  6
Continuous
 62
     7
370
     0
100
AcDbMText
 10
120.3440725848
 20
170.0135645183
 30
0.0
 40
3.5
 41
0.0
 71
     1
 72
     1
  1
5.08
  7
SLDTEXTSTYLE0
 73
     1
 44
1.0
  0
MTEXT
  5
24E
330
244
100
AcDbEntity
  8
0
  6
Continuous
 62
     7
370
     0
100
AcDbMText
 10
128.4840029076
 20
170.0135645183
 30
0.0
 40
3.5
 41
0.0
 71
     1
 72
     1
  1
±0.2
  7
SLDTEXTSTYLE0
 73
     1
 44
1.0
  0
ENDBLK
  5
246
330
244
100
AcDbEntity
  8
0
100
AcDbBlockEnd
  0
BLOCK
  5
252
330
251
100
AcDbEntity
  8
0
100
AcDbBlockBegin
  2
_D_12
 70
     0
 10
0.0
 20
0.0
 30
0.0
  3
_D_12
  1
_D_12
  0
ARC
  5
254
330
251
100
AcDbEntity
  8
0
  6
Continuous
 62
     7
370
     0
100
AcDbCircle
 10
148.2587681413
 20
152.0402839999
 30
0.0
 40
23.26111692472992
100
AcDbArc
 50
225.0
 51
270.0
  0
INSERT
  5
255
330
251
100
AcDbEntity
  8
0
  6
Continuous
 62
     7
370
     0
100
AcDbBlockReference
  2
_OPEN30
 10
131.8106746258
 20
135.5921904845
 30
0.1
 41
1.5
 42
1.5
 50
136.844813339
  0
INSERT
  5
256
330
251
100
AcDbEntity
  8
0
  6
Continuous
 62
     7
370
     0
100
AcDbBlockReference
  2
_OPEN30
 10
148.2587681413
 20
128.7791670752
 30
0.1
 41
1.5
 42
1.5
 50
358.155186661
  0
LINE
  5
257
330
251
100
AcDbEntity
  8
0
  6
Continuous
 62
     7
370
     0
100
AcDbLine
 10
145.7556101359
 20
149.5371259945
 30
0.0
 11
131.1035678447
 21
134.8850837033
 31
0.0
  0
LINE
  5
258
330
251
100
AcDbEntity
  8
0
  6
Continuous
 62
     7
370
     0
100
AcDbLine
 10
148.2587681413
 20
141.4464179179
 30
0.0
 11
148.2587681413
 21
127.7791670752
 31
0.0
  0
MTEXT
  5
259
330
251
100
AcDbEntity
  8
0
  6
Continuous
 62
     7
370
     0
100
AcDbMText
 10
135.9497875585
 20
137.3221809803
 30
0.0
 40
3.5
 41
0.0
 71
     1
 72
     1
  1
45°
  7
SLDTEXTSTYLE0
 11
0.8858124928769012
 21
-0.4640433465347929
 31
0.0
 73
     1
 44
1.0
  0
ENDBLK
  5
253
330
251
100
AcDbEntity
  8
0
100
AcDbBlockEnd
  0
BLOCK
  5
25C
330
25B
100
AcDbEntity
  8
0
100
AcDbBlockBegin
  2
_D_13
 70
     0
 10
0.0
 20
0.0
 30
0.0
  3
_D_13
  1
_D_13
  0
ARC
  5
25E
330
25B
100
AcDbEntity
  8
0
  6
Continuous
 62
     7
370
     0
100
AcDbCircle
 10
148.2587681413
 20
152.0402839999
 30
0.0
 40
23.26111692472989
100
AcDbArc
 50
270.0
 51
315.0
  0
INSERT
  5
25F
330
25B
100
AcDbEntity
  8
0
  6
Continuous
 62
     7
370
     0
100
AcDbBlockReference
  2
_OPEN30
 10
148.2587681413
 20
128.7791670752
 30
0.1
 41
1.5
 42
1.5
 50
181.844813339
  0
INSERT
  5
260
330
25B
100
AcDbEntity
  8
0
  6
Continuous
 62
     7
370
     0
100
AcDbBlockReference
  2
_OPEN30
 10
164.7068616567
 20
135.5921904845
 30
0.1
 41
1.5
 42
1.5
 50
43.155186661
  0
LINE
  5
261
330
25B
100
AcDbEntity
  8
0
  6
Continuous
 62
     7
370
     0
100
AcDbLine
 10
148.2587681413
 20
141.4464179179
 30
0.0
 11
148.2587681413
 21
127.7791670752
 31
0.0
  0
LINE
  5
262
330
25B
100
AcDbEntity
  8
0
  6
Continuous
 62
     7
370
     0
100
AcDbLine
 10
150.7619261467
 20
149.5371259945
 30
0.0
 11
165.4139684379
 21
134.8850837033
 31
0.0
  0
MTEXT
  5
263
330
25B
100
AcDbEntity
  8
0
  6
Continuous
 62
     7
370
     0
100
AcDbMText
 10
150.0901647842
 20
132.9410812463
 30
0.0
 40
3.5
 41
0.0
 71
     1
 72
     1
  1
45°
  7
SLDTEXTSTYLE0
 11
0.9524744617645251
 21
0.3046184493532494
 31
0.0
 73
     1
 44
1.0
  0
ENDBLK
  5
25D
330
25B
100
AcDbEntity
  8
0
100
AcDbBlockEnd
  0
BLOCK
  5
267
330
266
100
AcDbEntity
  8
0
100
AcDbBlockBegin
  2
_D_14
 70
     0
 10
0.0
 20
0.0
 30
0.0
  3
_D_14
  1
_D_14
  0
INSERT
  5
269
330
266
100
AcDbEntity
  8
0
  6
Continuous
 62
     7
370
     0
100
AcDbBlockReference
  2
_OPEN30
 10
169.340375792
 20
154.2902839999
 30
-2.9
 41
1.5
 42
1.5
 50
90.0
  0
INSERT
  5
26A
330
266
100
AcDbEntity
  8
0
  6
Continuous
 62
     7
370
     0
100
AcDbBlockReference
  2
_OPEN30
 10
169.340375792
 20
150.2902839999
 30
-2.9
 41
1.5
 42
1.5
 50
270.0
  0
LINE
  5
26B
330
266
100
AcDbEntity
  8
0
  6
Continuous
 62
     7
370
     0
100
AcDbLine
 10
156.8599193699
 20
154.2902839999
 30
0.0
 11
170.340375792
 21
154.2902839999
 31
0.0
  0
LINE
  5
26C
330
266
100
AcDbEntity
  8
0
  6
Continuous
 62
     7
370
     0
100
AcDbLine
 10
156.8599193699
 20
150.2902839999
 30
0.0
 11
170.340375792
 21
150.2902839999
 31
0.0
  0
LINE
  5
26D
330
266
100
AcDbEntity
  8
0
  6
Continuous
 62
     7
370
     0
100
AcDbLine
 10
169.340375792
 20
154.2902839999
 30
0.0
 11
169.340375792
 21
159.6458365764
 31
0.0
  0
LINE
  5
26E
330
266
100
AcDbEntity
  8
0
  6
Continuous
 62
     7
370
     0
100
AcDbLine
 10
169.340375792
 20
154.2902839999
 30
0.0
 11
169.340375792
 21
150.2902839999
 31
0.0
  0
MTEXT
  5
26F
330
266
100
AcDbEntity
  8
0
  6
Continuous
 62
     7
370
     0
100
AcDbMText
 10
164.8286389356
 20
157.6090310789
 30
0.0
 40
3.5
 41
0.0
 71
     1
 72
     1
  1
4
  7
SLDTEXTSTYLE0
 11
-1.503780079494476E-14
 21
1.0
 31
0.0
 73
     1
 44
1.0
  0
ENDBLK
  5
268
330
266
100
AcDbEntity
  8
0
100
AcDbBlockEnd
  0
BLOCK
  5
272
330
271
100
AcDbEntity
  8
0
100
AcDbBlockBegin
  2
_D_15
 70
     0
 10
0.0
 20
0.0
 30
0.0
  3
_D_15
  1
_D_15
  0
INSERT
  5
274
330
271
100
AcDbEntity
  8
0
  6
Continuous
 62
     7
370
     0
100
AcDbBlockReference
  2
_OPEN30
 10
161.6121700776
 20
153.0402839999
 30
-2.9
 41
1.5
 42
1.5
 50
270.0
  0
INSERT
  5
275
330
271
100
AcDbEntity
  8
0
  6
Continuous
 62
     7
370
     0
100
AcDbBlockReference
  2
_OPEN30
 10
161.6121700776
 20
151.0402839999
 30
-2.9
 41
1.5
 42
1.5
 50
90.0
  0
LINE
  5
276
330
271
100
AcDbEntity
  8
0
  6
Continuous
 62
     7
370
     0
100
AcDbLine
 10
157.3587681413
 20
153.0402839999
 30
0.0
 11
162.6121700776
 21
153.0402839999
 31
0.0
  0
LINE
  5
277
330
271
100
AcDbEntity
  8
0
  6
Continuous
 62
     7
370
     0
100
AcDbLine
 10
157.3587681413
 20
151.0402839999
 30
0.0
 11
162.6121700776
 21
151.0402839999
 31
0.0
  0
LINE
  5
278
330
271
100
AcDbEntity
  8
0
  6
Continuous
 62
     7
370
     0
100
AcDbLine
 10
161.6121700776
 20
153.0402839999
 30
0.0
 11
161.6121700776
 21
159.6458365764
 31
0.0
  0
LINE
  5
279
330
271
100
AcDbEntity
  8
0
  6
Continuous
 62
     7
370
     0
100
AcDbLine
 10
161.6121700776
 20
153.0402839999
 30
0.0
 11
161.6121700776
 21
151.0402839999
 31
0.0
  0
LINE
  5
27A
330
271
100
AcDbEntity
  8
0
  6
Continuous
 62
     7
370
     0
100
AcDbLine
 10
161.6121700776
 20
151.0402839999
 30
0.0
 11
161.6121700776
 21
148.0402839999
 31
0.0
  0
MTEXT
  5
27B
330
271
100
AcDbEntity
  8
0
  6
Continuous
 62
     7
370
     0
100
AcDbMText
 10
157.1004332212
 20
157.6090310789
 30
0.0
 40
3.5
 41
0.0
 71
     1
 72
     1
  1
2
  7
SLDTEXTSTYLE0
 11
-7.044195017643634E-15
 21
1.0
 31
0.0
 73
     1
 44
1.0
  0
ENDBLK
  5
273
330
271
100
AcDbEntity
  8
0
100
AcDbBlockEnd
  0
BLOCK
  5
2E0
330
2DF
100
AcDbEntity
  8
0
100
AcDbBlockBegin
  2
_D_16
 70
     0
 10
0.0
 20
0.0
 30
0.0
  3
_D_16
  1
_D_16
  0
INSERT
  5
2E2
330
2DF
100
AcDbEntity
  8
0
  6
Continuous
 62
     7
370
     0
100
AcDbBlockReference
  2
_OPEN30
 10
70.5876744742
 20
191.273904703
 30
0.1
 41
1.5
 42
1.5
 50
270.0
  0
INSERT
  5
2E3
330
2DF
100
AcDbEntity
  8
0
  6
Continuous
 62
     7
370
     0
100
AcDbBlockReference
  2
_OPEN30
 10
70.5876744742
 20
178.573904703
 30
0.1
 41
1.5
 42
1.5
 50
90.0
  0
LINE
  5
2E4
330
2DF
100
AcDbEntity
  8
0
  6
Continuous
 62
     7
370
     0
100
AcDbLine
 10
66.8376744742
 20
191.273904703
 30
0.0
 11
71.5876744742
 21
191.273904703
 31
0.0
  0
LINE
  5
2E5
330
2DF
100
AcDbEntity
  8
0
  6
Continuous
 62
     7
370
     0
100
AcDbLine
 10
58.7876744742
 20
178.573904703
 30
0.0
 11
71.5876744742
 21
178.573904703
 31
0.0
  0
LINE
  5
2E6
330
2DF
100
AcDbEntity
  8
0
  6
Continuous
 62
     7
370
     0
100
AcDbLine
 10
70.5876744742
 20
191.273904703
 30
0.0
 11
70.5876744742
 21
194.273904703
 31
0.0
  0
LINE
  5
2E7
330
2DF
100
AcDbEntity
  8
0
  6
Continuous
 62
     7
370
     0
100
AcDbLine
 10
70.5876744742
 20
191.273904703
 30
0.0
 11
70.5876744742
 21
178.573904703
 31
0.0
  0
LINE
  5
2E8
330
2DF
100
AcDbEntity
  8
0
  6
Continuous
 62
     7
370
     0
100
AcDbLine
 10
70.5876744742
 20
178.573904703
 30
0.0
 11
70.5876744742
 21
175.573904703
 31
0.0
  0
MTEXT
  5
2E9
330
2DF
100
AcDbEntity
  8
0
  6
Continuous
 62
     7
370
     0
100
AcDbMText
 10
66.0759376178
 20
181.0601974012
 30
0.0
 40
3.5
 41
0.0
 71
     1
 72
     1
  1
12.7
  7
SLDTEXTSTYLE0
 11
-7.044195017643634E-15
 21
1.0
 31
0.0
 73
     1
 44
1.0
  0
ENDBLK
  5
2E1
330
2DF
100
AcDbEntity
  8
0
100
AcDbBlockEnd
  0
BLOCK
  5
2ED
330
2EC
100
AcDbEntity
  8
0
100
AcDbBlockBegin
  2
_D_17
 70
     0
 10
0.0
 20
0.0
 30
0.0
  3
_D_17
  1
_D_17
  0
INSERT
  5
2EF
330
2EC
100
AcDbEntity
  8
0
  6
Continuous
 62
     7
370
     0
100
AcDbBlockReference
  2
_OPEN30
 10
44.7376744742
 20
199.6506463073
 30
0.1
 41
1.5
 42
1.5
 50
180.0
  0
INSERT
  5
2F0
330
2EC
100
AcDbEntity
  8
0
  6
Continuous
 62
     7
370
     0
100
AcDbBlockReference
  2
_OPEN30
 10
59.8376744742
 20
199.6506463073
 30
0.1
 41
1.5
 42
1.5
 50
360.0
  0
LINE
  5
2F1
330
2EC
100
AcDbEntity
  8
0
  6
Continuous
 62
     7
370
     0
100
AcDbLine
 10
44.7376744742
 20
192.273904703
 30
0.0
 11
44.7376744742
 21
200.6506463073
 31
0.0
  0
LINE
  5
2F2
330
2EC
100
AcDbEntity
  8
0
  6
Continuous
 62
     7
370
     0
100
AcDbLine
 10
59.8376744742
 20
192.273904703
 30
0.0
 11
59.8376744742
 21
200.6506463073
 31
0.0
  0
LINE
  5
2F3
330
2EC
100
AcDbEntity
  8
0
  6
Continuous
 62
     7
370
     0
100
AcDbLine
 10
44.7376744742
 20
199.6506463073
 30
0.0
 11
22.6046081595
 21
199.6506463073
 31
0.0
  0
LINE
  5
2F4
330
2EC
100
AcDbEntity
  8
0
  6
Continuous
 62
     7
370
     0
100
AcDbLine
 10
44.7376744742
 20
199.6506463073
 30
0.0
 11
59.8376744742
 21
199.6506463073
 31
0.0
  0
MTEXT
  5
2F5
330
2EC
100
AcDbEntity
  8
0
  6
Continuous
 62
     7
370
     0
100
AcDbMText
 10
22.6046081595
 20
204.162384095
 30
0.0
 40
3.5
 41
0.0
 71
     1
 72
     1
  1
%%c
  7
SLDTEXTSTYLE0
 73
     1
 44
1.0
  0
MTEXT
  5
2F6
330
2EC
100
AcDbEntity
  8
0
  6
Continuous
 62
     7
370
     0
100
AcDbMText
 10
26.4745386745
 20
204.162384095
 30
0.0
 40
3.5
 41
0.0
 71
     1
 72
     1
  1
15.1
  7
SLDTEXTSTYLE0
 73
     1
 44
1.0
  0
MTEXT
  5
2F7
330
2EC
100
AcDbEntity
  8
0
  6
Continuous
 62
     7
370
     0
100
AcDbMText
 10
34.6144687645
 20
204.162384095
 30
0.0
 40
3.5
 41
0.0
 71
     1
 72
     1
  1

  7
SLDTEXTSTYLE0
 73
     1
 44
1.0
  0
MTEXT
  5
2F8
330
2EC
100
AcDbEntity
  8
0
  6
Continuous
 62
     7
370
     0
100
AcDbMText
 10
34.650927592
 20
208.23599509
 30
0.0
 40
3.5
 41
0.0
 71
     1
 72
     1
  1
+
  7
SLDTEXTSTYLE0
 73
     1
 44
1.0
  0
MTEXT
  5
2F9
330
2EC
100
AcDbEntity
  8
0
  6
Continuous
 62
     7
370
     0
100
AcDbMText
 10
36.2526636598
 20
204.162384095
 30
0.0
 40
3.5
 41
0.0
 71
     1
 72
     1
  1

  7
SLDTEXTSTYLE0
 73
     1
 44
1.0
  0
MTEXT
  5
2FA
330
2EC
100
AcDbEntity
  8
0
  6
Continuous
 62
     7
370
     0
100
AcDbMText
 10
36.6877328567
 20
208.23599509
 30
0.0
 40
3.5
 41
0.0
 71
     1
 72
     1
  1
0.2
  7
SLDTEXTSTYLE0
 73
     1
 44
1.0
  0
MTEXT
  5
2FB
330
2EC
100
AcDbEntity
  8
0
  6
Continuous
 62
     7
370
     0
100
AcDbMText
 10
36.6877328567
 20
204.162384095
 30
0.0
 40
3.5
 41
0.0
 71
     1
 72
     1
  1
0
  7
SLDTEXTSTYLE0
 73
     1
 44
1.0
  0
ENDBLK
  5
2EE
330
2EC
100
AcDbEntity
  8
0
100
AcDbBlockEnd
  0
BLOCK
  5
2FD
330
2FC
100
AcDbEntity
  8
0
100
AcDbBlockBegin
  2
SW_NOTE_4
 70
     0
 10
0.0
 20
0.0
 30
0.0
  3
SW_NOTE_4
  1
SW_NOTE_4
  0
LINE
  5
2FF
330
2FC
100
AcDbEntity
  8
0
  6
Continuous
 62
     0
370
     0
100
AcDbLine
 10
10.0879805849
 20
0.0
 30
0.0
 11
0.0
 21
0.0
 31
0.0
  0
MTEXT
  5
300
330
2FC
100
AcDbEntity
  8
0
  6
Continuous
 62
     0
370
     0
100
AcDbMText
 10
0.4246209198
 20
4.6125386763
 30
0.0
 40
3.5
 41
0.0
 71
     1
 72
     1
  1
Note2
  7
SLDTEXTSTYLE0
 73
     1
 44
1.0
  0
ENDBLK
  5
2FE
330
2FC
100
AcDbEntity
  8
0
100
AcDbBlockEnd
  0
BLOCK
  5
365
330
364
100
AcDbEntity
  8
0
100
AcDbBlockBegin
  2
_D_18
 70
     0
 10
0.0
 20
0.0
 30
0.0
  3
_D_18
  1
_D_18
  0
INSERT
  5
367
330
364
100
AcDbEntity
  8
0
  6
Continuous
 62
     7
370
     0
100
AcDbBlockReference
  2
_OPEN30
 10
70.8464949813
 20
263.1815655155
 30
0.1
 41
1.5
 42
1.5
 50
90.0
  0
INSERT
  5
368
330
364
100
AcDbEntity
  8
0
  6
Continuous
 62
     7
370
     0
100
AcDbBlockReference
  2
_OPEN30
 10
70.8464949813
 20
258.6815655155
 30
0.1
 41
1.5
 42
1.5
 50
270.0
  0
LINE
  5
369
330
364
100
AcDbEntity
  8
0
  6
Continuous
 62
     7
370
     0
100
AcDbLine
 10
53.0911061017
 20
263.1815655155
 30
0.0
 11
71.8464949813
 21
263.1815655155
 31
0.0
  0
LINE
  5
36A
330
364
100
AcDbEntity
  8
0
  6
Continuous
 62
     7
370
     0
100
AcDbLine
 10
60.3911061017
 20
258.6815655155
 30
0.0
 11
71.8464949813
 21
258.6815655155
 31
0.0
  0
LINE
  5
36B
330
364
100
AcDbEntity
  8
0
  6
Continuous
 62
     7
370
     0
100
AcDbLine
 10
70.8464949813
 20
263.1815655155
 30
0.0
 11
70.8464949813
 21
258.6815655155
 31
0.0
  0
LINE
  5
36C
330
364
100
AcDbEntity
  8
0
  6
Continuous
 62
     7
370
     0
100
AcDbLine
 10
70.8464949813
 20
258.6815655155
 30
0.0
 11
70.8464949813
 21
251.9092023384
 31
0.0
  0
MTEXT
  5
36D
330
364
100
AcDbEntity
  8
0
  6
Continuous
 62
     7
370
     0
100
AcDbMText
 10
66.334758125
 20
251.9092023384
 30
0.0
 40
3.5
 41
0.0
 71
     1
 72
     1
  1
4.5
  7
SLDTEXTSTYLE0
 11
-7.044195017643634E-15
 21
1.0
 31
0.0
 73
     1
 44
1.0
  0
ENDBLK
  5
366
330
364
100
AcDbEntity
  8
0
100
AcDbBlockEnd
  0
BLOCK
  5
371
330
370
100
AcDbEntity
  8
0
100
AcDbBlockBegin
  2
SW_NOTE_5
 70
     0
 10
0.0
 20
0.0
 30
0.0
  3
SW_NOTE_5
  1
SW_NOTE_5
  0
LINE
  5
373
330
370
100
AcDbEntity
  8
0
  6
Continuous
 62
     0
370
     0
100
AcDbLine
 10
-10.289796932
 20
0.0
 30
0.0
 11
0.0
 21
0.0
 31
0.0
  0
MTEXT
  5
374
330
370
100
AcDbEntity
  8
0
  6
Continuous
 62
     0
370
     0
100
AcDbMText
 10
-10.7889536491
 20
4.573475234
 30
0.0
 40
3.5
 41
0.0
 71
     1
 72
     1
  1
Note1
  7
SLDTEXTSTYLE0
 73
     1
 44
1.0
  0
ENDBLK
  5
372
330
370
100
AcDbEntity
  8
0
100
AcDbBlockEnd
  0
BLOCK
  5
3F5
330
3F4
100
AcDbEntity
  8
0
100
AcDbBlockBegin
  2
SW_NOTE_6
 70
     0
 10
0.0
 20
0.0
 30
0.0
  3
SW_NOTE_6
  1
SW_NOTE_6
  0
MTEXT
  5
3F8
330
3F4
100
AcDbEntity
  8
0
  6
Continuous
 62
     0
370
     0
100
AcDbMText
 10
9.5703125
 20
4.5117370892
 30
0.0
 40
3.5
 41
0.0
 71
     2
 72
     1
  1
SECTION
  7
SLDTEXTSTYLE2
 73
     1
 44
1.0
  0
MTEXT
  5
3F9
330
3F4
100
AcDbEntity
  8
0
  6
Continuous
 62
     0
370
     0
100
AcDbMText
 10
23.5776031315
 20
4.9638206247
 30
0.0
 40
3.5
 41
0.0
 71
     2
 72
     1
  1
A-A
  7
SLDTEXTSTYLE0
 73
     1
 44
1.0
  0
ENDBLK
  5
3F6
330
3F4
100
AcDbEntity
  8
0
100
AcDbBlockEnd
  0
ENDSEC
  0
SECTION
  2
ENTITIES
  0
LINE
  5
6F
330
1F
100
AcDbEntity
  8
0
  6
CENTERX2
 62
     7
370
     0
100
AcDbLine
 10
51.7344694261
 20
132.1994093112
 30
0.0
 11
51.7344694261
 21
122.3963818466
 31
0.0
  0
LINE
  5
70
330
1F
100
AcDbEntity
  8
0
  6
CENTERX2
 62
     7
370
     0
100
AcDbLine
 10
48.1413527515
 20
127.3480741409
 30
0.0
 11
55.6741111514
 21
127.3480741409
 31
0.0
  0
LINE
  5
71
330
1F
100
AcDbEntity
  8
0
  6
CENTERX2
 62
     7
370
     0
100
AcDbLine
 10
53.5305206503
 20
125.5520229167
 30
0.0
 11
49.9384182019
 21
129.1441253651
 31
0.0
  0
LINE
  5
72
330
1F
100
AcDbEntity
  8
0
  6
CENTERX2
 62
     7
370
     0
100
AcDbLine
 10
49.9384182019
 20
125.5520229167
 30
0.0
 11
53.5305206503
 21
129.1441253651
 31
0.0
  0
LINE
  5
73
330
1F
100
AcDbEntity
  8
0
  6
Continuous
 62
     7
370
    30
100
AcDbLine
 10
5.0
 20
25.0
 30
0.0
 11
205.0
 21
25.0
 31
0.0
  0
LINE
  5
74
330
1F
100
AcDbEntity
  8
0
  6
Continuous
 62
     7
370
    30
100
AcDbLine
 10
5.0
 20
292.0
 30
0.0
 11
205.0
 21
292.0
 31
0.0
  0
LINE
  5
75
330
1F
100
AcDbEntity
  8
0
  6
Continuous
 62
     7
370
    30
100
AcDbLine
 10
5.0
 20
292.0
 30
0.0
 11
5.0
 21
7.0
 31
0.0
  0
LINE
  5
76
330
1F
100
AcDbEntity
  8
0
  6
Continuous
 62
     7
370
    30
100
AcDbLine
 10
5.0
 20
7.0
 30
0.0
 11
205.0
 21
7.0
 31
0.0
  0
LINE
  5
77
330
1F
100
AcDbEntity
  8
0
  6
Continuous
 62
     7
370
    30
100
AcDbLine
 10
205.0
 20
292.0
 30
0.0
 11
205.0
 21
7.0
 31
0.0
  0
LINE
  5
78
330
1F
100
AcDbEntity
  8
0
  6
Continuous
 62
     7
370
    30
100
AcDbLine
 10
5.0
 20
40.0
 30
0.0
 11
205.0
 21
40.0
 31
0.0
  0
LINE
  5
79
330
1F
100
AcDbEntity
  8
0
  6
Continuous
 62
     7
370
    30
100
AcDbLine
 10
5.0
 20
47.0
 30
0.0
 11
205.0
 21
47.0
 31
0.0
  0
LINE
  5
7A
330
1F
100
AcDbEntity
  8
0
  6
Continuous
 62
     7
370
    30
100
AcDbLine
 10
145.0
 20
47.0
 30
0.0
 11
145.0
 21
25.0
 31
0.0
  0
LINE
  5
7B
330
1F
100
AcDbEntity
  8
0
  6
Continuous
 62
     7
370
    30
100
AcDbLine
 10
145.0
 20
32.5
 30
0.0
 11
205.0
 21
32.5
 31
0.0
  0
LINE
  5
7C
330
1F
100
AcDbEntity
  8
0
  6
Continuous
 62
     7
370
    30
100
AcDbLine
 10
175.0
 20
40.0
 30
0.0
 11
175.0
 21
32.5
 31
0.0
  0
LINE
  5
7D
330
1F
100
AcDbEntity
  8
0
  6
Continuous
 62
     7
370
     0
100
AcDbLine
 10
128.9292008689
 20
63.0961638737
 30
0.0
 11
200.9292008689
 21
63.0961638737
 31
0.0
  0
LINE
  5
7E
330
1F
100
AcDbEntity
  8
0
  6
Continuous
 62
     7
370
     0
100
AcDbLine
 10
128.9292008689
 20
63.0961638737
 30
0.0
 11
128.9292008689
 21
49.0961638737
 31
0.0
  0
LINE
  5
7F
330
1F
100
AcDbEntity
  8
0
  6
Continuous
 62
     7
370
     0
100
AcDbLine
 10
128.9292008689
 20
49.0961638737
 30
0.0
 11
200.9292008689
 21
49.0961638737
 31
0.0
  0
LINE
  5
80
330
1F
100
AcDbEntity
  8
0
  6
Continuous
 62
     7
370
     0
100
AcDbLine
 10
200.9292008689
 20
63.0961638737
 30
0.0
 11
200.9292008689
 21
49.0961638737
 31
0.0
  0
LINE
  5
81
330
1F
100
AcDbEntity
  8
0
  6
Continuous
 62
     7
370
     0
100
AcDbLine
 10
5.0
 20
292.0
 30
0.0
 11
5.0
 21
262.0
 31
0.0
  0
CIRCLE
  5
82
330
1F
100
AcDbEntity
  8
0
  6
CENTER
 62
     7
370
     0
100
AcDbCircle
 10
51.7344694261
 20
127.3480741409
 30
0.0
 40
2.53999999999843
  0
CIRCLE
  5
83
330
1F
100
AcDbEntity
  8
0
  6
CENTER
 62
     7
370
    30
100
AcDbCircle
 10
53.5305206503
 20
129.1441253651
 30
0.0
 40
0.3249999999984179
  0
CIRCLE
  5
84
330
1F
100
AcDbEntity
  8
0
  6
CENTER
 62
     7
370
    30
100
AcDbCircle
 10
53.5305206503
 20
125.5520229167
 30
0.0
 40
0.324999999998407
  0
CIRCLE
  5
85
330
1F
100
AcDbEntity
  8
0
  6
CENTER
 62
     7
370
    30
100
AcDbCircle
 10
49.9384182019
 20
129.1441253651
 30
0.0
 40
0.3249999999984587
  0
DIMENSION
  5
86
330
1F
100
AcDbEntity
  8
0
  6
Continuous
 62
     7
370
     0
100
AcDbDimension
  2
_D
 10
53.747168443
 20
128.8974748855
 30
0.0
 11
32.7118360454
 21
123.2926971215
 31
0.0
 70
   163
  1
<>±0.1
 71
     1
 42
-1.0
  3
SLDDIMSTYLE0
100
AcDbDiametricDimension
 15
49.7217704092
 25
125.7986733964
 35
0.0
 40
0.0
  0
DIMENSION
  5
9C
330
1F
100
AcDbEntity
  8
0
  6
Continuous
 62
     7
370
     0
100
AcDbDimension
  2
_D_1
 10
49.9384182019
 20
125.5520229167
 30
0.0
 11
67.7776739467
 21
131.9399393434
 31
0.0
 70
   162
  1
<>
 71
     1
 42
-1.0
  3
SLDDIMSTYLE1
100
AcDb2LineAngularDimension
 13
55.6741111514
 23
127.3480741409
 33
0.0
 14
48.1413527515
 24
127.3480741409
 34
0.0
 15
53.5305206503
 25
129.1441253651
 35
0.0
 16
67.1516255555
 26
133.7340693029
 36
0.0
  0
DIMENSION
  5
A7
330
1F
100
AcDbEntity
  8
0
  6
Continuous
 62
     7
370
     0
100
AcDbDimension
  2
_D_2
 10
55.6741111514
 20
127.3480741409
 30
0.0
 11
67.7776739467
 21
123.2819931174
 31
0.0
 70
   162
  1
<>
 71
     1
 42
-1.0
  3
SLDDIMSTYLE1
100
AcDb2LineAngularDimension
 13
53.5305206503
 23
125.5520229167
 33
0.0
 14
49.9384182019
 24
129.1441253651
 34
0.0
 15
48.1413527515
 25
127.3480741409
 35
0.0
 16
67.0250922995
 26
121.0144907696
 36
0.0
  0
DIMENSION
  5
B1
330
1F
100
AcDbEntity
  8
0
  6
Continuous
 62
     7
370
     0
100
AcDbDimension
  2
_D_3
 10
50.1717527782
 20
128.9178954479
 30
0.0
 11
32.7118360454
 21
138.190679778
 31
0.0
 70
   163
  1
3-<>
 71
     1
 42
-1.0
  3
SLDDIMSTYLE2
100
AcDbDiametricDimension
 15
49.7050836255
 25
129.3703552824
 35
0.0
 40
0.0
  0
INSERT
  5
C8
330
1F
100
AcDbEntity
  8
0
  6
Continuous
 62
     7
370
     0
100
AcDbBlockReference
  2
SW_NOTE_0
 10
39.2737961629
 20
218.6332000681
 30
0.0
  0
INSERT
  5
CE
330
1F
100
AcDbEntity
  8
0
  6
Continuous
 62
     7
370
     0
100
AcDbBlockReference
  2
SW_NOTE_1
 10
37.8428782836
 20
151.0387237338
 30
0.0
  0
MTEXT
  5
CF
330
1F
100
AcDbEntity
  8
0
  6
Continuous
 62
     7
370
     0
100
AcDbMText
 10
23.837064113
 20
133.6705438604
 30
0.0
 40
2.38125
 41
0.0
 71
     1
 72
     1
  1
(3-0.026 dia.)
  7
SLDTEXTSTYLE0
 73
     1
 44
1.0
  0
MTEXT
  5
D0
330
1F
100
AcDbEntity
  8
0
  6
Continuous
 62
     7
370
     0
100
AcDbMText
 10
28.6441056384
 20
120.8119353181
 30
0.0
 40
2.38125
 41
0.0
 71
     1
 72
     1
  1
(0.2 dia.)
  7
SLDTEXTSTYLE0
 73
     1
 44
1.0
  0
MTEXT
  5
D1
330
1F
100
AcDbEntity
  8
0
  6
Continuous
 62
     7
370
     0
100
AcDbMText
 10
173.4360530891
 20
203.4397823088
 30
0.0
 40
2.38125
 41
0.0
 71
     1
 72
     1
  1
(0.677)
  7
SLDTEXTSTYLE0
 11
-3.269436733918102E-15
 21
1.0
 31
0.0
 73
     1
 44
1.0
  0
MTEXT
  5
D2
330
1F
100
AcDbEntity
  8
0
  6
Continuous
 62
     7
370
     0
100
AcDbMText
 10
164.8466426871
 20
200.1515079978
 30
0.0
 40
2.38125
 41
0.0
 71
     1
 72
     1
  1
(0.311)
  7
SLDTEXTSTYLE0
 11
-3.269436733918102E-15
 21
1.0
 31
0.0
 73
     1
 44
1.0
  0
MTEXT
  5
D3
330
1F
100
AcDbEntity
  8
0
  6
Continuous
 62
     7
370
     0
100
AcDbMText
 10
164.5339843737
 20
184.9455359631
 30
0.0
 40
2.38125
 41
0.0
 71
     1
 72
     1
  1
(0.181)
  7
SLDTEXTSTYLE0
 11
-3.269436733918102E-15
 21
1.0
 31
0.0
 73
     1
 44
1.0
  0
MTEXT
  5
D4
330
1F
100
AcDbEntity
  8
0
  6
Continuous
 62
     7
370
     0
100
AcDbMText
 10
162.6204261854
 20
154.4315862632
 30
0.0
 40
2.38125
 41
0.0
 71
     1
 72
     1
  1
(0.079)
  7
SLDTEXTSTYLE0
 11
-3.269436733918102E-15
 21
1.0
 31
0.0
 73
     1
 44
1.0
  0
MTEXT
  5
D5
330
1F
100
AcDbEntity
  8
0
  6
Continuous
 62
     7
370
     0
100
AcDbMText
 10
169.902437636
 20
154.499533292
 30
0.0
 40
2.38125
 41
0.0
 71
     1
 72
     1
  1
(0.157)
  7
SLDTEXTSTYLE0
 11
-3.269436733918102E-15
 21
1.0
 31
0.0
 73
     1
 44
1.0
  0
MTEXT
  5
D6
330
1F
100
AcDbEntity
  8
0
  6
Continuous
 62
     7
370
     0
100
AcDbMText
 10
114.5015994439
 20
165.6202688813
 30
0.0
 40
2.38125
 41
0.0
 71
     1
 72
     1
  1
(0.2 dia.)
  7
SLDTEXTSTYLE0
 73
     1
 44
1.0
  0
MTEXT
  5
D7
330
1F
100
AcDbEntity
  8
0
  6
Continuous
 62
     7
370
     0
100
AcDbMText
 10
159.8187293988
 20
230.5388934396
 30
0.0
 40
2.38125
 41
0.0
 71
     1
 72
     1
  1
(0.654)
  7
SLDTEXTSTYLE0
 73
     1
 44
1.0
  0
MTEXT
  5
D8
330
1F
100
AcDbEntity
  8
0
  6
Continuous
 62
     7
370
     0
100
AcDbMText
 10
158.735511733
 20
221.9865234359
 30
0.0
 40
2.38125
 41
0.0
 71
     1
 72
     1
  1
(0.575 dia)
  7
SLDTEXTSTYLE0
 73
     1
 44
1.0
  0
MTEXT
  5
D9
330
1F
100
AcDbEntity
  8
0
  6
Continuous
 62
     7
370
     0
100
AcDbMText
 10
123.5734940947
 20
195.6986387224
 30
0.0
 40
2.38125
 41
0.0
 71
     1
 72
     1
  1
(0.018 dia.)
  7
SLDTEXTSTYLE0
 73
     1
 44
1.0
  0
MTEXT
  5
DA
330
1F
100
AcDbEntity
  8
0
  6
Continuous
 62
     7
370
     0
100
AcDbMText
 10
6.3280684874
 20
6.445181383
 30
0.0
 40
2.38125
 41
0.0
 71
     1
 72
     1
  1
(JIS A-4)
  7
SLDTEXTSTYLE0
 73
     1
 44
1.0
  0
MTEXT
  5
DB
330
1F
100
AcDbEntity
  8
0
  6
Continuous
 62
     7
370
     0
100
AcDbMText
 10
64.7360648843
 20
6.445181383
 30
0.0
 40
2.38125
 41
0.0
 71
     1
 72
     1
  1
All Right Reserved Copyrigh, (C) Panasonic Corporation
  7
SLDTEXTSTYLE0
 73
     1
 44
1.0
  0
MTEXT
  5
DC
330
1F
100
AcDbEntity
  8
0
  6
Continuous
 62
     7
370
     0
100
AcDbMText
 10
76.198799667
 20
22.8890928843
 30
0.0
 40
4.2333333333
 41
0.0
 71
     1
 72
     1
  1
Panasonic Corporation
  7
SLDTEXTSTYLE0
 73
     1
 44
1.0
  0
MTEXT
  5
DD
330
1F
100
AcDbEntity
  8
0
  6
Continuous
 62
     7
370
     0
100
AcDbMText
 10
75.2830248209
 20
16.0597678541
 30
0.0
 40
4.2333333333
 41
0.0
 71
     1
 72
     1
  1
Eco Solutions Company
  7
SLDTEXTSTYLE0
 73
     1
 44
1.0
  0
MTEXT
  5
DE
330
1F
100
AcDbEntity
  8
0
  6
Continuous
 62
     7
370
     0
100
AcDbMText
 10
7.399505626
 20
37.9517125752
 30
0.0
 40
4.2333333333
 41
0.0
 71
     1
 72
     1
  1
Name PIR MOTION SENSOR 'PaPIRs' EKM series
  7
SLDTEXTSTYLE0
 73
     1
 44
1.0
  0
MTEXT
  5
DF
330
1F
100
AcDbEntity
  8
0
  6
Continuous
 62
     7
370
     0
100
AcDbMText
 10
43.1181563571
 20
31.8857114426
 30
0.0
 40
4.2333333333
 41
0.0
 71
     1
 72
     1
  1
(Slight motion detection type)
  7
SLDTEXTSTYLE0
 73
     1
 44
1.0
  0
MTEXT
  5
E0
330
1F
100
AcDbEntity
  8
0
  6
Continuous
 62
     7
370
     0
100
AcDbMText
 10
148.4473581884
 20
46.0655805192
 30
0.0
 40
4.2333333333
 41
0.0
 71
     1
 72
     1
  1
Date Nov.06.2017
  7
SLDTEXTSTYLE0
 73
     1
 44
1.0
  0
MTEXT
  5
E1
330
1F
100
AcDbEntity
  8
0
  6
Continuous
 62
     7
370
     0
100
AcDbMText
 10
147.8956185945
 20
38.8622472622
 30
0.0
 40
4.2333333333
 41
0.0
 71
     1
 72
     1
  1
Scale 1:1
  7
SLDTEXTSTYLE0
 73
     1
 44
1.0
  0
MTEXT
  5
E2
330
1F
100
AcDbEntity
  8
0
  6
Continuous
 62
     7
370
     0
100
AcDbMText
 10
177.1188186671
 20
38.8622472622
 30
0.0
 40
4.2333333333
 41
0.0
 71
     1
 72
     1
  1
Unit mm
  7
SLDTEXTSTYLE0
 73
     1
 44
1.0
  0
MTEXT
  5
E3
330
1F
100
AcDbEntity
  8
0
  6
Continuous
 62
     7
370
     0
100
AcDbMText
 10
147.8956185945
 20
31.5452447955
 30
0.0
 40
4.2333333333
 41
0.0
 71
     1
 72
     1
  1
Tolerance
  7
SLDTEXTSTYLE0
 73
     1
 44
1.0
  0
MTEXT
  5
E4
330
1F
100
AcDbEntity
  8
0
  6
Continuous
 62
     7
370
     0
100
AcDbMText
 10
7.399505626
 20
46.2820908805
 30
0.0
 40
4.2333333333
 41
0.0
 71
     1
 72
     1
  1
Parts No. EKM***9111**
  7
SLDTEXTSTYLE0
 73
     1
 44
1.0
  0
MTEXT
  5
E5
330
1F
100
AcDbEntity
  8
0
  6
Continuous
 62
     7
370
     0
100
AcDbMText
 10
130.1376779536
 20
58.3504872728
 30
0.0
 40
3.7041666667
 41
0.0
 71
     1
 72
     1
  1
General tolerance
  7
SLDTEXTSTYLE0
 73
     1
 44
1.0
  0
INSERT
  5
EC
330
1F
100
AcDbEntity
  8
0
  6
Continuous
 62
     7
370
     0
100
AcDbBlockReference
  2
SW_NOTE_2
 10
170.2884828494
 20
55.6699686122
 30
0.0
  0
INSERT
  5
F4
330
1F
100
AcDbEntity
  8
0
  6
Continuous
 62
     7
370
     0
100
AcDbBlockReference
  2
SW_NOTE_3
 10
9.402366996
 20
77.6648053195
 30
0.0
  0
LINE
  5
F5
330
1F
100
AcDbEntity
  8
0
  6
Continuous
 62
     7
370
    30
100
AcDbLine
 10
149.8298193356
 20
199.4771040878
 30
0.0
 11
149.8298193356
 21
194.8771044514
 31
0.0
  0
LINE
  5
F6
330
1F
100
AcDbEntity
  8
0
  6
Continuous
 62
     7
370
    30
100
AcDbLine
 10
150.2798193861
 20
194.8771044514
 30
0.0
 11
150.2798193861
 21
199.4771040878
 31
0.0
  0
LINE
  5
F7
330
1F
100
AcDbEntity
  8
0
  6
Continuous
 62
     7
370
    30
100
AcDbLine
 10
146.2377168965
 20
199.4771040878
 30
0.0
 11
146.2377168965
 21
194.8771044514
 31
0.0
  0
LINE
  5
F8
330
1F
100
AcDbEntity
  8
0
  6
Continuous
 62
     7
370
    30
100
AcDbLine
 10
146.687716947
 20
194.8771044514
 30
0.0
 11
146.687716947
 21
199.4771040878
 31
0.0
  0
LINE
  5
F9
330
1F
100
AcDbEntity
  8
0
  6
Continuous
 62
     7
370
    30
100
AcDbLine
 10
153.7587681115
 20
199.4771040878
 30
0.0
 11
153.3037681394
 21
207.377104172
 31
0.0
  0
LINE
  5
FA
330
1F
100
AcDbEntity
  8
0
  6
Continuous
 62
     7
370
    30
100
AcDbLine
 10
143.2137681432
 20
207.377104172
 30
0.0
 11
142.7587681711
 21
199.4771040878
 31
0.0
  0
LINE
  5
FB
330
1F
100
AcDbEntity
  8
0
  6
Continuous
 62
     7
370
    30
100
AcDbLine
 10
156.5587680117
 20
207.4382454991
 30
0.0
 11
156.5587680117
 21
209.3771041506
 31
0.0
  0
LINE
  5
FC
330
1F
100
AcDbEntity
  8
0
  6
Continuous
 62
     7
370
    30
100
AcDbLine
 10
139.9587682709
 20
209.3771041506
 30
0.0
 11
139.9587682709
 21
207.4382454991
 31
0.0
  0
LINE
  5
FD
330
1F
100
AcDbEntity
  8
0
  6
Continuous
 62
     7
370
    30
100
AcDbLine
 10
155.5587683134
 20
209.3771041506
 30
0.0
 11
155.5587683134
 21
212.1771041672
 31
0.0
  0
LINE
  5
FE
330
1F
100
AcDbEntity
  8
0
  6
Continuous
 62
     7
370
    30
100
AcDbLine
 10
140.9587679692
 20
212.1771041672
 30
0.0
 11
140.9587679692
 21
209.3771041506
 31
0.0
  0
ARC
  5
FF
330
1F
100
AcDbEntity
  8
0
  6
Continuous
 62
     7
370
    30
100
AcDbCircle
 10
148.2587681413
 20
208.7771041221
 30
0.0
 40
7.899999999999999
100
AcDbArc
 50
25.4916622417
 51
154.5083377583
  0
LINE
  5
100
330
1F
100
AcDbEntity
  8
0
  6
Continuous
 62
     7
370
    30
100
AcDbLine
 10
148.1087681342
 20
200.3771044216
 30
0.0
 11
148.1087681342
 21
201.0971043161
 31
0.0
  0
LINE
  5
101
330
1F
100
AcDbEntity
  8
0
  6
Continuous
 62
     7
370
    30
100
AcDbLine
 10
148.4087681484
 20
200.3771044216
 30
0.0
 11
148.4087681484
 21
201.0971043161
 31
0.0
  0
LINE
  5
102
330
1F
100
AcDbEntity
  8
0
  6
Continuous
 62
     7
370
    30
100
AcDbLine
 10
148.1087681342
 20
201.0971043161
 30
0.0
 11
148.4087681484
 21
201.0971043161
 31
0.0
  0
LINE
  5
103
330
1F
100
AcDbEntity
  8
0
  6
Continuous
 62
     7
370
    30
100
AcDbLine
 10
148.4087681484
 20
200.3771044216
 30
0.0
 11
148.1087681342
 21
200.3771044216
 31
0.0
  0
LINE
  5
104
330
1F
100
AcDbEntity
  8
0
  6
Continuous
 62
     7
370
    30
100
AcDbLine
 10
148.6587681312
 20
200.3771044216
 30
0.0
 11
148.6587681312
 21
201.0971043161
 31
0.0
  0
LINE
  5
105
330
1F
100
AcDbEntity
  8
0
  6
Continuous
 62
     7
370
    30
100
AcDbLine
 10
148.4087681484
 20
201.0971043161
 30
0.0
 11
148.6587681312
 21
201.0971043161
 31
0.0
  0
LINE
  5
106
330
1F
100
AcDbEntity
  8
0
  6
Continuous
 62
     7
370
    30
100
AcDbLine
 10
148.6587681312
 20
200.3771044216
 30
0.0
 11
148.4087681484
 21
200.3771044216
 31
0.0
  0
LINE
  5
107
330
1F
100
AcDbEntity
  8
0
  6
Continuous
 62
     7
370
    30
100
AcDbLine
 10
147.8587681514
 20
200.3771044216
 30
0.0
 11
147.8587681514
 21
201.0971043161
 31
0.0
  0
LINE
  5
108
330
1F
100
AcDbEntity
  8
0
  6
Continuous
 62
     7
370
    30
100
AcDbLine
 10
147.8587681514
 20
201.0971043161
 30
0.0
 11
148.1087681342
 21
201.0971043161
 31
0.0
  0
LINE
  5
109
330
1F
100
AcDbEntity
  8
0
  6
Continuous
 62
     7
370
    30
100
AcDbLine
 10
148.1087681342
 20
200.3771044216
 30
0.0
 11
147.8587681514
 21
200.3771044216
 31
0.0
  0
LINE
  5
10A
330
1F
100
AcDbEntity
  8
0
  6
Continuous
 62
     7
370
    30
100
AcDbLine
 10
148.6587681312
 20
201.0971043161
 30
0.0
 11
148.7182466109
 21
201.0971043161
 31
0.0
  0
LINE
  5
10B
330
1F
100
AcDbEntity
  8
0
  6
Continuous
 62
     7
370
    30
100
AcDbLine
 10
148.7574805534
 20
200.3771044216
 30
0.0
 11
148.6587681312
 21
200.3771044216
 31
0.0
  0
LINE
  5
10C
330
1F
100
AcDbEntity
  8
0
  6
Continuous
 62
     7
370
    30
100
AcDbLine
 10
147.7984846889
 20
201.0971043161
 30
0.0
 11
147.8587681514
 21
201.0971043161
 31
0.0
  0
LINE
  5
10D
330
1F
100
AcDbEntity
  8
0
  6
Continuous
 62
     7
370
    30
100
AcDbLine
 10
147.8587681514
 20
200.3771044216
 30
0.0
 11
147.7597803488
 21
200.3771044216
 31
0.0
  0
LINE
  5
10E
330
1F
100
AcDbEntity
  8
0
  6
Continuous
 62
     7
370
    30
100
AcDbLine
 10
150.2139183022
 20
194.8771044514
 30
0.0
 11
150.2798193861
 21
194.8771044514
 31
0.0
  0
LINE
  5
10F
330
1F
100
AcDbEntity
  8
0
  6
Continuous
 62
     7
370
    30
100
AcDbLine
 10
149.8298193356
 20
194.8771044514
 30
0.0
 11
150.2139183022
 21
194.8771044514
 31
0.0
  0
LINE
  5
110
330
1F
100
AcDbEntity
  8
0
  6
Continuous
 62
     7
370
    30
100
AcDbLine
 10
146.6218159795
 20
194.8771044514
 30
0.0
 11
146.687716947
 21
194.8771044514
 31
0.0
  0
LINE
  5
111
330
1F
100
AcDbEntity
  8
0
  6
Continuous
 62
     7
370
    30
100
AcDbLine
 10
146.2377168965
 20
194.8771044514
 30
0.0
 11
146.6218159795
 21
194.8771044514
 31
0.0
  0
LINE
  5
112
330
1F
100
AcDbEntity
  8
0
  6
Continuous
 62
     7
370
    30
100
AcDbLine
 10
148.6587681312
 20
201.3271042048
 30
0.0
 11
148.6587681312
 21
201.0971043161
 31
0.0
  0
LINE
  5
113
330
1F
100
AcDbEntity
  8
0
  6
Continuous
 62
     7
370
    30
100
AcDbLine
 10
147.8587681514
 20
201.3271042048
 30
0.0
 11
147.8587681514
 21
201.0971043161
 31
0.0
  0
LINE
  5
114
330
1F
100
AcDbEntity
  8
0
  6
Continuous
 62
     7
370
    30
100
AcDbLine
 10
148.7190515937
 20
201.0971043161
 30
0.0
 11
148.6587681312
 21
201.0971043161
 31
0.0
  0
LINE
  5
115
330
1F
100
AcDbEntity
  8
0
  6
Continuous
 62
     7
370
    30
100
AcDbLine
 10
147.8587681514
 20
201.0971043161
 30
0.0
 11
147.7992896717
 21
201.0971043161
 31
0.0
  0
LINE
  5
116
330
1F
100
AcDbEntity
  8
0
  6
Continuous
 62
     7
370
    30
100
AcDbLine
 10
155.211019449
 20
209.3771041506
 30
0.0
 11
155.211019449
 21
208.3771041322
 31
0.0
  0
LINE
  5
117
330
1F
100
AcDbEntity
  8
0
  6
Continuous
 62
     7
370
    30
100
AcDbLine
 10
141.3065168336
 20
209.3771041506
 30
0.0
 11
141.3065168336
 21
208.3771041322
 31
0.0
  0
LINE
  5
118
330
1F
100
AcDbEntity
  8
0
  6
Continuous
 62
     7
370
    30
100
AcDbLine
 10
141.3065168336
 20
208.3771041322
 30
0.0
 11
155.211019449
 21
208.3771041322
 31
0.0
  0
LINE
  5
119
330
1F
100
AcDbEntity
  8
0
  6
Continuous
 62
     7
370
    30
100
AcDbLine
 10
141.3065168336
 20
209.3771041506
 30
0.0
 11
155.211019449
 21
209.3771041506
 31
0.0
  0
LINE
  5
11A
330
1F
100
AcDbEntity
  8
0
  6
Continuous
 62
     7
370
    30
100
AcDbLine
 10
154.5696716085
 20
207.377104172
 30
0.0
 11
154.5696716085
 21
208.3771041322
 31
0.0
  0
LINE
  5
11B
330
1F
100
AcDbEntity
  8
0
  6
Continuous
 62
     7
370
    30
100
AcDbLine
 10
141.9478646741
 20
207.377104172
 30
0.0
 11
141.9478646741
 21
208.3771041322
 31
0.0
  0
LINE
  5
11C
330
1F
100
AcDbEntity
  8
0
  6
Continuous
 62
     7
370
    30
100
AcDbLine
 10
141.9478646741
 20
207.377104172
 30
0.0
 11
154.5696716085
 21
207.377104172
 31
0.0
  0
LINE
  5
11D
330
1F
100
AcDbEntity
  8
0
  6
Continuous
 62
     7
370
    30
100
AcDbLine
 10
148.7087681336
 20
201.3271042048
 30
0.0
 11
147.808768149
 21
201.3271042048
 31
0.0
  0
LINE
  5
11E
330
1F
100
AcDbEntity
  8
0
  6
Continuous
 62
     7
370
    30
100
AcDbLine
 10
147.808768149
 20
201.3271042048
 30
0.0
 11
147.7087681443
 21
199.4771040878
 31
0.0
  0
LINE
  5
11F
330
1F
100
AcDbEntity
  8
0
  6
Continuous
 62
     7
370
    30
100
AcDbLine
 10
142.7587681711
 20
199.4771040878
 30
0.0
 11
147.7087681443
 21
199.4771040878
 31
0.0
  0
LINE
  5
120
330
1F
100
AcDbEntity
  8
0
  6
Continuous
 62
     7
370
    30
100
AcDbLine
 10
148.8087681383
 20
199.4771040878
 30
0.0
 11
148.7087681336
 21
201.3271042048
 31
0.0
  0
LINE
  5
121
330
1F
100
AcDbEntity
  8
0
  6
Continuous
 62
     7
370
    30
100
AcDbLine
 10
148.8087681383
 20
199.4771040878
 30
0.0
 11
153.7587681115
 21
199.4771040878
 31
0.0
  0
LINE
  5
122
330
1F
100
AcDbEntity
  8
0
  6
Continuous
 62
     7
370
    30
100
AcDbLine
 10
155.4001966752
 20
208.3771041322
 30
0.0
 11
155.4001966752
 21
209.3771041506
 31
0.0
  0
LINE
  5
123
330
1F
100
AcDbEntity
  8
0
  6
Continuous
 62
     7
370
    30
100
AcDbLine
 10
155.211019449
 20
208.3771041322
 30
0.0
 11
155.4001966752
 21
208.3771041322
 31
0.0
  0
LINE
  5
124
330
1F
100
AcDbEntity
  8
0
  6
Continuous
 62
     7
370
    30
100
AcDbLine
 10
155.4001966752
 20
209.3771041506
 30
0.0
 11
155.211019449
 21
209.3771041506
 31
0.0
  0
LINE
  5
125
330
1F
100
AcDbEntity
  8
0
  6
Continuous
 62
     7
370
    30
100
AcDbLine
 10
141.1173396074
 20
208.3771041322
 30
0.0
 11
141.1173396074
 21
209.3771041506
 31
0.0
  0
LINE
  5
126
330
1F
100
AcDbEntity
  8
0
  6
Continuous
 62
     7
370
    30
100
AcDbLine
 10
141.3065168336
 20
208.3771041322
 30
0.0
 11
141.1173396074
 21
208.3771041322
 31
0.0
  0
LINE
  5
127
330
1F
100
AcDbEntity
  8
0
  6
Continuous
 62
     7
370
    30
100
AcDbLine
 10
141.1173396074
 20
209.3771041506
 30
0.0
 11
141.3065168336
 21
209.3771041506
 31
0.0
  0
LINE
  5
128
330
1F
100
AcDbEntity
  8
0
  6
Continuous
 62
     7
370
    30
100
AcDbLine
 10
155.8599193841
 20
209.3771041506
 30
0.0
 11
155.8599193841
 21
207.377104172
 31
0.0
  0
LINE
  5
129
330
1F
100
AcDbEntity
  8
0
  6
Continuous
 62
     7
370
    30
100
AcDbLine
 10
156.347172454
 20
207.419733251
 30
0.0
 11
156.347172454
 21
209.3771041506
 31
0.0
  0
LWPOLYLINE
  5
12A
330
1F
100
AcDbEntity
  8
0
  6
Continuous
 62
     7
370
    30
100
AcDbPolyline
 90
        8
 70
   128
 43
0.0
 10
155.8599193841
 20
207.377104172
 10
155.9553664439
 20
207.3854546431
 10
156.0473033488
 20
207.3934981269
 10
156.132348001
 20
207.4009385794
 10
156.207373485
 20
207.4075024244
 10
156.2696193606
 20
207.4129482168
 10
156.3167982996
 20
207.4170758384
 10
156.347172454
 20
207.419733251
  0
LINE
  5
12B
330
1F
100
AcDbEntity
  8
0
  6
Continuous
 62
     7
370
    30
100
AcDbLine
 10
156.347172454
 20
209.3771041506
 30
0.0
 11
155.8599193841
 21
209.3771041506
 31
0.0
  0
LINE
  5
12C
330
1F
100
AcDbEntity
  8
0
  6
Continuous
 62
     7
370
    30
100
AcDbLine
 10
155.8599193841
 20
207.377104172
 30
0.0
 11
154.5696716085
 21
207.377104172
 31
0.0
  0
LINE
  5
12D
330
1F
100
AcDbEntity
  8
0
  6
Continuous
 62
     7
370
    30
100
AcDbLine
 10
155.8599193841
 20
209.3771041506
 30
0.0
 11
155.4001966752
 21
209.3771041506
 31
0.0
  0
LINE
  5
12E
330
1F
100
AcDbEntity
  8
0
  6
Continuous
 62
     7
370
    30
100
AcDbLine
 10
140.6576168984
 20
209.3771041506
 30
0.0
 11
140.6576168984
 21
207.377104172
 31
0.0
  0
LINE
  5
12F
330
1F
100
AcDbEntity
  8
0
  6
Continuous
 62
     7
370
    30
100
AcDbLine
 10
140.6576168984
 20
207.377104172
 30
0.0
 11
141.9478646741
 21
207.377104172
 31
0.0
  0
LINE
  5
130
330
1F
100
AcDbEntity
  8
0
  6
Continuous
 62
     7
370
    30
100
AcDbLine
 10
140.6576168984
 20
209.3771041506
 30
0.0
 11
141.1173396074
 21
209.3771041506
 31
0.0
  0
LINE
  5
131
330
1F
100
AcDbEntity
  8
0
  6
Continuous
 62
     7
370
    30
100
AcDbLine
 10
140.1703638286
 20
207.419733251
 30
0.0
 11
140.1703638286
 21
209.3771041506
 31
0.0
  0
LWPOLYLINE
  5
132
330
1F
100
AcDbEntity
  8
0
  6
Continuous
 62
     7
370
    30
100
AcDbPolyline
 90
        8
 70
   128
 43
0.0
 10
140.6576168984
 20
207.377104172
 10
140.5621698387
 20
207.3854546431
 10
140.4702329338
 20
207.3934981269
 10
140.3851882816
 20
207.4009385794
 10
140.3101627976
 20
207.4075024244
 10
140.247916922
 20
207.4129482168
 10
140.200737983
 20
207.4170758384
 10
140.1703638286
 20
207.419733251
  0
LINE
  5
133
330
1F
100
AcDbEntity
  8
0
  6
Continuous
 62
     7
370
    30
100
AcDbLine
 10
140.1703638286
 20
209.3771041506
 30
0.0
 11
140.6576168984
 21
209.3771041506
 31
0.0
  0
LWPOLYLINE
  5
134
330
1F
100
AcDbEntity
  8
0
  6
Continuous
 62
     7
370
    30
100
AcDbPolyline
 90
        5
 70
   128
 43
0.0
 10
156.347172454
 20
207.419733251
 10
156.4395233318
 20
207.4278128236
 10
156.5056993887
 20
207.4336026232
 10
156.5454901457
 20
207.4370837906
 10
156.5587680117
 20
207.4382454991
  0
LINE
  5
135
330
1F
100
AcDbEntity
  8
0
  6
Continuous
 62
     7
370
    30
100
AcDbLine
 10
156.5587680117
 20
209.3771041506
 30
0.0
 11
156.347172454
 21
209.3771041506
 31
0.0
  0
LWPOLYLINE
  5
136
330
1F
100
AcDbEntity
  8
0
  6
Continuous
 62
     7
370
    30
100
AcDbPolyline
 90
        5
 70
   128
 43
0.0
 10
140.1703638286
 20
207.419733251
 10
140.0780129507
 20
207.4278128236
 10
140.0118368939
 20
207.4336026232
 10
139.9720461369
 20
207.4370837906
 10
139.9587682709
 20
207.4382454991
  0
LINE
  5
137
330
1F
100
AcDbEntity
  8
0
  6
Continuous
 62
     7
370
    30
100
AcDbLine
 10
139.9587682709
 20
209.3771041506
 30
0.0
 11
140.1703638286
 21
209.3771041506
 31
0.0
  0
LINE
  5
138
330
1F
100
AcDbEntity
  8
0
  6
Continuous
 62
     7
370
    30
100
AcDbLine
 10
140.9587679692
 20
212.1771041672
 30
0.0
 11
155.5587683134
 21
212.1771041672
 31
0.0
  0
LINE
  5
139
330
1F
100
AcDbEntity
  8
0
  6
Continuous
 62
     7
370
    30
100
AcDbLine
 10
141.5326992311
 20
206.3771040081
 30
0.0
 11
141.5326992311
 21
207.377104172
 31
0.0
  0
LINE
  5
13A
330
1F
100
AcDbEntity
  8
0
  6
Continuous
 62
     7
370
    30
100
AcDbLine
 10
154.9848370515
 20
206.3771040081
 30
0.0
 11
154.9848370515
 21
207.377104172
 31
0.0
  0
LINE
  5
13B
330
1F
100
AcDbEntity
  8
0
  6
Continuous
 62
     7
370
    30
100
AcDbLine
 10
156.3587683514
 20
207.377104172
 30
0.0
 11
156.2587685213
 21
207.377104172
 31
0.0
  0
LINE
  5
13C
330
1F
100
AcDbEntity
  8
0
  6
Continuous
 62
     7
370
    30
100
AcDbLine
 10
156.3587683514
 20
207.1771041625
 30
0.0
 11
156.3587683514
 21
207.377104172
 31
0.0
  0
LINE
  5
13D
330
1F
100
AcDbEntity
  8
0
  6
Continuous
 62
     7
370
    30
100
AcDbLine
 10
155.5587683134
 20
206.3771040081
 30
0.0
 11
156.3587683514
 21
207.1771041625
 31
0.0
  0
LINE
  5
13E
330
1F
100
AcDbEntity
  8
0
  6
Continuous
 62
     7
370
    30
100
AcDbLine
 10
155.5587683134
 20
206.3771040081
 30
0.0
 11
154.9848370515
 21
206.3771040081
 31
0.0
  0
LINE
  5
13F
330
1F
100
AcDbEntity
  8
0
  6
Continuous
 62
     7
370
    30
100
AcDbLine
 10
155.8587682694
 20
207.3421086785
 30
0.0
 11
155.8587682694
 21
207.377104172
 31
0.0
  0
LINE
  5
140
330
1F
100
AcDbEntity
  8
0
  6
Continuous
 62
     7
370
    30
100
AcDbLine
 10
156.2587685213
 20
207.377104172
 30
0.0
 11
155.8587682694
 21
207.3421086785
 31
0.0
  0
LINE
  5
141
330
1F
100
AcDbEntity
  8
0
  6
Continuous
 62
     7
370
    30
100
AcDbLine
 10
140.9587679692
 20
206.3771040081
 30
0.0
 11
141.5326992311
 21
206.3771040081
 31
0.0
  0
LINE
  5
142
330
1F
100
AcDbEntity
  8
0
  6
Continuous
 62
     7
370
    30
100
AcDbLine
 10
140.1587679312
 20
207.1771041625
 30
0.0
 11
140.9587679692
 21
206.3771040081
 31
0.0
  0
LINE
  5
143
330
1F
100
AcDbEntity
  8
0
  6
Continuous
 62
     7
370
    30
100
AcDbLine
 10
140.1587679312
 20
207.1771041625
 30
0.0
 11
140.1587679312
 21
207.377104172
 31
0.0
  0
LINE
  5
144
330
1F
100
AcDbEntity
  8
0
  6
Continuous
 62
     7
370
    30
100
AcDbLine
 10
140.1587679312
 20
207.377104172
 30
0.0
 11
140.2587677613
 21
207.377104172
 31
0.0
  0
LINE
  5
145
330
1F
100
AcDbEntity
  8
0
  6
Continuous
 62
     7
370
    30
100
AcDbLine
 10
140.6587680131
 20
207.3421086785
 30
0.0
 11
140.2587677613
 21
207.377104172
 31
0.0
  0
LINE
  5
146
330
1F
100
AcDbEntity
  8
0
  6
Continuous
 62
     7
370
    30
100
AcDbLine
 10
140.6587680131
 20
207.3421086785
 30
0.0
 11
140.6587680131
 21
207.377104172
 31
0.0
  0
LINE
  5
147
330
1F
100
AcDbEntity
  8
0
  6
Continuous
 62
     7
370
    30
100
AcDbLine
 10
148.4087681484
 20
201.3271042048
 30
0.0
 11
148.4087681484
 21
201.0971043161
 31
0.0
  0
LINE
  5
148
330
1F
100
AcDbEntity
  8
0
  6
Continuous
 62
     7
370
    30
100
AcDbLine
 10
148.1087681342
 20
201.3271042048
 30
0.0
 11
148.1087681342
 21
201.0971043161
 31
0.0
  0
LINE
  5
149
330
1F
100
AcDbEntity
  8
0
  6
CENTERX2
 62
     7
370
     0
100
AcDbLine
 10
148.2587681413
 20
219.2186049547
 30
0.0
 11
148.2587681413
 21
193.6098142211
 31
0.0
  0
CIRCLE
  5
14A
330
1F
100
AcDbEntity
  8
0
  6
Continuous
 62
     7
370
     0
100
AcDbCircle
 10
148.2587681413
 20
216.6771041221
 30
0.0
 40
0.0001000000000033
  0
DIMENSION
  5
14B
330
1F
100
AcDbEntity
  8
0
  6
Continuous
 62
     7
370
     0
100
AcDbDimension
  2
_D_4
 10
172.5587681413
 20
199.4771041221
 30
0.0
 11
172.5587681413
 21
207.6747459194
 31
0.0
 70
   160
  1
<>
 71
     2
 42
-1.0
  3
SLDDIMSTYLE3
100
AcDbAlignedDimension
 13
148.2587681413
 23
216.6771041221
 33
0.0
 14
153.7587681413
 24
199.4771041221
 34
0.0
 50
90.0
100
AcDbRotatedDimension
  0
DIMENSION
  5
156
330
1F
100
AcDbEntity
  8
0
  6
Continuous
 62
     7
370
     0
100
AcDbDimension
  2
_D_5
 10
155.5587681413
 20
222.2731386223
 30
0.0
 11
164.0073168141
 21
222.2731386223
 31
0.0
 70
   160
  1
%%c<>
 71
     2
 42
-1.0
  3
SLDDIMSTYLE3
100
AcDbAlignedDimension
 13
140.9587681413
 23
212.1771041221
 33
0.0
 14
155.5587681413
 24
212.1771041221
 34
0.0
100
AcDbRotatedDimension
  0
DIMENSION
  5
162
330
1F
100
AcDbEntity
  8
0
  6
Continuous
 62
     7
370
     0
100
AcDbDimension
  2
_D_6
 10
142.7587681413
 20
186.7063059937
 30
0.0
 11
147.3291128303
 21
186.7063059937
 31
0.0
 70
   160
  1
%%c<>
 71
     2
 42
-1.0
  3
SLDDIMSTYLE4
100
AcDbAlignedDimension
 13
153.7587681413
 23
199.4771041221
 33
0.0
 14
142.7587681413
 24
199.4771041221
 34
0.0
100
AcDbRotatedDimension
  0
DIMENSION
  5
170
330
1F
100
AcDbEntity
  8
0
  6
Continuous
 62
     7
370
     0
100
AcDbDimension
  2
_D_7
 10
156.5587681413
 20
230.6416835861
 30
0.0
 11
164.0073168141
 21
230.6416835861
 31
0.0
 70
   160
  1
<>
 71
     2
 42
-1.0
  3
SLDDIMSTYLE3
100
AcDbAlignedDimension
 13
139.9587681413
 23
209.3771041221
 33
0.0
 14
156.5587681413
 24
209.3771041221
 34
0.0
100
AcDbRotatedDimension
  0
DIMENSION
  5
17B
330
1F
100
AcDbEntity
  8
0
  6
Continuous
 62
     7
370
     0
100
AcDbDimension
  2
_D_8
 10
146.6877169171
 20
196.2927139378
 30
0.0
 11
128.0597881966
 21
196.2927139378
 31
0.0
 70
   160
  1
%%c<>
 71
     2
 42
-1.0
  3
SLDDIMSTYLE5
100
AcDbAlignedDimension
 13
146.2377169171
 23
194.8771041221
 33
0.0
 14
146.6877169171
 24
194.8771041221
 34
0.0
100
AcDbRotatedDimension
  0
DIMENSION
  5
188
330
1F
100
AcDbEntity
  8
0
  6
Continuous
 62
     7
370
     0
100
AcDbDimension
  2
_D_9
 10
164.095775504
 20
207.3771041221
 30
0.0
 11
164.095775504
 21
203.5009117569
 31
0.0
 70
   160
  1
<>
 71
     2
 42
-1.0
  3
SLDDIMSTYLE6
100
AcDbAlignedDimension
 13
153.7587681413
 23
199.4771041221
 33
0.0
 14
155.8599193699
 24
207.3771041221
 34
0.0
 50
90.0
100
AcDbRotatedDimension
  0
DIMENSION
  5
195
330
1F
100
AcDbEntity
  8
0
  6
Continuous
 62
     7
370
     0
100
AcDbDimension
  2
_D_10
 10
164.095775504
 20
194.8771041221
 30
0.0
 11
164.095775504
 21
189.9107313318
 31
0.0
 70
   160
  1
<>
 71
     2
 42
-1.0
  3
SLDDIMSTYLE3
100
AcDbAlignedDimension
 13
153.7587681413
 23
199.4771041221
 33
0.0
 14
150.2798193655
 24
194.8771041221
 34
0.0
 50
90.0
100
AcDbRotatedDimension
  0
LINE
  5
1A0
330
1F
100
AcDbEntity
  8
0
  6
Continuous
 62
     7
370
     0
100
AcDbLine
 10
135.3063487678
 20
212.1771041221
 30
0.0
 11
161.0846064917
 21
212.1771041221
 31
0.0
  0
LINE
  5
1A1
330
1F
100
AcDbEntity
  8
0
  6
Continuous
 62
     7
370
     0
100
AcDbLine
 10
137.3063487678
 20
206.1771041221
 30
0.0
 11
137.3063487678
 21
212.1771041221
 31
0.0
  0
INSERT
  5
1A2
330
1F
100
AcDbEntity
  8
0
  6
Continuous
 62
     7
370
     0
100
AcDbBlockReference
  2
_OPEN30
 10
137.3063487678
 20
212.1771041221
 30
0.0
 41
3.0
 42
3.0
 50
90.0
  0
LINE
  5
1A3
330
1F
100
AcDbEntity
  8
0
  6
Continuous
 62
     7
370
     0
100
AcDbLine
 10
159.0846064917
 20
206.1771041221
 30
0.0
 11
159.0846064917
 21
212.1771041221
 31
0.0
  0
INSERT
  5
1A4
330
1F
100
AcDbEntity
  8
0
  6
Continuous
 62
     7
370
     0
100
AcDbBlockReference
  2
_OPEN30
 10
159.0846064917
 20
212.1771041221
 30
0.0
 41
3.0
 42
3.0
 50
90.0
  0
MTEXT
  5
1A5
330
1F
100
AcDbEntity
  8
0
  6
Continuous
 62
     7
100
AcDbMText
 10
135.9844552066
 20
206.6704900943
 30
0.0
 40
3.5
 41
0.0
 71
     1
 72
     1
  1
A
  7
SLDTEXTSTYLE0
 73
     1
 44
1.0
  0
MTEXT
  5
1A6
330
1F
100
AcDbEntity
  8
0
  6
Continuous
 62
     7
100
AcDbMText
 10
157.7930609029
 20
206.7576083594
 30
0.0
 40
3.5
 41
0.0
 71
     1
 72
     1
  1
A
  7
SLDTEXTSTYLE0
 73
     1
 44
1.0
  0
LINE
  5
1A7
330
1F
100
AcDbEntity
  8
0
  6
Continuous
 62
     7
370
    30
100
AcDbLine
 10
140.1587679312
 20
262.3640572766
 30
0.0
 11
140.1587679312
 21
265.8640573846
 31
0.0
  0
LINE
  5
1A8
330
1F
100
AcDbEntity
  8
0
  6
Continuous
 62
     7
370
    30
100
AcDbLine
 10
156.3587683514
 20
262.3640572766
 30
0.0
 11
156.3587683514
 21
265.8640573846
 31
0.0
  0
LINE
  5
1A9
330
1F
100
AcDbEntity
  8
0
  6
Continuous
 62
     7
370
    30
100
AcDbLine
 10
155.4001966752
 20
266.3640572337
 30
0.0
 11
155.8599193841
 21
266.3640572337
 31
0.0
  0
ARC
  5
1AA
330
1F
100
AcDbEntity
  8
0
  6
Continuous
 62
     7
370
    30
100
AcDbCircle
 10
155.8599193699
 20
265.8640573306
 30
0.0
 40
0.5000000000000152
100
AcDbArc
 50
12.9651864231
 51
90.0
  0
ARC
  5
1AB
330
1F
100
AcDbEntity
  8
0
  6
Continuous
 62
     7
370
    30
100
AcDbCircle
 10
148.2587681413
 20
264.1140573306
 30
0.0
 40
8.300000000000002
100
AcDbArc
 50
347.0348135769
 51
12.9651864231
  0
ARC
  5
1AC
330
1F
100
AcDbEntity
  8
0
  6
Continuous
 62
     7
370
    30
100
AcDbCircle
 10
155.8599193699
 20
262.3640573306
 30
0.0
 40
0.5000000000000152
100
AcDbArc
 50
270.0
 51
347.0348135769
  0
LINE
  5
1AD
330
1F
100
AcDbEntity
  8
0
  6
Continuous
 62
     7
370
    30
100
AcDbLine
 10
155.8599193841
 20
261.8640574275
 30
0.0
 11
155.4001966752
 21
261.8640574275
 31
0.0
  0
ARC
  5
1AE
330
1F
100
AcDbEntity
  8
0
  6
Continuous
 62
     7
370
    30
100
AcDbCircle
 10
155.4001965698
 20
261.6640573306
 30
0.0
 40
0.2000000000000455
100
AcDbArc
 50
90.0
 51
161.0645140251
  0
ARC
  5
1AF
330
1F
100
AcDbEntity
  8
0
  6
Continuous
 62
     7
370
    30
100
AcDbCircle
 10
148.2587681413
 20
264.1140573306
 30
0.0
 40
7.350000000000034
100
AcDbArc
 50
198.9354859749
 51
341.0645140251
  0
ARC
  5
1B0
330
1F
100
AcDbEntity
  8
0
  6
Continuous
 62
     7
370
    30
100
AcDbCircle
 10
141.1173397127
 20
261.6640573306
 30
0.0
 40
0.2000000000000455
100
AcDbArc
 50
18.9354859749
 51
90.0
  0
LINE
  5
1B1
330
1F
100
AcDbEntity
  8
0
  6
Continuous
 62
     7
370
    30
100
AcDbLine
 10
140.6576168984
 20
261.8640574275
 30
0.0
 11
141.1173396074
 21
261.8640574275
 31
0.0
  0
ARC
  5
1B2
330
1F
100
AcDbEntity
  8
0
  6
Continuous
 62
     7
370
    30
100
AcDbCircle
 10
140.6576169127
 20
262.3640573306
 30
0.0
 40
0.5
100
AcDbArc
 50
192.9651864231
 51
270.0
  0
ARC
  5
1B3
330
1F
100
AcDbEntity
  8
0
  6
Continuous
 62
     7
370
    30
100
AcDbCircle
 10
148.2587681413
 20
264.1140573306
 30
0.0
 40
8.300000000000002
100
AcDbArc
 50
167.0348135769
 51
192.9651864231
  0
ARC
  5
1B4
330
1F
100
AcDbEntity
  8
0
  6
Continuous
 62
     7
370
    30
100
AcDbCircle
 10
140.6576169127
 20
265.8640573306
 30
0.0
 40
0.5
100
AcDbArc
 50
90.0
 51
167.0348135769
  0
LINE
  5
1B5
330
1F
100
AcDbEntity
  8
0
  6
Continuous
 62
     7
370
    30
100
AcDbLine
 10
141.1173396074
 20
266.3640572337
 30
0.0
 11
140.6576168984
 21
266.3640572337
 31
0.0
  0
ARC
  5
1B6
330
1F
100
AcDbEntity
  8
0
  6
Continuous
 62
     7
370
    30
100
AcDbCircle
 10
141.1173397127
 20
266.5640573306
 30
0.0
 40
0.2000000000000455
100
AcDbArc
 50
270.0
 51
341.0645140251
  0
ARC
  5
1B7
330
1F
100
AcDbEntity
  8
0
  6
Continuous
 62
     7
370
    30
100
AcDbCircle
 10
148.2587681413
 20
264.1140573306
 30
0.0
 40
7.350000000000016
100
AcDbArc
 50
18.9354859749
 51
161.0645140251
  0
ARC
  5
1B8
330
1F
100
AcDbEntity
  8
0
  6
Continuous
 62
     7
370
    30
100
AcDbCircle
 10
155.4001965698
 20
266.5640573306
 30
0.0
 40
0.2000000000000455
100
AcDbArc
 50
198.9354859749
 51
270.0
  0
LWPOLYLINE
  5
1B9
330
1F
100
AcDbEntity
  8
0
  6
Continuous
 62
     7
370
    30
100
AcDbPolyline
 90
       10
 70
   128
 43
0.0
 10
155.8587682694
 20
265.3640573027
 10
155.8663641364
 20
265.3716534024
 10
155.8889217004
 20
265.3942109665
 10
155.9257555083
 20
265.4310446579
 10
155.9757461101
 20
265.4810351433
 10
156.0373745188
 20
265.542663552
 10
156.1087678448
 20
265.6140573436
 10
156.1877579689
 20
265.693047235
 10
156.2719439417
 20
265.7772332078
 10
156.3587683514
 20
265.8640573846
  0
LINE
  5
1BA
330
1F
100
AcDbEntity
  8
0
  6
Continuous
 62
     7
370
    30
100
AcDbLine
 10
155.4509514272
 20
265.3640573027
 30
0.0
 11
155.8587682694
 21
265.3640573027
 31
0.0
  0
LWPOLYLINE
  5
1BB
330
1F
100
AcDbEntity
  8
0
  6
Continuous
 62
     7
370
    30
100
AcDbPolyline
 90
       10
 70
   128
 43
0.0
 10
156.3587683514
 20
262.3640572766
 10
156.2719439417
 20
262.4508814534
 10
156.1877579689
 20
262.5350674262
 10
156.1087678448
 20
262.6140573176
 10
156.0373745188
 20
262.6854511091
 10
155.9757461101
 20
262.7470795179
 10
155.9257555083
 20
262.7970700033
 10
155.8889217004
 20
262.8339036947
 10
155.8663641364
 20
262.8564612588
 10
155.8587682694
 20
262.8640573585
  0
LINE
  5
1BC
330
1F
100
AcDbEntity
  8
0
  6
Continuous
 62
     7
370
    30
100
AcDbLine
 10
155.8587682694
 20
265.3640573027
 30
0.0
 11
155.8587682694
 21
265.1140573781
 31
0.0
  0
LINE
  5
1BD
330
1F
100
AcDbEntity
  8
0
  6
Continuous
 62
     7
370
    30
100
AcDbLine
 10
155.8587682694
 20
263.1140572831
 30
0.0
 11
155.8587682694
 21
262.8640573585
 31
0.0
  0
LWPOLYLINE
  5
1BE
330
1F
100
AcDbEntity
  8
0
  6
Continuous
 62
     7
370
    30
100
AcDbPolyline
 90
       10
 70
   128
 43
0.0
 10
140.1587679312
 20
262.3640572766
 10
140.2455923408
 20
262.4508814534
 10
140.3297783137
 20
262.5350674262
 10
140.4087684378
 20
262.6140573176
 10
140.4801617638
 20
262.6854511091
 10
140.5417901725
 20
262.7470795179
 10
140.5917807743
 20
262.7970700033
 10
140.6286145821
 20
262.8339036947
 10
140.6511721462
 20
262.8564612588
 10
140.6587680131
 20
262.8640573585
  0
LWPOLYLINE
  5
1BF
330
1F
100
AcDbEntity
  8
0
  6
Continuous
 62
     7
370
    30
100
AcDbPolyline
 90
       10
 70
   128
 43
0.0
 10
140.6587680131
 20
265.3640573027
 10
140.6511721462
 20
265.3716534024
 10
140.6286145821
 20
265.3942109665
 10
140.5917807743
 20
265.4310446579
 10
140.5417901725
 20
265.4810351433
 10
140.4801617638
 20
265.542663552
 10
140.4087684378
 20
265.6140573436
 10
140.3297783137
 20
265.693047235
 10
140.2455923408
 20
265.7772332078
 10
140.1587679312
 20
265.8640573846
  0
LINE
  5
1C0
330
1F
100
AcDbEntity
  8
0
  6
Continuous
 62
     7
370
    30
100
AcDbLine
 10
140.6587680131
 20
265.3640573027
 30
0.0
 11
140.6587680131
 21
265.1140573781
 31
0.0
  0
LINE
  5
1C1
330
1F
100
AcDbEntity
  8
0
  6
Continuous
 62
     7
370
    30
100
AcDbLine
 10
140.6587680131
 20
263.1140572831
 30
0.0
 11
140.6587680131
 21
262.8640573585
 31
0.0
  0
LINE
  5
1C2
330
1F
100
AcDbEntity
  8
0
  6
Continuous
 62
     7
370
    30
100
AcDbLine
 10
141.0665848553
 20
265.3640573027
 30
0.0
 11
140.6587680131
 21
265.3640573027
 31
0.0
  0
LINE
  5
1C3
330
1F
100
AcDbEntity
  8
0
  6
Continuous
 62
     7
370
    30
100
AcDbLine
 10
140.6587680131
 20
262.8640573585
 30
0.0
 11
141.0665848553
 21
262.8640573585
 31
0.0
  0
LINE
  5
1C4
330
1F
100
AcDbEntity
  8
0
  6
Continuous
 62
     7
370
    30
100
AcDbLine
 10
155.8587682694
 20
262.8640573585
 30
0.0
 11
155.4509514272
 21
262.8640573585
 31
0.0
  0
CIRCLE
  5
1C5
330
1F
100
AcDbEntity
  8
0
  6
Continuous
 62
     7
370
    30
100
AcDbCircle
 10
148.2587681413
 20
264.1140573306
 30
0.0
 40
7.130918594402772
  0
CIRCLE
  5
1C6
330
1F
100
AcDbEntity
  8
0
  6
Continuous
 62
     7
370
    30
100
AcDbCircle
 10
148.2587681413
 20
264.1140573306
 30
0.0
 40
7.300000000000011
  0
LINE
  5
1C7
330
1F
100
AcDbEntity
  8
0
  6
Continuous
 62
     7
370
    30
100
AcDbLine
 10
140.6587680131
 20
263.1140572831
 30
0.0
 11
141.0275857225
 21
263.1140572831
 31
0.0
  0
LINE
  5
1C8
330
1F
100
AcDbEntity
  8
0
  6
Continuous
 62
     7
370
    30
100
AcDbLine
 10
140.6587680131
 20
265.1140573781
 30
0.0
 11
140.6587680131
 21
263.1140572831
 31
0.0
  0
LINE
  5
1C9
330
1F
100
AcDbEntity
  8
0
  6
Continuous
 62
     7
370
    30
100
AcDbLine
 10
141.0275857225
 20
265.1140573781
 30
0.0
 11
140.6587680131
 21
265.1140573781
 31
0.0
  0
LINE
  5
1CA
330
1F
100
AcDbEntity
  8
0
  6
Continuous
 62
     7
370
    30
100
AcDbLine
 10
155.8587682694
 20
265.1140573781
 30
0.0
 11
155.8587682694
 21
263.1140572831
 31
0.0
  0
LINE
  5
1CB
330
1F
100
AcDbEntity
  8
0
  6
Continuous
 62
     7
370
    30
100
AcDbLine
 10
155.4899505601
 20
265.1140573781
 30
0.0
 11
155.8587682694
 21
265.1140573781
 31
0.0
  0
LINE
  5
1CC
330
1F
100
AcDbEntity
  8
0
  6
Continuous
 62
     7
370
    30
100
AcDbLine
 10
155.8587682694
 20
263.1140572831
 30
0.0
 11
155.4899505601
 21
263.1140572831
 31
0.0
  0
LINE
  5
1CD
330
1F
100
AcDbEntity
  8
0
  6
Continuous
 62
     7
370
    30
100
AcDbLine
 10
140.1587679312
 20
265.8640573846
 30
0.0
 11
141.1716319882
 21
265.8640573846
 31
0.0
  0
LINE
  5
1CE
330
1F
100
AcDbEntity
  8
0
  6
Continuous
 62
     7
370
    30
100
AcDbLine
 10
141.1716319882
 20
262.3640572766
 30
0.0
 11
140.1587679312
 21
262.3640572766
 31
0.0
  0
LINE
  5
1CF
330
1F
100
AcDbEntity
  8
0
  6
Continuous
 62
     7
370
    30
100
AcDbLine
 10
155.3459042944
 20
262.3640572766
 30
0.0
 11
156.3587683514
 21
262.3640572766
 31
0.0
  0
LINE
  5
1D0
330
1F
100
AcDbEntity
  8
0
  6
Continuous
 62
     7
370
    30
100
AcDbLine
 10
156.3587683514
 20
265.8640573846
 30
0.0
 11
155.3459042944
 21
265.8640573846
 31
0.0
  0
LINE
  5
1D1
330
1F
100
AcDbEntity
  8
0
  6
CENTERX2
 62
     7
370
     0
100
AcDbLine
 10
148.2587681413
 20
274.2451356703
 30
0.0
 11
148.2587681413
 21
253.9641904042
 31
0.0
  0
LINE
  5
1D2
330
1F
100
AcDbEntity
  8
0
  6
CENTERX2
 62
     7
370
     0
100
AcDbLine
 10
137.3756176034
 20
264.1140573306
 30
0.0
 11
159.3688377982
 21
264.1140573306
 31
0.0
  0
ARC
  5
1D3
330
1F
100
AcDbEntity
  8
0
  6
Continuous
 62
     7
370
    30
100
AcDbCircle
 10
144.8288041747
 20
148.8931627458
 30
0.0
 40
0.2000000000000259
100
AcDbArc
 50
315.0
 51
42.5451104446
  0
ARC
  5
1D4
330
1F
100
AcDbEntity
  8
0
  6
Continuous
 62
     7
370
    30
100
AcDbCircle
 10
151.6887321079
 20
155.187405254
 30
0.0
 40
0.200000000000005
100
AcDbArc
 50
135.0
 51
222.5451104446
  0
ARC
  5
1D5
330
1F
100
AcDbEntity
  8
0
  6
Continuous
 62
     7
370
    30
100
AcDbCircle
 10
143.8182992032
 20
150.6434086979
 30
0.0
 40
0.2000000000000084
100
AcDbArc
 50
17.4359383495
 51
105.0
  0
ARC
  5
1D6
330
1F
100
AcDbEntity
  8
0
  6
Continuous
 62
     7
370
    30
100
AcDbCircle
 10
152.6992370794
 20
153.437159302
 30
0.0
 40
0.2000000000000084
100
AcDbArc
 50
197.4359383495
 51
285.0
  0
ARC
  5
1D7
330
1F
100
AcDbEntity
  8
0
  6
Continuous
 62
     7
370
    30
100
AcDbCircle
 10
148.2587681413
 20
152.0402839999
 30
0.0
 40
4.455000000000015
100
AcDbArc
 50
197.4617806871
 51
222.5364123674
  0
ARC
  5
1D8
330
1F
100
AcDbEntity
  8
0
  6
Continuous
 62
     7
370
    30
100
AcDbCircle
 10
148.2587681413
 20
152.0402839999
 30
0.0
 40
4.454999999999989
100
AcDbArc
 50
17.4635604474
 51
42.5375418604
  0
ARC
  5
1D9
330
1F
100
AcDbEntity
  8
0
  6
Continuous
 62
     7
370
    30
100
AcDbCircle
 10
147.6087681413
 20
156.7960699497
 30
0.0
 40
0.2500000000000305
100
AcDbArc
 50
277.7827143854
 51
0.0
  0
LINE
  5
1DA
330
1F
100
AcDbEntity
  8
0
  6
Continuous
 62
     7
370
    30
100
AcDbLine
 10
147.8587681514
 20
157.140284184
 30
0.0
 11
147.8587681514
 21
156.7960701543
 31
0.0
  0
ARC
  5
1DB
330
1F
100
AcDbEntity
  8
0
  6
Continuous
 62
     7
370
    30
100
AcDbCircle
 10
148.1087681413
 20
157.1402839999
 30
0.0
 40
0.25
100
AcDbArc
 50
90.0
 51
180.0
  0
LINE
  5
1DC
330
1F
100
AcDbEntity
  8
0
  6
Continuous
 62
     7
370
    30
100
AcDbLine
 10
148.4087681484
 20
157.3902842249
 30
0.0
 11
148.1087681342
 21
157.3902842249
 31
0.0
  0
ARC
  5
1DD
330
1F
100
AcDbEntity
  8
0
  6
Continuous
 62
     7
370
    30
100
AcDbCircle
 10
148.4087681413
 20
157.1402839999
 30
0.0
 40
0.25
100
AcDbArc
 50
0.0
 51
90.0
  0
LINE
  5
1DE
330
1F
100
AcDbEntity
  8
0
  6
Continuous
 62
     7
370
    30
100
AcDbLine
 10
148.6587681312
 20
156.7960701543
 30
0.0
 11
148.6587681312
 21
157.140284184
 31
0.0
  0
ARC
  5
1DF
330
1F
100
AcDbEntity
  8
0
  6
Continuous
 62
     7
370
    30
100
AcDbCircle
 10
148.9087681413
 20
156.7960699497
 30
0.0
 40
0.2500000000000266
100
AcDbArc
 50
180.0
 51
262.2172856146
  0
CIRCLE
  5
1E0
330
1F
100
AcDbEntity
  8
0
  6
Continuous
 62
     7
370
    30
100
AcDbCircle
 10
150.0548193655
 20
150.2442327757
 30
0.0
 40
0.7500000000000061
  0
CIRCLE
  5
1E1
330
1F
100
AcDbEntity
  8
0
  6
Continuous
 62
     7
370
    30
100
AcDbCircle
 10
150.0548193655
 20
153.8363352241
 30
0.0
 40
0.7500000000000061
  0
CIRCLE
  5
1E2
330
1F
100
AcDbEntity
  8
0
  6
Continuous
 62
     7
370
    30
100
AcDbCircle
 10
146.4627169171
 20
150.2442327757
 30
0.0
 40
0.7500000000000061
  0
ARC
  5
1E3
330
1F
100
AcDbEntity
  8
0
  6
Continuous
 62
     7
370
    30
100
AcDbCircle
 10
148.2587681413
 20
152.0402839999
 30
0.0
 40
4.549999999999973
100
AcDbArc
 50
44.6568599166
 51
82.2172856146
  0
ARC
  5
1E4
330
1F
100
AcDbEntity
  8
0
  6
Continuous
 62
     7
370
    30
100
AcDbCircle
 10
148.2587681413
 20
152.0402839999
 30
0.0
 40
4.550000000000014
100
AcDbArc
 50
224.6568599166
 51
15.3431400834
  0
ARC
  5
1E5
330
1F
100
AcDbEntity
  8
0
  6
Continuous
 62
     7
370
    30
100
AcDbCircle
 10
148.2587681413
 20
152.0402839999
 30
0.0
 40
4.550000000000007
100
AcDbArc
 50
97.7827143854
 51
195.3431400834
  0
CIRCLE
  5
1E6
330
1F
100
AcDbEntity
  8
0
  6
Continuous
 62
     7
370
    30
100
AcDbCircle
 10
150.0548193655
 20
150.2442327757
 30
0.0
 40
0.2249999999999857
  0
CIRCLE
  5
1E7
330
1F
100
AcDbEntity
  8
0
  6
Continuous
 62
     7
370
    30
100
AcDbCircle
 10
150.0548193655
 20
153.8363352241
 30
0.0
 40
0.2250000000000058
  0
CIRCLE
  5
1E8
330
1F
100
AcDbEntity
  8
0
  6
Continuous
 62
     7
370
    30
100
AcDbCircle
 10
146.4627169171
 20
150.2442327757
 30
0.0
 40
0.2249999999999857
  0
ARC
  5
1E9
330
1F
100
AcDbEntity
  8
0
  6
Continuous
 62
     7
370
    30
100
AcDbCircle
 10
148.2587681413
 20
152.0402839999
 30
0.0
 40
4.650000000000011
100
AcDbArc
 50
96.7928220559
 51
263.2071779441
  0
LINE
  5
1EA
330
1F
100
AcDbEntity
  8
0
  6
Continuous
 62
     7
370
    30
100
AcDbLine
 10
147.7087681443
 20
147.422925442
 30
0.0
 11
147.7087681443
 21
146.5678530406
 31
0.0
  0
ARC
  5
1EB
330
1F
100
AcDbEntity
  8
0
  6
Continuous
 62
     7
370
    30
100
AcDbCircle
 10
148.2587681413
 20
152.0402839999
 30
0.0
 40
5.500000000000014
100
AcDbArc
 50
95.7391704773
 51
264.2608295227
  0
LINE
  5
1EC
330
1F
100
AcDbEntity
  8
0
  6
Continuous
 62
     7
370
    30
100
AcDbLine
 10
147.7087681443
 20
157.5127149593
 30
0.0
 11
147.7087681443
 21
156.6576425578
 31
0.0
  0
LINE
  5
1ED
330
1F
100
AcDbEntity
  8
0
  6
Continuous
 62
     7
370
    30
100
AcDbLine
 10
147.808768149
 20
147.4121095273
 30
0.0
 11
147.808768149
 21
146.6656400483
 31
0.0
  0
LINE
  5
1EE
330
1F
100
AcDbEntity
  8
0
  6
Continuous
 62
     7
370
    30
100
AcDbLine
 10
147.7087681443
 20
146.5678530406
 30
0.0
 11
147.808768149
 21
146.6656400483
 31
0.0
  0
ARC
  5
1EF
330
1F
100
AcDbEntity
  8
0
  6
Continuous
 62
     7
370
    30
100
AcDbCircle
 10
148.2587681413
 20
152.0402839999
 30
0.0
 40
4.650000000000011
100
AcDbArc
 50
263.2071779441
 51
264.4465558043
  0
ARC
  5
1F0
330
1F
100
AcDbEntity
  8
0
  6
Continuous
 62
     7
370
    30
100
AcDbCircle
 10
148.2587681413
 20
152.0402839999
 30
0.0
 40
4.650000000000007
100
AcDbArc
 50
276.7928220559
 51
83.2071779441
  0
LINE
  5
1F1
330
1F
100
AcDbEntity
  8
0
  6
Continuous
 62
     7
370
    30
100
AcDbLine
 10
148.8087681383
 20
157.5127149593
 30
0.0
 11
148.8087681383
 21
156.6576425578
 31
0.0
  0
LINE
  5
1F2
330
1F
100
AcDbEntity
  8
0
  6
Continuous
 62
     7
370
    30
100
AcDbLine
 10
148.8087681383
 20
147.422925442
 30
0.0
 11
148.8087681383
 21
146.5678530406
 31
0.0
  0
ARC
  5
1F3
330
1F
100
AcDbEntity
  8
0
  6
Continuous
 62
     7
370
    30
100
AcDbCircle
 10
148.2587681413
 20
152.0402839999
 30
0.0
 40
5.500000000000012
100
AcDbArc
 50
275.7391704773
 51
84.2608295227
  0
LINE
  5
1F4
330
1F
100
AcDbEntity
  8
0
  6
Continuous
 62
     7
370
    30
100
AcDbLine
 10
148.7087681336
 20
147.4121095273
 30
0.0
 11
148.7087681336
 21
146.6656400483
 31
0.0
  0
ARC
  5
1F5
330
1F
100
AcDbEntity
  8
0
  6
Continuous
 62
     7
370
    30
100
AcDbCircle
 10
148.2587681413
 20
152.0402839999
 30
0.0
 40
4.650000000000007
100
AcDbArc
 50
275.5534441957
 51
276.7928220559
  0
LINE
  5
1F6
330
1F
100
AcDbEntity
  8
0
  6
Continuous
 62
     7
370
    30
100
AcDbLine
 10
148.7087681336
 20
146.6656400483
 30
0.0
 11
148.8087681383
 21
146.5678530406
 31
0.0
  0
LINE
  5
1F7
330
1F
100
AcDbEntity
  8
0
  6
Continuous
 62
     7
370
    30
100
AcDbLine
 10
147.808768149
 20
157.4149279516
 30
0.0
 11
147.808768149
 21
156.6684584725
 31
0.0
  0
LINE
  5
1F8
330
1F
100
AcDbEntity
  8
0
  6
Continuous
 62
     7
370
    30
100
AcDbLine
 10
147.808768149
 20
157.4149279516
 30
0.0
 11
147.7087681443
 21
157.5127149593
 31
0.0
  0
ARC
  5
1F9
330
1F
100
AcDbEntity
  8
0
  6
Continuous
 62
     7
370
    30
100
AcDbCircle
 10
148.2587681413
 20
152.0402839999
 30
0.0
 40
4.650000000000011
100
AcDbArc
 50
95.5534441957
 51
96.7928220559
  0
LINE
  5
1FA
330
1F
100
AcDbEntity
  8
0
  6
Continuous
 62
     7
370
    30
100
AcDbLine
 10
148.7087681336
 20
157.4149279516
 30
0.0
 11
148.7087681336
 21
156.6684584725
 31
0.0
  0
ARC
  5
1FB
330
1F
100
AcDbEntity
  8
0
  6
Continuous
 62
     7
370
    30
100
AcDbCircle
 10
148.2587681413
 20
152.0402839999
 30
0.0
 40
4.650000000000007
100
AcDbArc
 50
83.2071779441
 51
84.4465558043
  0
LINE
  5
1FC
330
1F
100
AcDbEntity
  8
0
  6
Continuous
 62
     7
370
    30
100
AcDbLine
 10
148.8087681383
 20
157.5127149593
 30
0.0
 11
148.7087681336
 21
157.4149279516
 31
0.0
  0
ARC
  5
1FD
330
1F
100
AcDbEntity
  8
0
  6
Continuous
 62
     7
370
    30
100
AcDbCircle
 10
148.2587681413
 20
152.0402839999
 30
0.0
 40
5.393449367088598
100
AcDbArc
 50
85.2139888211
 51
94.7860111789
  0
ARC
  5
1FE
330
1F
100
AcDbEntity
  8
0
  6
Continuous
 62
     7
370
    30
100
AcDbCircle
 10
148.2587681413
 20
152.0402839999
 30
0.0
 40
5.393449367088627
100
AcDbArc
 50
265.2139888211
 51
274.7860111789
  0
LINE
  5
1FF
330
1F
100
AcDbEntity
  8
0
  6
Continuous
 62
     7
370
    30
100
AcDbLine
 10
154.9587679357
 20
150.7902840279
 30
0.0
 11
154.9587679357
 21
153.290283972
 31
0.0
  0
LINE
  5
200
330
1F
100
AcDbEntity
  8
0
  6
Continuous
 62
     7
370
    30
100
AcDbLine
 10
155.8587682694
 20
150.7902840279
 30
0.0
 11
154.9587679357
 21
150.7902840279
 31
0.0
  0
LINE
  5
201
330
1F
100
AcDbEntity
  8
0
  6
Continuous
 62
     7
370
    30
100
AcDbLine
 10
155.8587682694
 20
153.290283972
 30
0.0
 11
155.8587682694
 21
153.0402840474
 31
0.0
  0
LINE
  5
202
330
1F
100
AcDbEntity
  8
0
  6
Continuous
 62
     7
370
    30
100
AcDbLine
 10
155.8587682694
 20
151.0402839524
 30
0.0
 11
155.8587682694
 21
150.7902840279
 31
0.0
  0
LINE
  5
203
330
1F
100
AcDbEntity
  8
0
  6
Continuous
 62
     7
370
    30
100
AcDbLine
 10
154.9587679357
 20
153.290283972
 30
0.0
 11
155.8587682694
 21
153.290283972
 31
0.0
  0
LINE
  5
204
330
1F
100
AcDbEntity
  8
0
  6
Continuous
 62
     7
370
    30
100
AcDbLine
 10
140.6587680131
 20
153.290283972
 30
0.0
 11
140.6587680131
 21
153.0402840474
 31
0.0
  0
LINE
  5
205
330
1F
100
AcDbEntity
  8
0
  6
Continuous
 62
     7
370
    30
100
AcDbLine
 10
140.6587680131
 20
151.0402839524
 30
0.0
 11
140.6587680131
 21
150.7902840279
 31
0.0
  0
LINE
  5
206
330
1F
100
AcDbEntity
  8
0
  6
Continuous
 62
     7
370
    30
100
AcDbLine
 10
140.6587680131
 20
150.7902840279
 30
0.0
 11
141.5587683469
 21
150.7902840279
 31
0.0
  0
LINE
  5
207
330
1F
100
AcDbEntity
  8
0
  6
Continuous
 62
     7
370
    30
100
AcDbLine
 10
141.5587683469
 20
150.7902840279
 30
0.0
 11
141.5587683469
 21
153.290283972
 31
0.0
  0
LINE
  5
208
330
1F
100
AcDbEntity
  8
0
  6
Continuous
 62
     7
370
    30
100
AcDbLine
 10
141.5587683469
 20
153.290283972
 30
0.0
 11
140.6587680131
 21
153.290283972
 31
0.0
  0
LINE
  5
209
330
1F
100
AcDbEntity
  8
0
  6
Continuous
 62
     7
370
    30
100
AcDbLine
 10
140.6576168984
 20
154.2902839031
 30
0.0
 11
141.9478646741
 21
154.2902839031
 31
0.0
  0
ARC
  5
20A
330
1F
100
AcDbEntity
  8
0
  6
Continuous
 62
     7
370
    30
100
AcDbCircle
 10
148.2587681413
 20
152.0402839999
 30
0.0
 40
6.700000000000029
100
AcDbArc
 50
19.6224639014
 51
160.3775360986
  0
LINE
  5
20B
330
1F
100
AcDbEntity
  8
0
  6
Continuous
 62
     7
370
    30
100
AcDbLine
 10
155.8599193841
 20
154.2902839031
 30
0.0
 11
154.5696716085
 21
154.2902839031
 31
0.0
  0
LINE
  5
20C
330
1F
100
AcDbEntity
  8
0
  6
Continuous
 62
     7
370
    30
100
AcDbLine
 10
155.8599193841
 20
154.2902839031
 30
0.0
 11
155.8599193841
 21
153.0402840474
 31
0.0
  0
LINE
  5
20D
330
1F
100
AcDbEntity
  8
0
  6
Continuous
 62
     7
370
    30
100
AcDbLine
 10
155.8599193841
 20
151.0402839524
 30
0.0
 11
155.8599193841
 21
149.7902840968
 31
0.0
  0
LINE
  5
20E
330
1F
100
AcDbEntity
  8
0
  6
Continuous
 62
     7
370
    30
100
AcDbLine
 10
154.5696716085
 20
149.7902840968
 30
0.0
 11
155.8599193841
 21
149.7902840968
 31
0.0
  0
ARC
  5
20F
330
1F
100
AcDbEntity
  8
0
  6
Continuous
 62
     7
370
    30
100
AcDbCircle
 10
148.2587681413
 20
152.0402839999
 30
0.0
 40
6.700000000000029
100
AcDbArc
 50
199.6224639014
 51
340.3775360986
  0
LINE
  5
210
330
1F
100
AcDbEntity
  8
0
  6
Continuous
 62
     7
370
    30
100
AcDbLine
 10
141.9478646741
 20
149.7902840968
 30
0.0
 11
140.6576168984
 21
149.7902840968
 31
0.0
  0
LINE
  5
211
330
1F
100
AcDbEntity
  8
0
  6
Continuous
 62
     7
370
    30
100
AcDbLine
 10
140.6576168984
 20
154.2902839031
 30
0.0
 11
140.6576168984
 21
153.0402840474
 31
0.0
  0
LINE
  5
212
330
1F
100
AcDbEntity
  8
0
  6
Continuous
 62
     7
370
    30
100
AcDbLine
 10
140.6576168984
 20
151.0402839524
 30
0.0
 11
140.6576168984
 21
149.7902840968
 31
0.0
  0
ARC
  5
213
330
1F
100
AcDbEntity
  8
0
  6
Continuous
 62
     7
370
    30
100
AcDbCircle
 10
140.6576169127
 20
150.2902839999
 30
0.0
 40
0.5
100
AcDbArc
 50
192.9651864231
 51
270.0
  0
ARC
  5
214
330
1F
100
AcDbEntity
  8
0
  6
Continuous
 62
     7
370
    30
100
AcDbCircle
 10
148.2587681413
 20
152.0402839999
 30
0.0
 40
8.300000000000002
100
AcDbArc
 50
167.0348135769
 51
192.9651864231
  0
ARC
  5
215
330
1F
100
AcDbEntity
  8
0
  6
Continuous
 62
     7
370
    30
100
AcDbCircle
 10
140.6576169127
 20
153.7902839999
 30
0.0
 40
0.5
100
AcDbArc
 50
90.0
 51
167.0348135769
  0
ARC
  5
216
330
1F
100
AcDbEntity
  8
0
  6
Continuous
 62
     7
370
    30
100
AcDbCircle
 10
148.2587681413
 20
152.0402839999
 30
0.0
 40
8.300000000000002
100
AcDbArc
 50
347.0348135769
 51
12.9651864231
  0
ARC
  5
217
330
1F
100
AcDbEntity
  8
0
  6
Continuous
 62
     7
370
    30
100
AcDbCircle
 10
155.8599193699
 20
153.7902839999
 30
0.0
 40
0.5000000000000088
100
AcDbArc
 50
12.9651864231
 51
90.0
  0
ARC
  5
218
330
1F
100
AcDbEntity
  8
0
  6
Continuous
 62
     7
370
    30
100
AcDbCircle
 10
155.8599193699
 20
150.2902839999
 30
0.0
 40
0.5000000000000152
100
AcDbArc
 50
270.0
 51
347.0348135769
  0
ARC
  5
219
330
1F
100
AcDbEntity
  8
0
  6
Continuous
 62
     7
370
    30
100
AcDbCircle
 10
155.4001965698
 20
149.5902839999
 30
0.0
 40
0.2000000000000171
100
AcDbArc
 50
90.0
 51
161.0645140251
  0
ARC
  5
21A
330
1F
100
AcDbEntity
  8
0
  6
Continuous
 62
     7
370
    30
100
AcDbCircle
 10
148.2587681413
 20
152.0402839999
 30
0.0
 40
7.350000000000016
100
AcDbArc
 50
198.9354859749
 51
341.0645140251
  0
ARC
  5
21B
330
1F
100
AcDbEntity
  8
0
  6
Continuous
 62
     7
370
    30
100
AcDbCircle
 10
141.1173397127
 20
149.5902839999
 30
0.0
 40
0.2000000000000171
100
AcDbArc
 50
18.9354859749
 51
90.0
  0
ARC
  5
21C
330
1F
100
AcDbEntity
  8
0
  6
Continuous
 62
     7
370
    30
100
AcDbCircle
 10
141.1173397127
 20
154.4902839999
 30
0.0
 40
0.1999999999999886
100
AcDbArc
 50
270.0
 51
341.0645140251
  0
ARC
  5
21D
330
1F
100
AcDbEntity
  8
0
  6
Continuous
 62
     7
370
    30
100
AcDbCircle
 10
148.2587681413
 20
152.0402839999
 30
0.0
 40
7.350000000000025
100
AcDbArc
 50
18.9354859749
 51
161.0645140251
  0
ARC
  5
21E
330
1F
100
AcDbEntity
  8
0
  6
Continuous
 62
     7
370
    30
100
AcDbCircle
 10
155.4001965698
 20
154.4902839999
 30
0.0
 40
0.1999999999999886
100
AcDbArc
 50
198.9354859749
 51
270.0
  0
LINE
  5
21F
330
1F
100
AcDbEntity
  8
0
  6
Continuous
 62
     7
370
    30
100
AcDbLine
 10
155.5587683134
 20
151.0402839524
 30
0.0
 11
155.5587683134
 21
153.0402840474
 31
0.0
  0
LINE
  5
220
330
1F
100
AcDbEntity
  8
0
  6
Continuous
 62
     7
370
    30
100
AcDbLine
 10
155.5587683134
 20
153.0402840474
 30
0.0
 11
154.9848370515
 21
153.0402840474
 31
0.0
  0
LINE
  5
221
330
1F
100
AcDbEntity
  8
0
  6
Continuous
 62
     7
370
    30
100
AcDbLine
 10
154.9848370515
 20
151.0402839524
 30
0.0
 11
155.5587683134
 21
151.0402839524
 31
0.0
  0
ARC
  5
222
330
1F
100
AcDbEntity
  8
0
  6
Continuous
 62
     7
370
    30
100
AcDbCircle
 10
148.2587681413
 20
152.0402839999
 30
0.0
 40
6.79999999999999
100
AcDbArc
 50
351.5434806647
 51
8.4565193353
  0
LINE
  5
223
330
1F
100
AcDbEntity
  8
0
  6
Continuous
 62
     7
370
    30
100
AcDbLine
 10
141.5326992311
 20
151.0402839524
 30
0.0
 11
140.9587679692
 21
151.0402839524
 31
0.0
  0
LINE
  5
224
330
1F
100
AcDbEntity
  8
0
  6
Continuous
 62
     7
370
    30
100
AcDbLine
 10
140.9587679692
 20
153.0402840474
 30
0.0
 11
140.9587679692
 21
151.0402839524
 31
0.0
  0
LINE
  5
225
330
1F
100
AcDbEntity
  8
0
  6
Continuous
 62
     7
370
    30
100
AcDbLine
 10
140.9587679692
 20
153.0402840474
 30
0.0
 11
141.5326992311
 21
153.0402840474
 31
0.0
  0
ARC
  5
226
330
1F
100
AcDbEntity
  8
0
  6
Continuous
 62
     7
370
    30
100
AcDbCircle
 10
148.2587681413
 20
152.0402839999
 30
0.0
 40
6.800000000000018
100
AcDbArc
 50
171.5434806647
 51
188.4565193353
  0
LINE
  5
227
330
1F
100
AcDbEntity
  8
0
  6
Continuous
 62
     7
370
    30
100
AcDbLine
 10
156.3587683514
 20
153.0402840474
 30
0.0
 11
156.3587683514
 21
151.0402839524
 31
0.0
  0
LINE
  5
228
330
1F
100
AcDbEntity
  8
0
  6
Continuous
 62
     7
370
    30
100
AcDbLine
 10
155.5587683134
 20
153.0402840474
 30
0.0
 11
156.3587683514
 21
153.0402840474
 31
0.0
  0
LINE
  5
229
330
1F
100
AcDbEntity
  8
0
  6
Continuous
 62
     7
370
    30
100
AcDbLine
 10
156.3587683514
 20
151.0402839524
 30
0.0
 11
155.5587683134
 21
151.0402839524
 31
0.0
  0
LINE
  5
22A
330
1F
100
AcDbEntity
  8
0
  6
Continuous
 62
     7
370
    30
100
AcDbLine
 10
140.1587679312
 20
151.0402839524
 30
0.0
 11
140.1587679312
 21
153.0402840474
 31
0.0
  0
LINE
  5
22B
330
1F
100
AcDbEntity
  8
0
  6
Continuous
 62
     7
370
    30
100
AcDbLine
 10
140.1587679312
 20
153.0402840474
 30
0.0
 11
140.9587679692
 21
153.0402840474
 31
0.0
  0
LINE
  5
22C
330
1F
100
AcDbEntity
  8
0
  6
Continuous
 62
     7
370
    30
100
AcDbLine
 10
140.9587679692
 20
151.0402839524
 30
0.0
 11
140.1587679312
 21
151.0402839524
 31
0.0
  0
LINE
  5
22D
330
1F
100
AcDbEntity
  8
0
  6
Continuous
 62
     7
370
    30
100
AcDbLine
 10
141.0275857225
 20
151.0402839524
 30
0.0
 11
141.0665848553
 21
150.7902840279
 31
0.0
  0
LINE
  5
22E
330
1F
100
AcDbEntity
  8
0
  6
Continuous
 62
     7
370
    30
100
AcDbLine
 10
155.4509514272
 20
150.7902840279
 30
0.0
 11
155.4899505601
 21
151.0402839524
 31
0.0
  0
LINE
  5
22F
330
1F
100
AcDbEntity
  8
0
  6
Continuous
 62
     7
370
    30
100
AcDbLine
 10
154.9848370515
 20
151.0402839524
 30
0.0
 11
154.9587679357
 21
150.8783890061
 31
0.0
  0
LINE
  5
230
330
1F
100
AcDbEntity
  8
0
  6
Continuous
 62
     7
370
    30
100
AcDbLine
 10
141.5587683469
 20
150.8783890061
 30
0.0
 11
141.5326992311
 21
151.0402839524
 31
0.0
  0
LINE
  5
231
330
1F
100
AcDbEntity
  8
0
  6
Continuous
 62
     7
370
    30
100
AcDbLine
 10
155.4899505601
 20
153.0402840474
 30
0.0
 11
155.4509514272
 21
153.290283972
 31
0.0
  0
LINE
  5
232
330
1F
100
AcDbEntity
  8
0
  6
Continuous
 62
     7
370
    30
100
AcDbLine
 10
141.0665848553
 20
153.290283972
 30
0.0
 11
141.0275857225
 21
153.0402840474
 31
0.0
  0
LINE
  5
233
330
1F
100
AcDbEntity
  8
0
  6
Continuous
 62
     7
370
    30
100
AcDbLine
 10
141.5326992311
 20
153.0402840474
 30
0.0
 11
141.5587683469
 21
153.2021789938
 31
0.0
  0
LINE
  5
234
330
1F
100
AcDbEntity
  8
0
  6
Continuous
 62
     7
370
    30
100
AcDbLine
 10
154.9587679357
 20
153.2021789938
 30
0.0
 11
154.9848370515
 21
153.0402840474
 31
0.0
  0
ARC
  5
235
330
1F
100
AcDbEntity
  8
0
  6
Continuous
 62
     7
370
    30
100
AcDbCircle
 10
152.2713131111
 20
152.0841710627
 30
0.0
 40
2.812732366036732
100
AcDbArc
 50
10.6957384679
 51
17.1646636887
  0
ARC
  5
236
330
1F
100
AcDbEntity
  8
0
  6
Continuous
 62
     7
370
    30
100
AcDbCircle
 10
152.2713131111
 20
151.9963969372
 30
0.0
 40
2.812732366036718
100
AcDbArc
 50
342.8353363113
 51
349.3042615321
  0
ARC
  5
237
330
1F
100
AcDbEntity
  8
0
  6
Continuous
 62
     7
370
    30
100
AcDbCircle
 10
144.2462231714
 20
151.9963969372
 30
0.0
 40
2.812732366036718
100
AcDbArc
 50
190.6957384679
 51
197.1646636887
  0
ARC
  5
238
330
1F
100
AcDbEntity
  8
0
  6
Continuous
 62
     7
370
    30
100
AcDbCircle
 10
144.2462231714
 20
152.0841710627
 30
0.0
 40
2.812732366036732
100
AcDbArc
 50
162.8353363113
 51
169.3042615321
  0
SPLINE
  5
239
330
1F
100
AcDbEntity
  8
0
  6
Continuous
 62
     7
370
    30
100
AcDbSpline
210
0.0
220
0.0
230
1.0
 70
     8
 71
     3
 72
    11
 73
     7
 74
     0
 42
0.000000001
 43
0.00000001
 40
0.0
 40
0.0
 40
0.0
 40
0.0
 40
0.1548900727239826
 40
0.4769787295403303
 40
0.7988583640741792
 40
1.0
 40
1.0
 40
1.0
 40
1.0
 10
144.835193527885
 20
148.8935974087196
 30
0.0
 10
144.8479840932794
 20
148.9058348382841
 30
0.0
 10
144.8873722059235
 20
148.9435195878866
 30
0.0
 10
144.9390991091627
 20
148.9929635057051
 30
0.0
 10
144.9717225712742
 20
149.0241287936909
 30
0.0
 10
144.9749329552648
 20
149.0271950218049
 30
0.0
 10
144.9761675931739
 20
149.0283742207664
 30
0.0
  0
SPLINE
  5
23A
330
1F
100
AcDbEntity
  8
0
  6
Continuous
 62
     7
370
    30
100
AcDbSpline
210
0.0
220
0.0
230
1.0
 70
     8
 71
     3
 72
    12
 73
     8
 74
     0
 42
0.000000001
 43
0.00000001
 40
0.0
 40
0.0
 40
0.0
 40
0.0
 40
0.0344393527669303
 40
0.3562822250025715
 40
0.678061224553412
 40
0.9998917092535905
 40
1.0
 40
1.0
 40
1.0
 40
1.0
 10
151.6823427546995
 20
155.1869705911356
 30
0.0
 10
151.6794428041969
 20
155.1841956343695
 30
0.0
 10
151.6494422166579
 20
155.1554881328785
 30
0.0
 10
151.5983965467844
 20
155.1066884849058
 30
0.0
 10
151.5537687938455
 20
155.0640015043709
 30
0.0
 10
151.5379053229097
 20
155.048961290543
 30
0.0
 10
151.5413675248276
 20
155.0521926921402
 30
0.0
 10
151.5413686894106
 20
155.0521937790888
 30
0.0
  0
SPLINE
  5
23B
330
1F
100
AcDbEntity
  8
0
  6
Continuous
 62
     7
370
    30
100
AcDbSpline
210
0.0
220
0.0
230
1.0
 70
     8
 71
     3
 72
    10
 73
     6
 74
     0
 42
0.000000001
 43
0.00000001
 40
0.0
 40
0.0
 40
0.0
 40
0.0
 40
0.3213654554984254
 40
0.6436725559608834
 40
1.0
 40
1.0
 40
1.0
 40
1.0
 10
144.009017039113
 20
150.7034058343249
 30
0.0
 10
144.0048009424099
 20
150.702171987005
 30
0.0
 10
143.9963563952607
 20
150.6997006770229
 30
0.0
 10
143.9311240308445
 20
150.6806142514839
 30
0.0
 10
143.8594851734808
 20
150.6597039171206
 30
0.0
 10
143.8218700960504
 20
150.6487246263402
 30
0.0
  0
SPLINE
  5
23C
330
1F
100
AcDbEntity
  8
0
  6
Continuous
 62
     7
370
    30
100
AcDbSpline
210
0.0
220
0.0
230
1.0
 70
     8
 71
     3
 72
    12
 73
     8
 74
     0
 42
0.000000001
 43
0.00000001
 40
0.0
 40
0.0
 40
0.0
 40
0.0
 40
0.0009878985647168
 40
0.202018903482584
 40
0.5235450565873097
 40
0.8452792769871066
 40
1.0
 40
1.0
 40
1.0
 40
1.0
 10
152.5085192434716
 20
153.3771621655303
 30
0.0
 10
152.5084975869318
 20
153.3771558165909
 30
0.0
 10
152.5040689638296
 20
153.3758574993294
 30
0.0
 10
152.5188940664864
 20
153.380200372367
 30
0.0
 10
152.5561843204883
 20
153.3911091338101
 30
0.0
 10
152.6264993785454
 20
153.4116621227651
 30
0.0
 10
152.6787112576454
 20
153.4268963233142
 30
0.0
 10
152.6956661865341
 20
153.431843373515
 30
0.0
  0
LINE
  5
23D
330
1F
100
AcDbEntity
  8
0
  6
CENTERX2
 62
     7
370
     0
100
AcDbLine
 10
137.5715674222
 20
152.0402839999
 30
0.0
 11
158.9715674222
 21
152.0402839999
 31
0.0
  0
LINE
  5
23E
330
1F
100
AcDbEntity
  8
0
  6
CENTERX2
 62
     7
370
     0
100
AcDbLine
 10
148.2587681413
 20
142.4464179179
 30
0.0
 11
148.2587681413
 21
161.6464179179
 31
0.0
  0
LINE
  5
23F
330
1F
100
AcDbEntity
  8
0
  6
CENTER
 62
     7
370
     0
100
AcDbLine
 10
148.2587681413
 20
152.0402839999
 30
0.0
 11
146.4627169171
 21
150.2442327757
 31
0.0
  0
LINE
  5
240
330
1F
100
AcDbEntity
  8
0
  6
CENTER
 62
     7
370
     0
100
AcDbLine
 10
148.2587681413
 20
152.0402839999
 30
0.0
 11
150.0548193655
 21
150.2442327757
 31
0.0
  0
CIRCLE
  5
241
330
1F
100
AcDbEntity
  8
0
  6
CENTER
 62
     7
370
     0
100
AcDbCircle
 10
148.2587681413
 20
152.0402839999
 30
0.0
 40
2.539999999999983
  0
DIMENSION
  5
242
330
1F
100
AcDbEntity
  8
0
  6
Continuous
 62
     7
370
     0
100
AcDbDimension
  2
_D_11
 10
149.6895237056
 20
149.9415847563
 30
0.0
 11
121.8167450324
 21
168.0386327757
 31
0.0
 70
   163
  1
P.D.C.<>
 71
     1
 42
-1.0
  3
SLDDIMSTYLE7
100
AcDbDiametricDimension
 15
146.828012577
 25
154.1389832435
 35
0.0
 40
0.0
  0
DIMENSION
  5
24F
330
1F
100
AcDbEntity
  8
0
  6
Continuous
 62
     7
370
     0
100
AcDbDimension
  2
_D_12
 10
148.2587681413
 20
161.6464179179
 30
0.0
 11
137.4646015994
 21
131.4352960297
 31
0.0
 70
   162
  1
<>
 71
     1
 42
-1.0
  3
SLDDIMSTYLE8
100
AcDb2LineAngularDimension
 13
148.2587681413
 23
152.0402839999
 33
0.0
 14
146.4627169171
 24
150.2442327757
 34
0.0
 15
148.2587681413
 25
142.4464179179
 35
0.0
 16
139.3571240759
 26
130.5498141698
 36
0.0
  0
DIMENSION
  5
25A
330
1F
100
AcDbEntity
  8
0
  6
Continuous
 62
     7
370
     0
100
AcDbDimension
  2
_D_13
 10
150.0548193655
 20
150.2442327757
 30
0.0
 11
155.3445335091
 21
129.884664177
 31
0.0
 70
   162
  1
<>
 71
     1
 42
-1.0
  3
SLDDIMSTYLE8
100
AcDb2LineAngularDimension
 13
148.2587681413
 23
142.4464179179
 33
0.0
 14
148.2587681413
 24
161.6464179179
 34
0.0
 15
148.2587681413
 25
152.0402839999
 35
0.0
 16
157.1604122067
 26
130.5498141698
 36
0.0
  0
DIMENSION
  5
264
330
1F
100
AcDbEntity
  8
0
  6
Continuous
 62
     7
370
     0
100
AcDbDimension
  2
_D_14
 10
169.340375792
 20
150.2902839999
 30
0.0
 11
169.340375792
 21
158.6274338276
 31
0.0
 70
   160
  1
<>
 71
     2
 42
-1.0
  3
SLDDIMSTYLE9
100
AcDbAlignedDimension
 13
155.8599193699
 23
154.2902839999
 33
0.0
 14
155.8599193699
 24
150.2902839999
 34
0.0
 50
90.0
100
AcDbRotatedDimension
  0
DIMENSION
  5
270
330
1F
100
AcDbEntity
  8
0
  6
Continuous
 62
     7
370
     0
100
AcDbDimension
  2
_D_15
 10
161.6121700776
 20
151.0402839999
 30
0.0
 11
161.6121700776
 21
158.6274338276
 31
0.0
 70
   160
  1
<>
 71
     2
 42
-1.0
  3
SLDDIMSTYLE4
100
AcDbAlignedDimension
 13
156.3587681413
 23
153.0402839999
 33
0.0
 14
156.3587681413
 24
151.0402839999
 34
0.0
 50
90.0
100
AcDbRotatedDimension
  0
MTEXT
  5
27C
330
1F
100
AcDbEntity
  8
0
  6
Continuous
 62
     7
370
     0
100
AcDbMText
 10
141.2147786342
 20
133.6688852111
 30
0.0
 40
2.6458333333
 41
0.0
 71
     1
 72
     1
  1
±4°
  7
SLDTEXTSTYLE0
 11
0.9659258262890681
 21
-0.2588190451025214
 31
0.0
 73
     1
 44
1.0
  0
MTEXT
  5
27D
330
1F
100
AcDbEntity
  8
0
  6
Continuous
 62
     7
370
     0
100
AcDbMText
 10
155.9970081175
 20
133.7519370344
 30
0.0
 40
2.6458333333
 41
0.0
 71
     1
 72
     1
  1
±4°
  7
SLDTEXTSTYLE0
 11
0.8660254037844382
 21
0.5000000000000009
 31
0.0
 73
     1
 44
1.0
  0
LINE
  5
27E
330
1F
100
AcDbEntity
  8
0
  6
Continuous
 62
     7
370
    30
100
AcDbLine
 10
53.8587256685
 20
178.5739046687
 30
0.0
 11
53.8587256685
 21
173.9739050323
 31
0.0
  0
LINE
  5
27F
330
1F
100
AcDbEntity
  8
0
  6
Continuous
 62
     7
370
    30
100
AcDbLine
 10
54.308725719
 20
173.9739050323
 30
0.0
 11
54.308725719
 21
178.5739046687
 31
0.0
  0
LINE
  5
280
330
1F
100
AcDbEntity
  8
0
  6
Continuous
 62
     7
370
    30
100
AcDbLine
 10
50.2666232294
 20
178.5739046687
 30
0.0
 11
50.2666232294
 21
173.9739050323
 31
0.0
  0
LINE
  5
281
330
1F
100
AcDbEntity
  8
0
  6
Continuous
 62
     7
370
    30
100
AcDbLine
 10
50.7166232799
 20
173.9739050323
 30
0.0
 11
50.7166232799
 21
178.5739046687
 31
0.0
  0
LINE
  5
282
330
1F
100
AcDbEntity
  8
0
  6
Continuous
 62
     7
370
    30
100
AcDbLine
 10
57.7876744444
 20
178.5739046687
 30
0.0
 11
57.3326744723
 21
186.4739047529
 31
0.0
  0
LINE
  5
283
330
1F
100
AcDbEntity
  8
0
  6
Continuous
 62
     7
370
    30
100
AcDbLine
 10
47.2426744761
 20
186.4739047529
 30
0.0
 11
46.787674504
 21
178.5739046687
 31
0.0
  0
LINE
  5
284
330
1F
100
AcDbEntity
  8
0
  6
Continuous
 62
     7
370
    30
100
AcDbLine
 10
60.5876743446
 20
186.5350460799
 30
0.0
 11
60.5876743446
 21
188.4739047315
 31
0.0
  0
LINE
  5
285
330
1F
100
AcDbEntity
  8
0
  6
Continuous
 62
     7
370
    30
100
AcDbLine
 10
43.9876746038
 20
188.4739047315
 30
0.0
 11
43.9876746038
 21
186.5350460799
 31
0.0
  0
LINE
  5
286
330
1F
100
AcDbEntity
  8
0
  6
Continuous
 62
     7
370
    30
100
AcDbLine
 10
59.5876746463
 20
188.4739047315
 30
0.0
 11
59.5876746463
 21
191.273904748
 31
0.0
  0
LINE
  5
287
330
1F
100
AcDbEntity
  8
0
  6
Continuous
 62
     7
370
    30
100
AcDbLine
 10
44.9876743021
 20
191.273904748
 30
0.0
 11
44.9876743021
 21
188.4739047315
 31
0.0
  0
ARC
  5
288
330
1F
100
AcDbEntity
  8
0
  6
Continuous
 62
     7
370
    30
100
AcDbCircle
 10
52.2876744742
 20
187.873904703
 30
0.0
 40
7.899999999999999
100
AcDbArc
 50
25.4916622417
 51
154.5083377583
  0
LINE
  5
289
330
1F
100
AcDbEntity
  8
0
  6
Continuous
 62
     7
370
    30
100
AcDbLine
 10
52.1376744671
 20
179.4739050025
 30
0.0
 11
52.1376744671
 21
180.193904897
 31
0.0
  0
LINE
  5
28A
330
1F
100
AcDbEntity
  8
0
  6
Continuous
 62
     7
370
    30
100
AcDbLine
 10
52.4376744813
 20
179.4739050025
 30
0.0
 11
52.4376744813
 21
180.193904897
 31
0.0
  0
LINE
  5
28B
330
1F
100
AcDbEntity
  8
0
  6
Continuous
 62
     7
370
    30
100
AcDbLine
 10
52.1376744671
 20
180.193904897
 30
0.0
 11
52.4376744813
 21
180.193904897
 31
0.0
  0
LINE
  5
28C
330
1F
100
AcDbEntity
  8
0
  6
Continuous
 62
     7
370
    30
100
AcDbLine
 10
52.4376744813
 20
179.4739050025
 30
0.0
 11
52.1376744671
 21
179.4739050025
 31
0.0
  0
LINE
  5
28D
330
1F
100
AcDbEntity
  8
0
  6
Continuous
 62
     7
370
    30
100
AcDbLine
 10
52.6876744641
 20
179.4739050025
 30
0.0
 11
52.6876744641
 21
180.193904897
 31
0.0
  0
LINE
  5
28E
330
1F
100
AcDbEntity
  8
0
  6
Continuous
 62
     7
370
    30
100
AcDbLine
 10
52.4376744813
 20
180.193904897
 30
0.0
 11
52.6876744641
 21
180.193904897
 31
0.0
  0
LINE
  5
28F
330
1F
100
AcDbEntity
  8
0
  6
Continuous
 62
     7
370
    30
100
AcDbLine
 10
52.6876744641
 20
179.4739050025
 30
0.0
 11
52.4376744813
 21
179.4739050025
 31
0.0
  0
LINE
  5
290
330
1F
100
AcDbEntity
  8
0
  6
Continuous
 62
     7
370
    30
100
AcDbLine
 10
51.8876744843
 20
179.4739050025
 30
0.0
 11
51.8876744843
 21
180.193904897
 31
0.0
  0
LINE
  5
291
330
1F
100
AcDbEntity
  8
0
  6
Continuous
 62
     7
370
    30
100
AcDbLine
 10
51.8876744843
 20
180.193904897
 30
0.0
 11
52.1376744671
 21
180.193904897
 31
0.0
  0
LINE
  5
292
330
1F
100
AcDbEntity
  8
0
  6
Continuous
 62
     7
370
    30
100
AcDbLine
 10
52.1376744671
 20
179.4739050025
 30
0.0
 11
51.8876744843
 21
179.4739050025
 31
0.0
  0
LINE
  5
293
330
1F
100
AcDbEntity
  8
0
  6
Continuous
 62
     7
370
    30
100
AcDbLine
 10
52.6876744641
 20
180.193904897
 30
0.0
 11
52.7471529438
 21
180.193904897
 31
0.0
  0
LINE
  5
294
330
1F
100
AcDbEntity
  8
0
  6
Continuous
 62
     7
370
    30
100
AcDbLine
 10
52.7863868863
 20
179.4739050025
 30
0.0
 11
52.6876744641
 21
179.4739050025
 31
0.0
  0
LINE
  5
295
330
1F
100
AcDbEntity
  8
0
  6
Continuous
 62
     7
370
    30
100
AcDbLine
 10
51.8273910218
 20
180.193904897
 30
0.0
 11
51.8876744843
 21
180.193904897
 31
0.0
  0
LINE
  5
296
330
1F
100
AcDbEntity
  8
0
  6
Continuous
 62
     7
370
    30
100
AcDbLine
 10
51.8876744843
 20
179.4739050025
 30
0.0
 11
51.7886866817
 21
179.4739050025
 31
0.0
  0
LINE
  5
297
330
1F
100
AcDbEntity
  8
0
  6
Continuous
 62
     7
370
    30
100
AcDbLine
 10
54.2428246351
 20
173.9739050323
 30
0.0
 11
54.308725719
 21
173.9739050323
 31
0.0
  0
LINE
  5
298
330
1F
100
AcDbEntity
  8
0
  6
Continuous
 62
     7
370
    30
100
AcDbLine
 10
53.8587256685
 20
173.9739050323
 30
0.0
 11
54.2428246351
 21
173.9739050323
 31
0.0
  0
LINE
  5
299
330
1F
100
AcDbEntity
  8
0
  6
Continuous
 62
     7
370
    30
100
AcDbLine
 10
50.6507223124
 20
173.9739050323
 30
0.0
 11
50.7166232799
 21
173.9739050323
 31
0.0
  0
LINE
  5
29A
330
1F
100
AcDbEntity
  8
0
  6
Continuous
 62
     7
370
    30
100
AcDbLine
 10
50.2666232294
 20
173.9739050323
 30
0.0
 11
50.6507223124
 21
173.9739050323
 31
0.0
  0
LINE
  5
29B
330
1F
100
AcDbEntity
  8
0
  6
Continuous
 62
     7
370
    30
100
AcDbLine
 10
52.6876744641
 20
180.4239047857
 30
0.0
 11
52.6876744641
 21
180.193904897
 31
0.0
  0
LINE
  5
29C
330
1F
100
AcDbEntity
  8
0
  6
Continuous
 62
     7
370
    30
100
AcDbLine
 10
51.8876744843
 20
180.4239047857
 30
0.0
 11
51.8876744843
 21
180.193904897
 31
0.0
  0
LINE
  5
29D
330
1F
100
AcDbEntity
  8
0
  6
Continuous
 62
     7
370
    30
100
AcDbLine
 10
52.7479579266
 20
180.193904897
 30
0.0
 11
52.6876744641
 21
180.193904897
 31
0.0
  0
LINE
  5
29E
330
1F
100
AcDbEntity
  8
0
  6
Continuous
 62
     7
370
    30
100
AcDbLine
 10
51.8876744843
 20
180.193904897
 30
0.0
 11
51.8281960046
 21
180.193904897
 31
0.0
  0
LINE
  5
29F
330
1F
100
AcDbEntity
  8
0
  6
Continuous
 62
     7
370
    30
100
AcDbLine
 10
59.2399257819
 20
188.4739047315
 30
0.0
 11
59.2399257819
 21
187.4739047131
 31
0.0
  0
LINE
  5
2A0
330
1F
100
AcDbEntity
  8
0
  6
Continuous
 62
     7
370
    30
100
AcDbLine
 10
45.3354231665
 20
188.4739047315
 30
0.0
 11
45.3354231665
 21
187.4739047131
 31
0.0
  0
LINE
  5
2A1
330
1F
100
AcDbEntity
  8
0
  6
Continuous
 62
     7
370
    30
100
AcDbLine
 10
45.3354231665
 20
187.4739047131
 30
0.0
 11
59.2399257819
 21
187.4739047131
 31
0.0
  0
LINE
  5
2A2
330
1F
100
AcDbEntity
  8
0
  6
Continuous
 62
     7
370
    30
100
AcDbLine
 10
45.3354231665
 20
188.4739047315
 30
0.0
 11
59.2399257819
 21
188.4739047315
 31
0.0
  0
LINE
  5
2A3
330
1F
100
AcDbEntity
  8
0
  6
Continuous
 62
     7
370
    30
100
AcDbLine
 10
58.5985779414
 20
186.4739047529
 30
0.0
 11
58.5985779414
 21
187.4739047131
 31
0.0
  0
LINE
  5
2A4
330
1F
100
AcDbEntity
  8
0
  6
Continuous
 62
     7
370
    30
100
AcDbLine
 10
45.976771007
 20
186.4739047529
 30
0.0
 11
45.976771007
 21
187.4739047131
 31
0.0
  0
LINE
  5
2A5
330
1F
100
AcDbEntity
  8
0
  6
Continuous
 62
     7
370
    30
100
AcDbLine
 10
45.976771007
 20
186.4739047529
 30
0.0
 11
58.5985779414
 21
186.4739047529
 31
0.0
  0
LINE
  5
2A6
330
1F
100
AcDbEntity
  8
0
  6
Continuous
 62
     7
370
    30
100
AcDbLine
 10
52.7376744665
 20
180.4239047857
 30
0.0
 11
51.8376744819
 21
180.4239047857
 31
0.0
  0
LINE
  5
2A7
330
1F
100
AcDbEntity
  8
0
  6
Continuous
 62
     7
370
    30
100
AcDbLine
 10
51.8376744819
 20
180.4239047857
 30
0.0
 11
51.7376744772
 21
178.5739046687
 31
0.0
  0
LINE
  5
2A8
330
1F
100
AcDbEntity
  8
0
  6
Continuous
 62
     7
370
    30
100
AcDbLine
 10
46.787674504
 20
178.5739046687
 30
0.0
 11
51.7376744772
 21
178.5739046687
 31
0.0
  0
LINE
  5
2A9
330
1F
100
AcDbEntity
  8
0
  6
Continuous
 62
     7
370
    30
100
AcDbLine
 10
52.8376744712
 20
178.5739046687
 30
0.0
 11
52.7376744665
 21
180.4239047857
 31
0.0
  0
LINE
  5
2AA
330
1F
100
AcDbEntity
  8
0
  6
Continuous
 62
     7
370
    30
100
AcDbLine
 10
52.8376744712
 20
178.5739046687
 30
0.0
 11
57.7876744444
 21
178.5739046687
 31
0.0
  0
LINE
  5
2AB
330
1F
100
AcDbEntity
  8
0
  6
Continuous
 62
     7
370
    30
100
AcDbLine
 10
59.4291030081
 20
187.4739047131
 30
0.0
 11
59.4291030081
 21
188.4739047315
 31
0.0
  0
LINE
  5
2AC
330
1F
100
AcDbEntity
  8
0
  6
Continuous
 62
     7
370
    30
100
AcDbLine
 10
59.2399257819
 20
187.4739047131
 30
0.0
 11
59.4291030081
 21
187.4739047131
 31
0.0
  0
LINE
  5
2AD
330
1F
100
AcDbEntity
  8
0
  6
Continuous
 62
     7
370
    30
100
AcDbLine
 10
59.4291030081
 20
188.4739047315
 30
0.0
 11
59.2399257819
 21
188.4739047315
 31
0.0
  0
LINE
  5
2AE
330
1F
100
AcDbEntity
  8
0
  6
Continuous
 62
     7
370
    30
100
AcDbLine
 10
45.1462459403
 20
187.4739047131
 30
0.0
 11
45.1462459403
 21
188.4739047315
 31
0.0
  0
LINE
  5
2AF
330
1F
100
AcDbEntity
  8
0
  6
Continuous
 62
     7
370
    30
100
AcDbLine
 10
45.3354231665
 20
187.4739047131
 30
0.0
 11
45.1462459403
 21
187.4739047131
 31
0.0
  0
LINE
  5
2B0
330
1F
100
AcDbEntity
  8
0
  6
Continuous
 62
     7
370
    30
100
AcDbLine
 10
45.1462459403
 20
188.4739047315
 30
0.0
 11
45.3354231665
 21
188.4739047315
 31
0.0
  0
LINE
  5
2B1
330
1F
100
AcDbEntity
  8
0
  6
Continuous
 62
     7
370
    30
100
AcDbLine
 10
59.8888257171
 20
188.4739047315
 30
0.0
 11
59.8888257171
 21
186.4739047529
 31
0.0
  0
LINE
  5
2B2
330
1F
100
AcDbEntity
  8
0
  6
Continuous
 62
     7
370
    30
100
AcDbLine
 10
60.3760787869
 20
186.5165338318
 30
0.0
 11
60.3760787869
 21
188.4739047315
 31
0.0
  0
LWPOLYLINE
  5
2B3
330
1F
100
AcDbEntity
  8
0
  6
Continuous
 62
     7
370
    30
100
AcDbPolyline
 90
        8
 70
   128
 43
0.0
 10
59.8888257171
 20
186.4739047529
 10
59.9842727768
 20
186.4822552239
 10
60.0762096817
 20
186.4902987077
 10
60.1612543339
 20
186.4977391602
 10
60.2362798179
 20
186.5043030053
 10
60.2985256935
 20
186.5097487976
 10
60.3457046325
 20
186.5138764193
 10
60.3760787869
 20
186.5165338318
  0
LINE
  5
2B4
330
1F
100
AcDbEntity
  8
0
  6
Continuous
 62
     7
370
    30
100
AcDbLine
 10
60.3760787869
 20
188.4739047315
 30
0.0
 11
59.8888257171
 21
188.4739047315
 31
0.0
  0
LINE
  5
2B5
330
1F
100
AcDbEntity
  8
0
  6
Continuous
 62
     7
370
    30
100
AcDbLine
 10
59.8888257171
 20
186.4739047529
 30
0.0
 11
58.5985779414
 21
186.4739047529
 31
0.0
  0
LINE
  5
2B6
330
1F
100
AcDbEntity
  8
0
  6
Continuous
 62
     7
370
    30
100
AcDbLine
 10
59.8888257171
 20
188.4739047315
 30
0.0
 11
59.4291030081
 21
188.4739047315
 31
0.0
  0
LINE
  5
2B7
330
1F
100
AcDbEntity
  8
0
  6
Continuous
 62
     7
370
    30
100
AcDbLine
 10
44.6865232313
 20
188.4739047315
 30
0.0
 11
44.6865232313
 21
186.4739047529
 31
0.0
  0
LINE
  5
2B8
330
1F
100
AcDbEntity
  8
0
  6
Continuous
 62
     7
370
    30
100
AcDbLine
 10
44.6865232313
 20
186.4739047529
 30
0.0
 11
45.976771007
 21
186.4739047529
 31
0.0
  0
LINE
  5
2B9
330
1F
100
AcDbEntity
  8
0
  6
Continuous
 62
     7
370
    30
100
AcDbLine
 10
44.6865232313
 20
188.4739047315
 30
0.0
 11
45.1462459403
 21
188.4739047315
 31
0.0
  0
LINE
  5
2BA
330
1F
100
AcDbEntity
  8
0
  6
Continuous
 62
     7
370
    30
100
AcDbLine
 10
44.1992701615
 20
186.5165338318
 30
0.0
 11
44.1992701615
 21
188.4739047315
 31
0.0
  0
LWPOLYLINE
  5
2BB
330
1F
100
AcDbEntity
  8
0
  6
Continuous
 62
     7
370
    30
100
AcDbPolyline
 90
        8
 70
   128
 43
0.0
 10
44.6865232313
 20
186.4739047529
 10
44.5910761716
 20
186.4822552239
 10
44.4991392667
 20
186.4902987077
 10
44.4140946145
 20
186.4977391602
 10
44.3390691305
 20
186.5043030053
 10
44.2768232549
 20
186.5097487976
 10
44.2296443159
 20
186.5138764193
 10
44.1992701615
 20
186.5165338318
  0
LINE
  5
2BC
330
1F
100
AcDbEntity
  8
0
  6
Continuous
 62
     7
370
    30
100
AcDbLine
 10
44.1992701615
 20
188.4739047315
 30
0.0
 11
44.6865232313
 21
188.4739047315
 31
0.0
  0
LWPOLYLINE
  5
2BD
330
1F
100
AcDbEntity
  8
0
  6
Continuous
 62
     7
370
    30
100
AcDbPolyline
 90
        5
 70
   128
 43
0.0
 10
60.3760787869
 20
186.5165338318
 10
60.4684296647
 20
186.5246134044
 10
60.5346057216
 20
186.530403204
 10
60.5743964786
 20
186.5338843714
 10
60.5876743446
 20
186.5350460799
  0
LINE
  5
2BE
330
1F
100
AcDbEntity
  8
0
  6
Continuous
 62
     7
370
    30
100
AcDbLine
 10
60.5876743446
 20
188.4739047315
 30
0.0
 11
60.3760787869
 21
188.4739047315
 31
0.0
  0
LWPOLYLINE
  5
2BF
330
1F
100
AcDbEntity
  8
0
  6
Continuous
 62
     7
370
    30
100
AcDbPolyline
 90
        5
 70
   128
 43
0.0
 10
44.1992701615
 20
186.5165338318
 10
44.1069192836
 20
186.5246134044
 10
44.0407432268
 20
186.530403204
 10
44.0009524698
 20
186.5338843714
 10
43.9876746038
 20
186.5350460799
  0
LINE
  5
2C0
330
1F
100
AcDbEntity
  8
0
  6
Continuous
 62
     7
370
    30
100
AcDbLine
 10
43.9876746038
 20
188.4739047315
 30
0.0
 11
44.1992701615
 21
188.4739047315
 31
0.0
  0
LINE
  5
2C1
330
1F
100
AcDbEntity
  8
0
  6
Continuous
 62
     7
370
    30
100
AcDbLine
 10
44.9876743021
 20
191.273904748
 30
0.0
 11
59.5876746463
 21
191.273904748
 31
0.0
  0
LINE
  5
2C2
330
1F
100
AcDbEntity
  8
0
  6
Continuous
 62
     7
370
    30
100
AcDbLine
 10
45.561605564
 20
185.473904589
 30
0.0
 11
45.561605564
 21
186.4739047529
 31
0.0
  0
LINE
  5
2C3
330
1F
100
AcDbEntity
  8
0
  6
Continuous
 62
     7
370
    30
100
AcDbLine
 10
59.0137433844
 20
185.473904589
 30
0.0
 11
59.0137433844
 21
186.4739047529
 31
0.0
  0
LINE
  5
2C4
330
1F
100
AcDbEntity
  8
0
  6
Continuous
 62
     7
370
    30
100
AcDbLine
 10
60.3876746843
 20
186.4739047529
 30
0.0
 11
60.2876748542
 21
186.4739047529
 31
0.0
  0
LINE
  5
2C5
330
1F
100
AcDbEntity
  8
0
  6
Continuous
 62
     7
370
    30
100
AcDbLine
 10
60.3876746843
 20
186.2739047434
 30
0.0
 11
60.3876746843
 21
186.4739047529
 31
0.0
  0
LINE
  5
2C6
330
1F
100
AcDbEntity
  8
0
  6
Continuous
 62
     7
370
    30
100
AcDbLine
 10
59.5876746463
 20
185.473904589
 30
0.0
 11
60.3876746843
 21
186.2739047434
 31
0.0
  0
LINE
  5
2C7
330
1F
100
AcDbEntity
  8
0
  6
Continuous
 62
     7
370
    30
100
AcDbLine
 10
59.5876746463
 20
185.473904589
 30
0.0
 11
59.0137433844
 21
185.473904589
 31
0.0
  0
LINE
  5
2C8
330
1F
100
AcDbEntity
  8
0
  6
Continuous
 62
     7
370
    30
100
AcDbLine
 10
59.8876746023
 20
186.4389092594
 30
0.0
 11
59.8876746023
 21
186.4739047529
 31
0.0
  0
LINE
  5
2C9
330
1F
100
AcDbEntity
  8
0
  6
Continuous
 62
     7
370
    30
100
AcDbLine
 10
60.2876748542
 20
186.4739047529
 30
0.0
 11
59.8876746023
 21
186.4389092594
 31
0.0
  0
LINE
  5
2CA
330
1F
100
AcDbEntity
  8
0
  6
Continuous
 62
     7
370
    30
100
AcDbLine
 10
44.9876743021
 20
185.473904589
 30
0.0
 11
45.561605564
 21
185.473904589
 31
0.0
  0
LINE
  5
2CB
330
1F
100
AcDbEntity
  8
0
  6
Continuous
 62
     7
370
    30
100
AcDbLine
 10
44.1876742641
 20
186.2739047434
 30
0.0
 11
44.9876743021
 21
185.473904589
 31
0.0
  0
LINE
  5
2CC
330
1F
100
AcDbEntity
  8
0
  6
Continuous
 62
     7
370
    30
100
AcDbLine
 10
44.1876742641
 20
186.2739047434
 30
0.0
 11
44.1876742641
 21
186.4739047529
 31
0.0
  0
LINE
  5
2CD
330
1F
100
AcDbEntity
  8
0
  6
Continuous
 62
     7
370
    30
100
AcDbLine
 10
44.1876742641
 20
186.4739047529
 30
0.0
 11
44.2876740942
 21
186.4739047529
 31
0.0
  0
LINE
  5
2CE
330
1F
100
AcDbEntity
  8
0
  6
Continuous
 62
     7
370
    30
100
AcDbLine
 10
44.687674346
 20
186.4389092594
 30
0.0
 11
44.2876740942
 21
186.4739047529
 31
0.0
  0
LINE
  5
2CF
330
1F
100
AcDbEntity
  8
0
  6
Continuous
 62
     7
370
    30
100
AcDbLine
 10
44.687674346
 20
186.4389092594
 30
0.0
 11
44.687674346
 21
186.4739047529
 31
0.0
  0
LINE
  5
2D0
330
1F
100
AcDbEntity
  8
0
  6
Continuous
 62
     7
370
    30
100
AcDbLine
 10
52.4376744813
 20
180.4239047857
 30
0.0
 11
52.4376744813
 21
180.193904897
 31
0.0
  0
LINE
  5
2D1
330
1F
100
AcDbEntity
  8
0
  6
Continuous
 62
     7
370
    30
100
AcDbLine
 10
52.1376744671
 20
180.4239047857
 30
0.0
 11
52.1376744671
 21
180.193904897
 31
0.0
  0
LINE
  5
2D2
330
1F
100
AcDbEntity
  8
0
  6
CENTERX2
 62
     7
370
     0
100
AcDbLine
 10
52.2876744742
 20
198.8362880577
 30
0.0
 11
52.2876744742
 21
172.013041235
 31
0.0
  0
LINE
  5
2D3
330
1F
100
AcDbEntity
  8
0
  6
Continuous
 62
     7
370
    30
100
AcDbLine
 10
59.8376744742
 20
191.273904703
 30
0.0
 11
65.8376744742
 21
191.273904703
 31
0.0
  0
LINE
  5
2D4
330
1F
100
AcDbEntity
  8
0
  6
Continuous
 62
     7
370
    30
100
AcDbLine
 10
59.8376744742
 20
191.273904703
 30
0.0
 11
59.8376744742
 21
189.773904703
 31
0.0
  0
LINE
  5
2D5
330
1F
100
AcDbEntity
  8
0
  6
Continuous
 62
     7
370
    30
100
AcDbLine
 10
59.8376744742
 20
189.773904703
 30
0.0
 11
65.8376744742
 21
189.773904703
 31
0.0
  0
LINE
  5
2D6
330
1F
100
AcDbEntity
  8
0
  6
Continuous
 62
     7
370
    30
100
AcDbLine
 10
44.7376744742
 20
189.773904703
 30
0.0
 11
38.7376744742
 21
189.773904703
 31
0.0
  0
LINE
  5
2D7
330
1F
100
AcDbEntity
  8
0
  6
Continuous
 62
     7
370
    30
100
AcDbLine
 10
44.7376744742
 20
191.273904703
 30
0.0
 11
44.7376744742
 21
189.773904703
 31
0.0
  0
LINE
  5
2D8
330
1F
100
AcDbEntity
  8
0
  6
Continuous
 62
     7
370
    30
100
AcDbLine
 10
44.7376744742
 20
191.273904703
 30
0.0
 11
38.7376744742
 21
191.273904703
 31
0.0
  0
SPLINE
  5
2D9
330
1F
100
AcDbEntity
  8
0
  6
Continuous
 62
     7
370
    30
100
AcDbSpline
210
0.0
220
0.0
230
1.0
 70
     8
 71
     3
 72
     8
 73
     4
 74
     0
 42
0.000000001
 43
0.00000001
 40
0.0
 40
0.0
 40
0.0
 40
0.0
 40
1.0
 40
1.0
 40
1.0
 40
1.0
 10
65.83767447419889
 20
191.2739047029517
 30
0.0
 10
65.43143727808598
 20
190.7912020331713
 30
0.0
 10
66.22497630774185
 20
190.3040517765014
 30
0.0
 10
65.83767447419892
 20
189.7739047029519
 30
0.0
  0
SPLINE
  5
2DA
330
1F
100
AcDbEntity
  8
0
  6
Continuous
 62
     7
370
    30
100
AcDbSpline
210
0.0
220
0.0
230
1.0
 70
     8
 71
     3
 72
     8
 73
     4
 74
     0
 42
0.000000001
 43
0.00000001
 40
0.0
 40
0.0
 40
0.0
 40
0.0
 40
1.0
 40
1.0
 40
1.0
 40
1.0
 10
38.73767447419866
 20
191.2739047029517
 30
0.0
 10
39.14391167031157
 20
190.7912020331713
 30
0.0
 10
38.35037264065572
 20
190.3040517765014
 30
0.0
 10
38.73767447419866
 20
189.7739047029519
 30
0.0
  0
HATCH
  5
2DB
330
1F
100
AcDbEntity
  8
0
  6
Continuous
 62
     7
100
AcDbHatch
 10
0.0
 20
0.0
 30
0.0
210
0.0
220
0.0
230
1.0
  2
ANSI31
 70
     0
 71
     0
 91
        1
 92
        0
 93
        4
 72
     4
 94
        3
 73
     1
 74
     0
 95
        8
 96
        4
 40
0.0
 40
0.0
 40
0.0
 40
0.0
 40
1.0
 40
1.0
 40
1.0
 40
1.0
 10
65.83767447419889
 20
191.2739047029517
 42
1.0
 10
65.43143727808598
 20
190.7912020331713
 42
1.0
 10
66.22497630774185
 20
190.3040517765014
 42
1.0
 10
65.83767447419892
 20
189.7739047029519
 42
1.0
 72
     1
 10
65.83767447419878
 20
189.7739047029517
 11
59.83767447419878
 21
189.7739047029517
 72
     1
 10
59.83767447419878
 20
189.7739047029517
 11
59.83767447419878
 21
191.2739047029517
 72
     1
 10
59.83767447419878
 20
191.2739047029517
 11
65.83767447419878
 21
191.2739047029517
 97
        0
 75
     0
 76
     1
 52
0.0
 41
0.25
 77
     0
 78
     1
 53
45.0
 43
0.0
 44
0.0
 45
-0.561266007566822
 46
0.5612660075668221
 79
     0
 98
        1
 10
0.0
 20
0.0
  0
HATCH
  5
2DC
330
1F
100
AcDbEntity
  8
0
  6
Continuous
 62
     7
100
AcDbHatch
 10
0.0
 20
0.0
 30
0.0
210
0.0
220
0.0
230
1.0
  2
ANSI31
 70
     0
 71
     0
 91
        1
 92
        0
 93
        4
 72
     1
 10
44.73767447419867
 20
191.2739047029518
 11
38.73767447419866
 21
191.2739047029519
 72
     4
 94
        3
 73
     1
 74
     0
 95
        8
 96
        4
 40
0.0
 40
0.0
 40
0.0
 40
0.0
 40
1.0
 40
1.0
 40
1.0
 40
1.0
 10
38.73767447419866
 20
191.2739047029517
 42
1.0
 10
39.14391167031157
 20
190.7912020331713
 42
1.0
 10
38.35037264065572
 20
190.3040517765014
 42
1.0
 10
38.73767447419866
 20
189.7739047029519
 42
1.0
 72
     1
 10
38.73767447419866
 20
189.7739047029519
 11
44.73767447419864
 21
189.7739047029518
 72
     1
 10
44.73767447419864
 20
189.7739047029518
 11
44.73767447419867
 21
191.2739047029518
 97
        0
 75
     0
 76
     1
 52
0.0
 41
0.25
 77
     0
 78
     1
 53
45.0
 43
0.0
 44
0.0
 45
-0.561266007566822
 46
0.5612660075668221
 79
     0
 98
        1
 10
0.0
 20
0.0
  0
DIMENSION
  5
2DD
330
1F
100
AcDbEntity
  8
0
  6
Continuous
 62
     7
370
     0
100
AcDbDimension
  2
_D_16
 10
70.5876744742
 20
178.573904703
 30
0.0
 11
70.5876744742
 21
184.5286000626
 31
0.0
 70
   160
  1
<>
 71
     2
 42
-1.0
  3
SLDDIMSTYLE10
100
AcDbAlignedDimension
 13
65.8376744742
 23
191.273904703
 33
0.0
 14
57.7876744742
 24
178.573904703
 34
0.0
 50
90.0
100
AcDbRotatedDimension
  0
DIMENSION
  5
2EA
330
1F
100
AcDbEntity
  8
0
  6
Continuous
 62
     7
370
     0
100
AcDbDimension
  2
_D_17
 10
59.8376744742
 20
199.6506463073
 30
0.0
 11
32.0961700715
 21
199.6506463073
 31
0.0
 70
   160
  1
%%c<>
 71
     2
 42
-1.0
  3
SLDDIMSTYLE11
100
AcDbAlignedDimension
 13
44.7376744742
 23
191.273904703
 33
0.0
 14
59.8376744742
 24
191.273904703
 34
0.0
 50
0.0
100
AcDbRotatedDimension
  0
INSERT
  5
301
330
1F
100
AcDbEntity
  8
0
  6
Continuous
 62
     7
370
     0
100
AcDbBlockReference
  2
SW_NOTE_4
 10
62.5171543895
 20
196.5090819293
 30
0.0
  0
LEADER
  5
303
330
1F
100
AcDbEntity
  8
0
  6
Continuous
 62
     7
370
     0
100
AcDbLeader
  3
SLDDIMSTYLE12
 76
     2
 10
59.8376744742
 20
191.0385197735
 30
0.0
 10
62.5171543895
 20
196.5090819293
 30
0.0
  0
MTEXT
  5
304
330
1F
100
AcDbEntity
  8
0
  6
Continuous
 62
     7
370
     0
100
AcDbMText
 10
25.0055900305
 20
199.8077052496
 30
0.0
 40
2.38125
 41
0.0
 71
     1
 72
     1
  1
(0.594 dia.)
  7
SLDTEXTSTYLE0
 73
     1
 44
1.0
  0
MTEXT
  5
305
330
1F
100
AcDbEntity
  8
0
  6
Continuous
 62
     7
370
     0
100
AcDbMText
 10
70.7144919984
 20
179.7947440688
 30
0.0
 40
2.38125
 41
0.0
 71
     1
 72
     1
  1
(0.500)
  7
SLDTEXTSTYLE0
 11
-3.269436733918102E-15
 21
1.0
 31
0.0
 73
     1
 44
1.0
  0
LINE
  5
306
330
1F
100
AcDbEntity
  8
0
  6
Continuous
 62
     7
370
    30
100
AcDbLine
 10
53.662157296
 20
245.9815654813
 30
0.0
 11
53.662157296
 21
241.3815658449
 31
0.0
  0
LINE
  5
307
330
1F
100
AcDbEntity
  8
0
  6
Continuous
 62
     7
370
    30
100
AcDbLine
 10
54.1121573465
 20
241.3815658449
 30
0.0
 11
54.1121573465
 21
245.9815654813
 31
0.0
  0
LINE
  5
308
330
1F
100
AcDbEntity
  8
0
  6
Continuous
 62
     7
370
    30
100
AcDbLine
 10
50.0700548569
 20
245.9815654813
 30
0.0
 11
50.0700548569
 21
241.3815658449
 31
0.0
  0
LINE
  5
309
330
1F
100
AcDbEntity
  8
0
  6
Continuous
 62
     7
370
    30
100
AcDbLine
 10
50.5200549074
 20
241.3815658449
 30
0.0
 11
50.5200549074
 21
245.9815654813
 31
0.0
  0
LINE
  5
30A
330
1F
100
AcDbEntity
  8
0
  6
Continuous
 62
     7
370
    30
100
AcDbLine
 10
57.5911060719
 20
245.9815654813
 30
0.0
 11
57.1361060997
 21
253.8815655655
 31
0.0
  0
LINE
  5
30B
330
1F
100
AcDbEntity
  8
0
  6
Continuous
 62
     7
370
    30
100
AcDbLine
 10
47.0461061036
 20
253.8815655655
 30
0.0
 11
46.5911061315
 21
245.9815654813
 31
0.0
  0
LINE
  5
30C
330
1F
100
AcDbEntity
  8
0
  6
Continuous
 62
     7
370
    30
100
AcDbLine
 10
60.391105972
 20
253.9427068925
 30
0.0
 11
60.391105972
 21
255.881565544
 31
0.0
  0
LINE
  5
30D
330
1F
100
AcDbEntity
  8
0
  6
Continuous
 62
     7
370
    30
100
AcDbLine
 10
43.7911062313
 20
255.881565544
 30
0.0
 11
43.7911062313
 21
253.9427068925
 31
0.0
  0
LINE
  5
30E
330
1F
100
AcDbEntity
  8
0
  6
Continuous
 62
     7
370
    30
100
AcDbLine
 10
59.3911062738
 20
255.881565544
 30
0.0
 11
59.3911062738
 21
258.6815655606
 31
0.0
  0
LINE
  5
30F
330
1F
100
AcDbEntity
  8
0
  6
Continuous
 62
     7
370
    30
100
AcDbLine
 10
44.7911059296
 20
258.6815655606
 30
0.0
 11
44.7911059296
 21
255.881565544
 31
0.0
  0
ARC
  5
310
330
1F
100
AcDbEntity
  8
0
  6
Continuous
 62
     7
370
    30
100
AcDbCircle
 10
52.0911061017
 20
255.2815655155
 30
0.0
 40
7.900000000000007
100
AcDbArc
 50
25.4916622417
 51
154.5083377583
  0
LINE
  5
311
330
1F
100
AcDbEntity
  8
0
  6
Continuous
 62
     7
370
    30
100
AcDbLine
 10
51.9411060946
 20
246.8815658151
 30
0.0
 11
51.9411060946
 21
247.6015657096
 31
0.0
  0
LINE
  5
312
330
1F
100
AcDbEntity
  8
0
  6
Continuous
 62
     7
370
    30
100
AcDbLine
 10
52.2411061088
 20
246.8815658151
 30
0.0
 11
52.2411061088
 21
247.6015657096
 31
0.0
  0
LINE
  5
313
330
1F
100
AcDbEntity
  8
0
  6
Continuous
 62
     7
370
    30
100
AcDbLine
 10
51.9411060946
 20
247.6015657096
 30
0.0
 11
52.2411061088
 21
247.6015657096
 31
0.0
  0
LINE
  5
314
330
1F
100
AcDbEntity
  8
0
  6
Continuous
 62
     7
370
    30
100
AcDbLine
 10
52.2411061088
 20
246.8815658151
 30
0.0
 11
51.9411060946
 21
246.8815658151
 31
0.0
  0
LINE
  5
315
330
1F
100
AcDbEntity
  8
0
  6
Continuous
 62
     7
370
    30
100
AcDbLine
 10
52.4911060916
 20
246.8815658151
 30
0.0
 11
52.4911060916
 21
247.6015657096
 31
0.0
  0
LINE
  5
316
330
1F
100
AcDbEntity
  8
0
  6
Continuous
 62
     7
370
    30
100
AcDbLine
 10
52.2411061088
 20
247.6015657096
 30
0.0
 11
52.4911060916
 21
247.6015657096
 31
0.0
  0
LINE
  5
317
330
1F
100
AcDbEntity
  8
0
  6
Continuous
 62
     7
370
    30
100
AcDbLine
 10
52.4911060916
 20
246.8815658151
 30
0.0
 11
52.2411061088
 21
246.8815658151
 31
0.0
  0
LINE
  5
318
330
1F
100
AcDbEntity
  8
0
  6
Continuous
 62
     7
370
    30
100
AcDbLine
 10
51.6911061118
 20
246.8815658151
 30
0.0
 11
51.6911061118
 21
247.6015657096
 31
0.0
  0
LINE
  5
319
330
1F
100
AcDbEntity
  8
0
  6
Continuous
 62
     7
370
    30
100
AcDbLine
 10
51.6911061118
 20
247.6015657096
 30
0.0
 11
51.9411060946
 21
247.6015657096
 31
0.0
  0
LINE
  5
31A
330
1F
100
AcDbEntity
  8
0
  6
Continuous
 62
     7
370
    30
100
AcDbLine
 10
51.9411060946
 20
246.8815658151
 30
0.0
 11
51.6911061118
 21
246.8815658151
 31
0.0
  0
LINE
  5
31B
330
1F
100
AcDbEntity
  8
0
  6
Continuous
 62
     7
370
    30
100
AcDbLine
 10
52.4911060916
 20
247.6015657096
 30
0.0
 11
52.5505845712
 21
247.6015657096
 31
0.0
  0
LINE
  5
31C
330
1F
100
AcDbEntity
  8
0
  6
Continuous
 62
     7
370
    30
100
AcDbLine
 10
52.5898185138
 20
246.8815658151
 30
0.0
 11
52.4911060916
 21
246.8815658151
 31
0.0
  0
LINE
  5
31D
330
1F
100
AcDbEntity
  8
0
  6
Continuous
 62
     7
370
    30
100
AcDbLine
 10
51.6308226493
 20
247.6015657096
 30
0.0
 11
51.6911061118
 21
247.6015657096
 31
0.0
  0
LINE
  5
31E
330
1F
100
AcDbEntity
  8
0
  6
Continuous
 62
     7
370
    30
100
AcDbLine
 10
51.6911061118
 20
246.8815658151
 30
0.0
 11
51.5921183092
 21
246.8815658151
 31
0.0
  0
LINE
  5
31F
330
1F
100
AcDbEntity
  8
0
  6
Continuous
 62
     7
370
    30
100
AcDbLine
 10
54.0462562626
 20
241.3815658449
 30
0.0
 11
54.1121573465
 21
241.3815658449
 31
0.0
  0
LINE
  5
320
330
1F
100
AcDbEntity
  8
0
  6
Continuous
 62
     7
370
    30
100
AcDbLine
 10
53.662157296
 20
241.3815658449
 30
0.0
 11
54.0462562626
 21
241.3815658449
 31
0.0
  0
LINE
  5
321
330
1F
100
AcDbEntity
  8
0
  6
Continuous
 62
     7
370
    30
100
AcDbLine
 10
50.4541539399
 20
241.3815658449
 30
0.0
 11
50.5200549074
 21
241.3815658449
 31
0.0
  0
LINE
  5
322
330
1F
100
AcDbEntity
  8
0
  6
Continuous
 62
     7
370
    30
100
AcDbLine
 10
50.0700548569
 20
241.3815658449
 30
0.0
 11
50.4541539399
 21
241.3815658449
 31
0.0
  0
LINE
  5
323
330
1F
100
AcDbEntity
  8
0
  6
Continuous
 62
     7
370
    30
100
AcDbLine
 10
52.4911060916
 20
247.8315655982
 30
0.0
 11
52.4911060916
 21
247.6015657096
 31
0.0
  0
LINE
  5
324
330
1F
100
AcDbEntity
  8
0
  6
Continuous
 62
     7
370
    30
100
AcDbLine
 10
51.6911061118
 20
247.8315655982
 30
0.0
 11
51.6911061118
 21
247.6015657096
 31
0.0
  0
LINE
  5
325
330
1F
100
AcDbEntity
  8
0
  6
Continuous
 62
     7
370
    30
100
AcDbLine
 10
52.5513895541
 20
247.6015657096
 30
0.0
 11
52.4911060916
 21
247.6015657096
 31
0.0
  0
LINE
  5
326
330
1F
100
AcDbEntity
  8
0
  6
Continuous
 62
     7
370
    30
100
AcDbLine
 10
51.6911061118
 20
247.6015657096
 30
0.0
 11
51.6316276321
 21
247.6015657096
 31
0.0
  0
LINE
  5
327
330
1F
100
AcDbEntity
  8
0
  6
Continuous
 62
     7
370
    30
100
AcDbLine
 10
59.0433574094
 20
255.881565544
 30
0.0
 11
59.0433574094
 21
254.8815655256
 31
0.0
  0
LINE
  5
328
330
1F
100
AcDbEntity
  8
0
  6
Continuous
 62
     7
370
    30
100
AcDbLine
 10
45.138854794
 20
255.881565544
 30
0.0
 11
45.138854794
 21
254.8815655256
 31
0.0
  0
LINE
  5
329
330
1F
100
AcDbEntity
  8
0
  6
Continuous
 62
     7
370
    30
100
AcDbLine
 10
45.138854794
 20
254.8815655256
 30
0.0
 11
59.0433574094
 21
254.8815655256
 31
0.0
  0
LINE
  5
32A
330
1F
100
AcDbEntity
  8
0
  6
Continuous
 62
     7
370
    30
100
AcDbLine
 10
45.138854794
 20
255.881565544
 30
0.0
 11
59.0433574094
 21
255.881565544
 31
0.0
  0
LINE
  5
32B
330
1F
100
AcDbEntity
  8
0
  6
Continuous
 62
     7
370
    30
100
AcDbLine
 10
58.4020095689
 20
253.8815655655
 30
0.0
 11
58.4020095689
 21
254.8815655256
 31
0.0
  0
LINE
  5
32C
330
1F
100
AcDbEntity
  8
0
  6
Continuous
 62
     7
370
    30
100
AcDbLine
 10
45.7802026344
 20
253.8815655655
 30
0.0
 11
45.7802026344
 21
254.8815655256
 31
0.0
  0
LINE
  5
32D
330
1F
100
AcDbEntity
  8
0
  6
Continuous
 62
     7
370
    30
100
AcDbLine
 10
45.7802026344
 20
253.8815655655
 30
0.0
 11
58.4020095689
 21
253.8815655655
 31
0.0
  0
LINE
  5
32E
330
1F
100
AcDbEntity
  8
0
  6
Continuous
 62
     7
370
    30
100
AcDbLine
 10
52.541106094
 20
247.8315655982
 30
0.0
 11
51.6411061094
 21
247.8315655982
 31
0.0
  0
LINE
  5
32F
330
1F
100
AcDbEntity
  8
0
  6
Continuous
 62
     7
370
    30
100
AcDbLine
 10
51.6411061094
 20
247.8315655982
 30
0.0
 11
51.5411061047
 21
245.9815654813
 31
0.0
  0
LINE
  5
330
330
1F
100
AcDbEntity
  8
0
  6
Continuous
 62
     7
370
    30
100
AcDbLine
 10
46.5911061315
 20
245.9815654813
 30
0.0
 11
51.5411061047
 21
245.9815654813
 31
0.0
  0
LINE
  5
331
330
1F
100
AcDbEntity
  8
0
  6
Continuous
 62
     7
370
    30
100
AcDbLine
 10
52.6411060987
 20
245.9815654813
 30
0.0
 11
52.541106094
 21
247.8315655982
 31
0.0
  0
LINE
  5
332
330
1F
100
AcDbEntity
  8
0
  6
Continuous
 62
     7
370
    30
100
AcDbLine
 10
52.6411060987
 20
245.9815654813
 30
0.0
 11
57.5911060719
 21
245.9815654813
 31
0.0
  0
LINE
  5
333
330
1F
100
AcDbEntity
  8
0
  6
Continuous
 62
     7
370
    30
100
AcDbLine
 10
59.2325346356
 20
254.8815655256
 30
0.0
 11
59.2325346356
 21
255.881565544
 31
0.0
  0
LINE
  5
334
330
1F
100
AcDbEntity
  8
0
  6
Continuous
 62
     7
370
    30
100
AcDbLine
 10
59.0433574094
 20
254.8815655256
 30
0.0
 11
59.2325346356
 21
254.8815655256
 31
0.0
  0
LINE
  5
335
330
1F
100
AcDbEntity
  8
0
  6
Continuous
 62
     7
370
    30
100
AcDbLine
 10
59.2325346356
 20
255.881565544
 30
0.0
 11
59.0433574094
 21
255.881565544
 31
0.0
  0
LINE
  5
336
330
1F
100
AcDbEntity
  8
0
  6
Continuous
 62
     7
370
    30
100
AcDbLine
 10
44.9496775677
 20
254.8815655256
 30
0.0
 11
44.9496775677
 21
255.881565544
 31
0.0
  0
LINE
  5
337
330
1F
100
AcDbEntity
  8
0
  6
Continuous
 62
     7
370
    30
100
AcDbLine
 10
45.138854794
 20
254.8815655256
 30
0.0
 11
44.9496775677
 21
254.8815655256
 31
0.0
  0
LINE
  5
338
330
1F
100
AcDbEntity
  8
0
  6
Continuous
 62
     7
370
    30
100
AcDbLine
 10
44.9496775677
 20
255.881565544
 30
0.0
 11
45.138854794
 21
255.881565544
 31
0.0
  0
LINE
  5
339
330
1F
100
AcDbEntity
  8
0
  6
Continuous
 62
     7
370
    30
100
AcDbLine
 10
59.6922573445
 20
255.881565544
 30
0.0
 11
59.6922573445
 21
253.8815655655
 31
0.0
  0
LINE
  5
33A
330
1F
100
AcDbEntity
  8
0
  6
Continuous
 62
     7
370
    30
100
AcDbLine
 10
60.1795104144
 20
253.9241946444
 30
0.0
 11
60.1795104144
 21
255.881565544
 31
0.0
  0
LWPOLYLINE
  5
33B
330
1F
100
AcDbEntity
  8
0
  6
Continuous
 62
     7
370
    30
100
AcDbPolyline
 90
        8
 70
   128
 43
0.0
 10
59.6922573445
 20
253.8815655655
 10
59.7877044043
 20
253.8899160365
 10
59.8796413092
 20
253.8979595203
 10
59.9646859614
 20
253.9053999728
 10
60.0397114454
 20
253.9119638179
 10
60.101957321
 20
253.9174096102
 10
60.14913626
 20
253.9215372319
 10
60.1795104144
 20
253.9241946444
  0
LINE
  5
33C
330
1F
100
AcDbEntity
  8
0
  6
Continuous
 62
     7
370
    30
100
AcDbLine
 10
60.1795104144
 20
255.881565544
 30
0.0
 11
59.6922573445
 21
255.881565544
 31
0.0
  0
LINE
  5
33D
330
1F
100
AcDbEntity
  8
0
  6
Continuous
 62
     7
370
    30
100
AcDbLine
 10
59.6922573445
 20
253.8815655655
 30
0.0
 11
58.4020095689
 21
253.8815655655
 31
0.0
  0
LINE
  5
33E
330
1F
100
AcDbEntity
  8
0
  6
Continuous
 62
     7
370
    30
100
AcDbLine
 10
59.6922573445
 20
255.881565544
 30
0.0
 11
59.2325346356
 21
255.881565544
 31
0.0
  0
LINE
  5
33F
330
1F
100
AcDbEntity
  8
0
  6
Continuous
 62
     7
370
    30
100
AcDbLine
 10
44.4899548588
 20
255.881565544
 30
0.0
 11
44.4899548588
 21
253.8815655655
 31
0.0
  0
LINE
  5
340
330
1F
100
AcDbEntity
  8
0
  6
Continuous
 62
     7
370
    30
100
AcDbLine
 10
44.4899548588
 20
253.8815655655
 30
0.0
 11
45.7802026344
 21
253.8815655655
 31
0.0
  0
LINE
  5
341
330
1F
100
AcDbEntity
  8
0
  6
Continuous
 62
     7
370
    30
100
AcDbLine
 10
44.4899548588
 20
255.881565544
 30
0.0
 11
44.9496775677
 21
255.881565544
 31
0.0
  0
LINE
  5
342
330
1F
100
AcDbEntity
  8
0
  6
Continuous
 62
     7
370
    30
100
AcDbLine
 10
44.002701789
 20
253.9241946444
 30
0.0
 11
44.002701789
 21
255.881565544
 31
0.0
  0
LWPOLYLINE
  5
343
330
1F
100
AcDbEntity
  8
0
  6
Continuous
 62
     7
370
    30
100
AcDbPolyline
 90
        8
 70
   128
 43
0.0
 10
44.4899548588
 20
253.8815655655
 10
44.3945077991
 20
253.8899160365
 10
44.3025708942
 20
253.8979595203
 10
44.217526242
 20
253.9053999728
 10
44.142500758
 20
253.9119638179
 10
44.0802548824
 20
253.9174096102
 10
44.0330759434
 20
253.9215372319
 10
44.002701789
 20
253.9241946444
  0
LINE
  5
344
330
1F
100
AcDbEntity
  8
0
  6
Continuous
 62
     7
370
    30
100
AcDbLine
 10
44.002701789
 20
255.881565544
 30
0.0
 11
44.4899548588
 21
255.881565544
 31
0.0
  0
LWPOLYLINE
  5
345
330
1F
100
AcDbEntity
  8
0
  6
Continuous
 62
     7
370
    30
100
AcDbPolyline
 90
        5
 70
   128
 43
0.0
 10
60.1795104144
 20
253.9241946444
 10
60.2718612922
 20
253.932274217
 10
60.3380373491
 20
253.9380640166
 10
60.3778281061
 20
253.941545184
 10
60.391105972
 20
253.9427068925
  0
LINE
  5
346
330
1F
100
AcDbEntity
  8
0
  6
Continuous
 62
     7
370
    30
100
AcDbLine
 10
60.391105972
 20
255.881565544
 30
0.0
 11
60.1795104144
 21
255.881565544
 31
0.0
  0
LWPOLYLINE
  5
347
330
1F
100
AcDbEntity
  8
0
  6
Continuous
 62
     7
370
    30
100
AcDbPolyline
 90
        5
 70
   128
 43
0.0
 10
44.002701789
 20
253.9241946444
 10
43.9103509111
 20
253.932274217
 10
43.8441748543
 20
253.9380640166
 10
43.8043840973
 20
253.941545184
 10
43.7911062313
 20
253.9427068925
  0
LINE
  5
348
330
1F
100
AcDbEntity
  8
0
  6
Continuous
 62
     7
370
    30
100
AcDbLine
 10
43.7911062313
 20
255.881565544
 30
0.0
 11
44.002701789
 21
255.881565544
 31
0.0
  0
LINE
  5
349
330
1F
100
AcDbEntity
  8
0
  6
Continuous
 62
     7
370
    30
100
AcDbLine
 10
44.7911059296
 20
258.6815655606
 30
0.0
 11
59.3911062738
 21
258.6815655606
 31
0.0
  0
LINE
  5
34A
330
1F
100
AcDbEntity
  8
0
  6
Continuous
 62
     7
370
    30
100
AcDbLine
 10
45.3650371915
 20
252.8815654016
 30
0.0
 11
45.3650371915
 21
253.8815655655
 31
0.0
  0
LINE
  5
34B
330
1F
100
AcDbEntity
  8
0
  6
Continuous
 62
     7
370
    30
100
AcDbLine
 10
58.8171750119
 20
252.8815654016
 30
0.0
 11
58.8171750119
 21
253.8815655655
 31
0.0
  0
LINE
  5
34C
330
1F
100
AcDbEntity
  8
0
  6
Continuous
 62
     7
370
    30
100
AcDbLine
 10
60.1911063118
 20
253.8815655655
 30
0.0
 11
60.0911064817
 21
253.8815655655
 31
0.0
  0
LINE
  5
34D
330
1F
100
AcDbEntity
  8
0
  6
Continuous
 62
     7
370
    30
100
AcDbLine
 10
60.1911063118
 20
253.681565556
 30
0.0
 11
60.1911063118
 21
253.8815655655
 31
0.0
  0
LINE
  5
34E
330
1F
100
AcDbEntity
  8
0
  6
Continuous
 62
     7
370
    30
100
AcDbLine
 10
59.3911062738
 20
252.8815654016
 30
0.0
 11
60.1911063118
 21
253.681565556
 31
0.0
  0
LINE
  5
34F
330
1F
100
AcDbEntity
  8
0
  6
Continuous
 62
     7
370
    30
100
AcDbLine
 10
59.3911062738
 20
252.8815654016
 30
0.0
 11
58.8171750119
 21
252.8815654016
 31
0.0
  0
LINE
  5
350
330
1F
100
AcDbEntity
  8
0
  6
Continuous
 62
     7
370
    30
100
AcDbLine
 10
59.6911062298
 20
253.846570072
 30
0.0
 11
59.6911062298
 21
253.8815655655
 31
0.0
  0
LINE
  5
351
330
1F
100
AcDbEntity
  8
0
  6
Continuous
 62
     7
370
    30
100
AcDbLine
 10
60.0911064817
 20
253.8815655655
 30
0.0
 11
59.6911062298
 21
253.846570072
 31
0.0
  0
LINE
  5
352
330
1F
100
AcDbEntity
  8
0
  6
Continuous
 62
     7
370
    30
100
AcDbLine
 10
44.7911059296
 20
252.8815654016
 30
0.0
 11
45.3650371915
 21
252.8815654016
 31
0.0
  0
LINE
  5
353
330
1F
100
AcDbEntity
  8
0
  6
Continuous
 62
     7
370
    30
100
AcDbLine
 10
43.9911058916
 20
253.681565556
 30
0.0
 11
44.7911059296
 21
252.8815654016
 31
0.0
  0
LINE
  5
354
330
1F
100
AcDbEntity
  8
0
  6
Continuous
 62
     7
370
    30
100
AcDbLine
 10
43.9911058916
 20
253.681565556
 30
0.0
 11
43.9911058916
 21
253.8815655655
 31
0.0
  0
LINE
  5
355
330
1F
100
AcDbEntity
  8
0
  6
Continuous
 62
     7
370
    30
100
AcDbLine
 10
43.9911058916
 20
253.8815655655
 30
0.0
 11
44.0911057217
 21
253.8815655655
 31
0.0
  0
LINE
  5
356
330
1F
100
AcDbEntity
  8
0
  6
Continuous
 62
     7
370
    30
100
AcDbLine
 10
44.4911059735
 20
253.846570072
 30
0.0
 11
44.0911057217
 21
253.8815655655
 31
0.0
  0
LINE
  5
357
330
1F
100
AcDbEntity
  8
0
  6
Continuous
 62
     7
370
    30
100
AcDbLine
 10
44.4911059735
 20
253.846570072
 30
0.0
 11
44.4911059735
 21
253.8815655655
 31
0.0
  0
LINE
  5
358
330
1F
100
AcDbEntity
  8
0
  6
Continuous
 62
     7
370
    30
100
AcDbLine
 10
52.2411061088
 20
247.8315655982
 30
0.0
 11
52.2411061088
 21
247.6015657096
 31
0.0
  0
LINE
  5
359
330
1F
100
AcDbEntity
  8
0
  6
Continuous
 62
     7
370
    30
100
AcDbLine
 10
51.9411060946
 20
247.8315655982
 30
0.0
 11
51.9411060946
 21
247.6015657096
 31
0.0
  0
LINE
  5
35A
330
1F
100
AcDbEntity
  8
0
  6
CENTERX2
 62
     7
370
     0
100
AcDbLine
 10
52.0911061017
 20
266.198841275
 30
0.0
 11
52.0911061017
 21
239.1137421848
 31
0.0
  0
LINE
  5
35B
330
1F
100
AcDbEntity
  8
0
  6
Continuous
 62
     7
370
     0
100
AcDbLine
 10
59.2220246961
 20
258.6815655155
 30
0.0
 11
67.0911061017
 21
263.2247817833
 31
0.0
  0
LINE
  5
35C
330
1F
100
AcDbEntity
  8
0
  6
Continuous
 62
     7
370
     0
100
AcDbLine
 10
67.0911061017
 20
263.2247817833
 30
0.0
 11
67.0911061017
 21
271.2247817833
 31
0.0
  0
LINE
  5
35D
330
1F
100
AcDbEntity
  8
0
  6
Continuous
 62
     7
370
     0
100
AcDbLine
 10
37.0911061017
 20
263.2247817833
 30
0.0
 11
37.0911061017
 21
271.2247817833
 31
0.0
  0
LINE
  5
35E
330
1F
100
AcDbEntity
  8
0
  6
Continuous
 62
     7
370
     0
100
AcDbLine
 10
44.9601875073
 20
258.6815655155
 30
0.0
 11
37.0911061017
 21
263.2247817833
 31
0.0
  0
LINE
  5
35F
330
1F
100
AcDbEntity
  8
0
  6
Continuous
 62
     7
370
     0
100
AcDbLine
 10
37.0911061017
 20
271.2247817833
 30
0.0
 11
67.0911061017
 21
271.2247817833
 31
0.0
  0
ARC
  5
360
330
1F
100
AcDbEntity
  8
0
  6
Continuous
 62
     7
370
     0
100
AcDbCircle
 10
52.0911061017
 20
255.2815655155
 30
0.0
 40
7.900000000000007
100
AcDbArc
 50
25.4916622417
 51
154.5083377583
  0
CIRCLE
  5
361
330
1F
100
AcDbEntity
  8
0
  6
Continuous
 62
     7
370
     0
100
AcDbCircle
 10
52.0911061017
 20
263.1815655155
 30
0.0
 40
0.0001000000000033
  0
HATCH
  5
362
330
1F
100
AcDbEntity
  8
0
  6
Continuous
 62
     7
100
AcDbHatch
 10
0.0
 20
0.0
 30
0.0
210
0.0
220
0.0
230
1.0
  2
ANSI31
 70
     0
 71
     0
 91
        1
 92
        0
 93
        6
 72
     2
 10
52.09110610168447
 20
255.2815655155444
 40
7.899999999999896
 50
205.491662241712
 51
334.5083377582909
 73
     0
 72
     1
 10
59.22202469608738
 20
258.6815655155443
 11
67.09110610168463
 21
263.224781783341
 72
     1
 10
67.09110610168463
 20
263.224781783341
 11
67.09110610168482
 21
271.2247817833406
 72
     1
 10
67.09110610168482
 20
271.2247817833406
 11
37.09110610168452
 21
271.2247817833406
 72
     1
 10
37.09110610168452
 20
271.2247817833406
 11
37.09110610168462
 21
263.2247817833412
 72
     1
 10
37.09110610168462
 20
263.2247817833412
 11
44.96018750728184
 21
258.6815655155443
 97
        0
 75
     0
 76
     1
 52
0.0
 41
0.25
 77
     0
 78
     1
 53
45.0
 43
0.0
 44
0.0
 45
-0.561266007566822
 46
0.5612660075668221
 79
     0
 98
        1
 10
0.0
 20
0.0
  0
DIMENSION
  5
363
330
1F
100
AcDbEntity
  8
0
  6
Continuous
 62
     7
370
     0
100
AcDbDimension
  2
_D_18
 10
70.8464949813
 20
258.6815655155
 30
0.0
 11
70.8464949813
 21
254.3592023675
 31
0.0
 70
   160
  1
<>
 71
     2
 42
-1.0
  3
SLDDIMSTYLE3
100
AcDbAlignedDimension
 13
52.0911061017
 23
263.1815655155
 33
0.0
 14
59.3911061017
 24
258.6815655155
 34
0.0
 50
90.0
100
AcDbRotatedDimension
  0
MTEXT
  5
36E
330
1F
100
AcDbEntity
  8
0
  6
Continuous
 62
     7
370
     0
100
AcDbMText
 10
38.6530365679
 20
280.134691417
 30
0.0
 40
3.5
 41
0.0
 71
     1
 72
     1
  1
Detection range
  7
SLDTEXTSTYLE0
 73
     1
 44
1.0
  0
MTEXT
  5
36F
330
1F
100
AcDbEntity
  8
0
  6
Continuous
 62
     7
370
     0
100
AcDbMText
 10
71.1884405516
 20
249.4559912546
 30
0.0
 40
2.38125
 41
0.0
 71
     1
 72
     1
  1
(0.177)
  7
SLDTEXTSTYLE0
 11
-3.269436733918102E-15
 21
1.0
 31
0.0
 73
     1
 44
1.0
  0
INSERT
  5
375
330
1F
100
AcDbEntity
  8
0
  6
Continuous
 62
     7
370
     0
100
AcDbBlockReference
  2
SW_NOTE_5
 10
67.5506445606
 20
240.5050456024
 30
0.0
  0
LEADER
  5
376
330
1F
100
AcDbEntity
  8
0
  6
Continuous
 62
     7
370
     0
100
AcDbLeader
  3
SLDDIMSTYLE12
 76
     2
 10
68.8325937676
 20
251.0093821154
 30
0.0
 10
67.5506445606
 20
240.5050456024
 30
0.0
  0
SPLINE
  5
377
330
1F
100
AcDbEntity
  8
0
  6
Continuous
 62
     7
370
    30
100
AcDbSpline
210
0.0
220
0.0
230
1.0
 70
    24
 71
     3
 72
    10
 73
     6
 74
     0
 42
0.000000001
 43
0.00000001
 40
0.0
 40
0.0
 40
0.0
 40
0.0
 40
0.5
 40
0.5
 40
1.0
 40
1.0
 40
1.0
 40
1.0
 10
149.9376562125832
 20
99.4282693581377
 30
0.0
 10
149.8693646325341
 20
99.68313700461034
 30
0.0
 10
149.8033143955829
 20
99.92963984476422
 30
0.0
 10
149.6772022883463
 20
100.4002966364208
 30
0.0
 10
149.6175927452979
 20
100.6227624796645
 30
0.0
 10
149.5621103573042
 20
100.8298255706349
 30
0.0
  0
SPLINE
  5
378
330
1F
100
AcDbEntity
  8
0
  6
Continuous
 62
     7
370
    30
100
AcDbSpline
210
0.0
220
0.0
230
1.0
 70
     8
 71
     3
 72
     8
 73
     4
 74
     0
 42
0.000000001
 43
0.00000001
 40
0.0
 40
0.0
 40
0.0
 40
0.0
 40
1.0
 40
1.0
 40
1.0
 40
1.0
 10
149.562110438043
 20
100.8298255004653
 30
0.0
 10
149.8421409715748
 20
101.2150537353753
 30
0.0
 10
150.1382353320273
 20
101.5779132891267
 30
0.0
 10
150.4447542457943
 20
101.9077259999086
 30
0.0
  0
SPLINE
  5
379
330
1F
100
AcDbEntity
  8
0
  6
Continuous
 62
     7
370
    30
100
AcDbSpline
210
0.0
220
0.0
230
1.0
 70
     8
 71
     3
 72
     8
 73
     4
 74
     0
 42
0.000000001
 43
0.00000001
 40
0.0
 40
0.0
 40
0.0
 40
0.0
 40
1.0
 40
1.0
 40
1.0
 40
1.0
 10
150.4447542144313
 20
101.9077259087941
 30
0.0
 10
150.8835814513621
 20
102.0082597274708
 30
0.0
 10
151.3466597096271
 20
102.0833438226392
 30
0.0
 10
151.8195656394377
 20
102.1331667088303
 30
0.0
  0
SPLINE
  5
37A
330
1F
100
AcDbEntity
  8
0
  6
Continuous
 62
     7
370
    30
100
AcDbSpline
210
0.0
220
0.0
230
1.0
 70
    24
 71
     3
 72
     8
 73
     4
 74
     0
 42
0.000000001
 43
0.00000001
 40
0.0
 40
0.0
 40
0.0
 40
0.0
 40
1.0
 40
1.0
 40
1.0
 40
1.0
 10
152.8455756408667
 20
101.1071574408429
 30
0.0
 10
152.4704755642216
 20
101.482257517488
 30
0.0
 10
152.1240672145039
 20
101.8286658672058
 30
0.0
 10
151.8195652944861
 20
102.1331677872235
 30
0.0
  0
ARC
  5
37B
330
1F
100
AcDbEntity
  8
0
  6
Continuous
 62
     7
370
    30
100
AcDbCircle
 10
150.3141082949
 20
102.1340111047
 30
0.0
 40
2.731804354855475
100
AcDbArc
 50
262.0792390855
 51
337.9207668806
  0
SPLINE
  5
37C
330
1F
100
AcDbEntity
  8
0
  6
Continuous
 62
     7
370
    30
100
AcDbSpline
210
0.0
220
0.0
230
1.0
 70
    24
 71
     3
 72
     8
 73
     4
 74
     0
 42
0.000000001
 43
0.00000001
 40
0.0
 40
0.0
 40
0.0
 40
0.0
 40
1.0
 40
1.0
 40
1.0
 40
1.0
 10
141.9930725746057
 20
104.0150768733046
 30
0.0
 10
142.5054688082638
 20
104.152373030318
 30
0.0
 10
142.9786714140608
 20
104.2791672863977
 30
0.0
 10
143.3946287723058
 20
104.3906227246252
 30
0.0
  0
SPLINE
  5
37D
330
1F
100
AcDbEntity
  8
0
  6
Continuous
 62
     7
370
    30
100
AcDbSpline
210
0.0
220
0.0
230
1.0
 70
     8
 71
     3
 72
     8
 73
     4
 74
     0
 42
0.000000001
 43
0.00000001
 40
0.0
 40
0.0
 40
0.0
 40
0.0
 40
1.0
 40
1.0
 40
1.0
 40
1.0
 10
143.3946287013399
 20
104.3906226436666
 30
0.0
 10
143.7798569362498
 20
104.1105921101349
 30
0.0
 10
144.1427164900015
 20
103.8144977496822
 30
0.0
 10
144.4725292007833
 20
103.5079788359153
 30
0.0
  0
SPLINE
  5
37E
330
1F
100
AcDbEntity
  8
0
  6
Continuous
 62
     7
370
    30
100
AcDbSpline
210
0.0
220
0.0
230
1.0
 70
     8
 71
     3
 72
     8
 73
     4
 74
     0
 42
0.000000001
 43
0.00000001
 40
0.0
 40
0.0
 40
0.0
 40
0.0
 40
1.0
 40
1.0
 40
1.0
 40
1.0
 10
144.4725291096688
 20
103.5079788672784
 30
0.0
 10
144.5730629283454
 20
103.0691516303478
 30
0.0
 10
144.6481470235138
 20
102.6060733720832
 30
0.0
 10
144.6979699097049
 20
102.1331674422719
 30
0.0
  0
SPLINE
  5
37F
330
1F
100
AcDbEntity
  8
0
  6
Continuous
 62
     7
370
    30
100
AcDbSpline
210
0.0
220
0.0
230
1.0
 70
    24
 71
     3
 72
     8
 73
     4
 74
     0
 42
0.000000001
 43
0.00000001
 40
0.0
 40
0.0
 40
0.0
 40
0.0
 40
1.0
 40
1.0
 40
1.0
 40
1.0
 10
143.6719606417178
 20
101.1071574408432
 30
0.0
 10
144.0470607183628
 20
101.4822575174882
 30
0.0
 10
144.3934690680805
 20
101.8286658672058
 30
0.0
 10
144.6979709880981
 20
102.1331677872235
 30
0.0
  0
ARC
  5
380
330
1F
100
AcDbEntity
  8
0
  6
Continuous
 62
     7
370
    30
100
AcDbCircle
 10
144.6988143056
 20
103.6386247868
 30
0.0
 40
2.731804354855475
100
AcDbArc
 50
172.0792390855
 51
247.9207668806
  0
SPLINE
  5
381
330
1F
100
AcDbEntity
  8
0
  6
Continuous
 62
     7
370
    30
100
AcDbSpline
210
0.0
220
0.0
230
1.0
 70
    24
 71
     3
 72
     8
 73
     4
 74
     0
 42
0.000000001
 43
0.00000001
 40
0.0
 40
0.0
 40
0.0
 40
0.0
 40
1.0
 40
1.0
 40
1.0
 40
1.0
 10
154.5244637079778
 20
107.3728530075302
 30
0.0
 10
154.0120674743199
 20
107.2355568505168
 30
0.0
 10
153.5388648685232
 20
107.1087625944373
 30
0.0
 10
153.1229075102784
 20
106.9973071562098
 30
0.0
  0
SPLINE
  5
382
330
1F
100
AcDbEntity
  8
0
  6
Continuous
 62
     7
370
    30
100
AcDbSpline
210
0.0
220
0.0
230
1.0
 70
     8
 71
     3
 72
     8
 73
     4
 74
     0
 42
0.000000001
 43
0.00000001
 40
0.0
 40
0.0
 40
0.0
 40
0.0
 40
1.0
 40
1.0
 40
1.0
 40
1.0
 10
153.1229075812443
 20
106.9973072371683
 30
0.0
 10
152.7376793463343
 20
107.2773377707002
 30
0.0
 10
152.3748197925826
 20
107.5734321311529
 30
0.0
 10
152.045007081801
 20
107.8799510449196
 30
0.0
  0
SPLINE
  5
383
330
1F
100
AcDbEntity
  8
0
  6
Continuous
 62
     7
370
    30
100
AcDbSpline
210
0.0
220
0.0
230
1.0
 70
     8
 71
     3
 72
     8
 73
     4
 74
     0
 42
0.000000001
 43
0.00000001
 40
0.0
 40
0.0
 40
0.0
 40
0.0
 40
1.0
 40
1.0
 40
1.0
 40
1.0
 10
152.0450071729155
 20
107.8799510135566
 30
0.0
 10
151.9444733542389
 20
108.3187782504868
 30
0.0
 10
151.8693892590705
 20
108.781856508752
 30
0.0
 10
151.8195663728794
 20
109.2547624385631
 30
0.0
  0
SPLINE
  5
384
330
1F
100
AcDbEntity
  8
0
  6
Continuous
 62
     7
370
    30
100
AcDbSpline
210
0.0
220
0.0
230
1.0
 70
    24
 71
     3
 72
     8
 73
     4
 74
     0
 42
0.000000001
 43
0.00000001
 40
0.0
 40
0.0
 40
0.0
 40
0.0
 40
1.0
 40
1.0
 40
1.0
 40
1.0
 10
152.8455756408643
 20
110.2807724399897
 30
0.0
 10
152.4704755642201
 20
109.9056723633455
 30
0.0
 10
152.1240672145032
 20
109.5592640136286
 30
0.0
 10
151.8195652944861
 20
109.2547620936115
 30
0.0
  0
ARC
  5
385
330
1F
100
AcDbEntity
  8
0
  6
Continuous
 62
     7
370
    30
100
AcDbCircle
 10
151.818721977
 20
107.749305094
 30
0.0
 40
2.731804354855472
100
AcDbArc
 50
352.0792390855
 51
67.9207668806
  0
SPLINE
  5
386
330
1F
100
AcDbEntity
  8
0
  6
Continuous
 62
     7
370
    30
100
AcDbSpline
210
0.0
220
0.0
230
1.0
 70
    24
 71
     3
 72
     8
 73
     4
 74
     0
 42
0.000000001
 43
0.00000001
 40
0.0
 40
0.0
 40
0.0
 40
0.0
 40
1.0
 40
1.0
 40
1.0
 40
1.0
 10
146.5798800741799
 20
111.9596605071012
 30
0.0
 10
146.7171762311931
 20
111.4472642734441
 30
0.0
 10
146.8439704872725
 20
110.974061667648
 30
0.0
 10
146.9554259254998
 20
110.5581043094038
 30
0.0
  0
SPLINE
  5
387
330
1F
100
AcDbEntity
  8
0
  6
Continuous
 62
     7
370
    30
100
AcDbSpline
210
0.0
220
0.0
230
1.0
 70
     8
 71
     3
 72
     8
 73
     4
 74
     0
 42
0.000000001
 43
0.00000001
 40
0.0
 40
0.0
 40
0.0
 40
0.0
 40
1.0
 40
1.0
 40
1.0
 40
1.0
 10
146.9554258445413
 20
110.5581043803697
 30
0.0
 10
146.6753953110095
 20
110.1728761454598
 30
0.0
 10
146.3793009505568
 20
109.8100165917082
 30
0.0
 10
146.0727820367899
 20
109.4802038809263
 30
0.0
  0
SPLINE
  5
388
330
1F
100
AcDbEntity
  8
0
  6
Continuous
 62
     7
370
    30
100
AcDbSpline
210
0.0
220
0.0
230
1.0
 70
     8
 71
     3
 72
     8
 73
     4
 74
     0
 42
0.000000001
 43
0.00000001
 40
0.0
 40
0.0
 40
0.0
 40
0.0
 40
1.0
 40
1.0
 40
1.0
 40
1.0
 10
146.0727820681529
 20
109.4802039720409
 30
0.0
 10
145.6339548312228
 20
109.3796701533643
 30
0.0
 10
145.1708765729575
 20
109.3045860581958
 30
0.0
 10
144.6979706431464
 20
109.2547631720047
 30
0.0
  0
SPLINE
  5
389
330
1F
100
AcDbEntity
  8
0
  6
Continuous
 62
     7
370
    30
100
AcDbSpline
210
0.0
220
0.0
230
1.0
 70
    24
 71
     3
 72
     8
 73
     4
 74
     0
 42
0.000000001
 43
0.00000001
 40
0.0
 40
0.0
 40
0.0
 40
0.0
 40
1.0
 40
1.0
 40
1.0
 40
1.0
 10
143.6719606417202
 20
110.2807724399894
 30
0.0
 10
144.0470607183643
 20
109.9056723633453
 30
0.0
 10
144.3934690680811
 20
109.5592640136285
 30
0.0
 10
144.6979709880981
 20
109.2547620936115
 30
0.0
  0
ARC
  5
38A
330
1F
100
AcDbEntity
  8
0
  6
Continuous
 62
     7
370
    30
100
AcDbCircle
 10
146.2034279877
 20
109.2539187761
 30
0.0
 40
2.731804354855465
100
AcDbArc
 50
82.0792390855
 51
157.9207668806
  0
SPLINE
  5
38B
330
1F
100
AcDbEntity
  8
0
  6
Continuous
 62
     7
370
    30
100
AcDbSpline
210
0.0
220
0.0
230
1.0
 70
    24
 71
     3
 72
     8
 73
     4
 74
     0
 42
0.000000001
 43
0.00000001
 40
0.0
 40
0.0
 40
0.0
 40
0.0
 40
1.0
 40
1.0
 40
1.0
 40
1.0
 10
154.524463707979
 20
104.0150768733045
 30
0.0
 10
154.0120674743207
 20
104.152373030318
 30
0.0
 10
153.5388648685235
 20
104.2791672863976
 30
0.0
 10
153.1229075102784
 20
104.3906227246252
 30
0.0
  0
SPLINE
  5
38C
330
1F
100
AcDbEntity
  8
0
  6
Continuous
 62
     7
370
    30
100
AcDbSpline
210
0.0
220
0.0
230
1.0
 70
     8
 71
     3
 72
     8
 73
     4
 74
     0
 42
0.000000001
 43
0.00000001
 40
0.0
 40
0.0
 40
0.0
 40
0.0
 40
1.0
 40
1.0
 40
1.0
 40
1.0
 10
153.122907612216
 20
104.3906227592544
 30
0.0
 10
152.929305441295
 20
104.8257504325828
 30
0.0
 10
152.7631070299665
 20
105.2636054475279
 30
0.0
 10
152.6307403008217
 20
105.6939649689817
 30
0.0
  0
SPLINE
  5
38D
330
1F
100
AcDbEntity
  8
0
  6
Continuous
 62
     7
370
    30
100
AcDbSpline
210
0.0
220
0.0
230
1.0
 70
     8
 71
     3
 72
     8
 73
     4
 74
     0
 42
0.000000001
 43
0.00000001
 40
0.0
 40
0.0
 40
0.0
 40
0.0
 40
1.0
 40
1.0
 40
1.0
 40
1.0
 10
152.6307403640477
 20
105.6939648962633
 30
0.0
 10
152.7630891415996
 20
106.1242673406559
 30
0.0
 10
152.9296035368962
 20
106.5628469238383
 30
0.0
 10
153.1229086166702
 20
106.9973069157501
 30
0.0
  0
ARC
  5
38E
330
1F
100
AcDbEntity
  8
0
  6
Continuous
 62
     7
370
    30
100
AcDbCircle
 10
152.3694475522
 20
105.6939649404
 30
0.0
 40
2.731805328545873
100
AcDbArc
 50
322.0792510822
 51
37.9207489178
  0
SPLINE
  5
38F
330
1F
100
AcDbEntity
  8
0
  6
Continuous
 62
     7
370
    30
100
AcDbSpline
210
0.0
220
0.0
230
1.0
 70
    24
 71
     3
 72
     8
 73
     4
 74
     0
 42
0.000000001
 43
0.00000001
 40
0.0
 40
0.0
 40
0.0
 40
0.0
 40
1.0
 40
1.0
 40
1.0
 40
1.0
 10
141.993072574607
 20
107.3728530075301
 30
0.0
 10
142.5054688082646
 20
107.2355568505167
 30
0.0
 10
142.9786714140612
 20
107.1087625944373
 30
0.0
 10
143.3946287723058
 20
106.9973071562098
 30
0.0
  0
SPLINE
  5
390
330
1F
100
AcDbEntity
  8
0
  6
Continuous
 62
     7
370
    30
100
AcDbSpline
210
0.0
220
0.0
230
1.0
 70
     8
 71
     3
 72
     8
 73
     4
 74
     0
 42
0.000000001
 43
0.00000001
 40
0.0
 40
0.0
 40
0.0
 40
0.0
 40
1.0
 40
1.0
 40
1.0
 40
1.0
 10
143.3946286703683
 20
106.9973071215806
 30
0.0
 10
143.5882308412893
 20
106.5621794482519
 30
0.0
 10
143.7544292526178
 20
106.1243244333069
 30
0.0
 10
143.8867959817625
 20
105.6939649118532
 30
0.0
  0
SPLINE
  5
391
330
1F
100
AcDbEntity
  8
0
  6
Continuous
 62
     7
370
    30
100
AcDbSpline
210
0.0
220
0.0
230
1.0
 70
     8
 71
     3
 72
     8
 73
     4
 74
     0
 42
0.000000001
 43
0.00000001
 40
0.0
 40
0.0
 40
0.0
 40
0.0
 40
1.0
 40
1.0
 40
1.0
 40
1.0
 10
143.8867959185365
 20
105.6939649845717
 30
0.0
 10
143.7544471409849
 20
105.2636625401797
 30
0.0
 10
143.5879327456882
 20
104.8250829569971
 30
0.0
 10
143.394627665914
 20
104.3906229650849
 30
0.0
  0
ARC
  5
392
330
1F
100
AcDbEntity
  8
0
  6
Continuous
 62
     7
370
    30
100
AcDbCircle
 10
144.1480887304
 20
105.6939649404
 30
0.0
 40
2.731805328545881
100
AcDbArc
 50
142.0792510822
 51
217.9207489178
  0
SPLINE
  5
393
330
1F
100
AcDbEntity
  8
0
  6
Continuous
 62
     7
370
    30
100
AcDbSpline
210
0.0
220
0.0
230
1.0
 70
    24
 71
     3
 72
     8
 73
     4
 74
     0
 42
0.000000001
 43
0.00000001
 40
0.0
 40
0.0
 40
0.0
 40
0.0
 40
1.0
 40
1.0
 40
1.0
 40
1.0
 10
149.8375643164171
 20
111.5861124807795
 30
0.0
 10
149.7383093005037
 20
111.2156877184844
 30
0.0
 10
149.6459574448907
 20
110.8710259011634
 30
0.0
 10
149.5621103570844
 20
110.5581043094038
 30
0.0
  0
SPLINE
  5
394
330
1F
100
AcDbEntity
  8
0
  6
Continuous
 62
     7
370
    30
100
AcDbSpline
210
0.0
220
0.0
230
1.0
 70
     8
 71
     3
 72
     8
 73
     4
 74
     0
 42
0.000000001
 43
0.00000001
 40
0.0
 40
0.0
 40
0.0
 40
0.0
 40
1.0
 40
1.0
 40
1.0
 40
1.0
 10
149.5621103224552
 20
110.5581044113413
 30
0.0
 10
149.1269826491269
 20
110.3645022404204
 30
0.0
 10
148.6891276341823
 20
110.198303829092
 30
0.0
 10
148.2587681127279
 20
110.0659370999471
 30
0.0
  0
SPLINE
  5
395
330
1F
100
AcDbEntity
  8
0
  6
Continuous
 62
     7
370
    30
100
AcDbSpline
210
0.0
220
0.0
230
1.0
 70
     8
 71
     3
 72
     8
 73
     4
 74
     0
 42
0.000000001
 43
0.00000001
 40
0.0
 40
0.0
 40
0.0
 40
0.0
 40
1.0
 40
1.0
 40
1.0
 40
1.0
 10
148.2587681854463
 20
110.0659371631731
 30
0.0
 10
147.8284657410532
 20
110.1982859407251
 30
0.0
 10
147.3898861578714
 20
110.3648003360215
 30
0.0
 10
146.9554261659595
 20
110.5581054157956
 30
0.0
  0
ARC
  5
396
330
1F
100
AcDbEntity
  8
0
  6
Continuous
 62
     7
370
    30
100
AcDbCircle
 10
148.2722164732
 20
109.7418042787
 30
0.0
 40
2.789783025805511
100
AcDbArc
 50
60.7933615395
 51
127.3454611363
  0
SPLINE
  5
397
330
1F
100
AcDbEntity
  8
0
  6
Continuous
 62
     7
370
    30
100
AcDbSpline
210
0.0
220
0.0
230
1.0
 70
    24
 71
     3
 72
     8
 73
     4
 74
     0
 42
0.000000001
 43
0.00000001
 40
0.0
 40
0.0
 40
0.0
 40
0.0
 40
1.0
 40
1.0
 40
1.0
 40
1.0
 10
146.6799719661664
 20
99.80181740005297
 30
0.0
 10
146.7792269820801
 20
100.172242162349
 30
0.0
 10
146.8715788376934
 20
100.5169039796709
 30
0.0
 10
146.9554259254998
 20
100.8298255714312
 30
0.0
  0
SPLINE
  5
398
330
1F
100
AcDbEntity
  8
0
  6
Continuous
 62
     7
370
    30
100
AcDbSpline
210
0.0
220
0.0
230
1.0
 70
     8
 71
     3
 72
     8
 73
     4
 74
     0
 42
0.000000001
 43
0.00000001
 40
0.0
 40
0.0
 40
0.0
 40
0.0
 40
1.0
 40
1.0
 40
1.0
 40
1.0
 10
146.955425960129
 20
100.8298254694937
 30
0.0
 10
147.3905536334573
 20
101.0234276404146
 30
0.0
 10
147.8284086484026
 20
101.1896260517432
 30
0.0
 10
148.2587681698564
 20
101.3219927808879
 30
0.0
  0
SPLINE
  5
399
330
1F
100
AcDbEntity
  8
0
  6
Continuous
 62
     7
370
    30
100
AcDbSpline
210
0.0
220
0.0
230
1.0
 70
     8
 71
     3
 72
     8
 73
     4
 74
     0
 42
0.000000001
 43
0.00000001
 40
0.0
 40
0.0
 40
0.0
 40
0.0
 40
1.0
 40
1.0
 40
1.0
 40
1.0
 10
148.2587680971379
 20
101.3219927176619
 30
0.0
 10
148.6890705415303
 20
101.1896439401101
 30
0.0
 10
149.1276501247124
 20
101.0231295448137
 30
0.0
 10
149.5621101166247
 20
100.8298244650394
 30
0.0
  0
ARC
  5
39A
330
1F
100
AcDbEntity
  8
0
  6
Continuous
 62
     7
370
    30
100
AcDbCircle
 10
148.2453198094
 20
101.6461256021
 30
0.0
 40
2.789783025805501
100
AcDbArc
 50
240.7933615395
 51
307.3454611363
  0
LINE
  5
39B
330
1F
100
AcDbEntity
  8
0
  6
Continuous
 62
     7
370
    30
100
AcDbLine
 10
146.2901340593
 20
99.6992189446
 30
0.0
 11
146.1630574223
 21
99.2249620156
 31
0.0
  0
ARC
  5
39C
330
1F
100
AcDbEntity
  8
0
  6
Continuous
 62
     7
370
    30
100
AcDbCircle
 10
146.4833192832
 20
99.6474550916
 30
0.0
 40
0.2000000000000149
100
AcDbArc
 50
75.0
 51
165.0
  0
LINE
  5
39D
330
1F
100
AcDbEntity
  8
0
  6
Continuous
 62
     7
370
    30
100
AcDbLine
 10
146.8248608317
 20
99.7629945175
 30
0.0
 11
146.5350830723
 21
99.8406402775
 31
0.0
  0
ARC
  5
39E
330
1F
100
AcDbEntity
  8
0
  6
Continuous
 62
     7
370
    30
100
AcDbCircle
 10
146.7730970311
 20
99.569809378
 30
0.0
 40
0.2000000000000149
100
AcDbArc
 50
345.0
 51
75.0
  0
LINE
  5
39F
330
1F
100
AcDbEntity
  8
0
  6
Continuous
 62
     7
370
    30
100
AcDbLine
 10
146.8392055277
 20
99.0437890411
 30
0.0
 11
146.9662821647
 21
99.5180455045
 31
0.0
  0
ARC
  5
3A0
330
1F
100
AcDbEntity
  8
0
  6
Continuous
 62
     7
370
    30
100
AcDbCircle
 10
148.2587681413
 20
105.6939649404
 30
0.0
 40
6.800000000000003
100
AcDbArc
 50
252.049648857
 51
257.950351143
  0
LINE
  5
3A1
330
1F
100
AcDbEntity
  8
0
  6
Continuous
 62
     7
370
    30
100
AcDbLine
 10
149.6926754508
 20
111.6249353633
 30
0.0
 11
149.9824532103
 21
111.5472896033
 31
0.0
  0
ARC
  5
3A2
330
1F
100
AcDbEntity
  8
0
  6
Continuous
 62
     7
370
    30
100
AcDbCircle
 10
149.7444392515
 20
111.8181205028
 30
0.0
 40
0.1999999999999955
100
AcDbArc
 50
165.0
 51
255.0
  0
LINE
  5
3A3
330
1F
100
AcDbEntity
  8
0
  6
Continuous
 62
     7
370
    30
100
AcDbLine
 10
150.2274022233
 20
111.6887109363
 30
0.0
 11
150.3544788603
 21
112.1629678653
 31
0.0
  0
ARC
  5
3A4
330
1F
100
AcDbEntity
  8
0
  6
Continuous
 62
     7
370
    30
100
AcDbCircle
 10
150.0342169994
 20
111.7404747893
 30
0.0
 40
0.2000000000000048
100
AcDbArc
 50
255.0
 51
345.0
  0
ARC
  5
3A5
330
1F
100
AcDbEntity
  8
0
  6
Continuous
 62
     7
370
    30
100
AcDbCircle
 10
148.2587681413
 20
105.6939649404
 30
0.0
 40
6.800000000001489
100
AcDbArc
 50
72.049648857
 51
77.950351143
  0
LINE
  5
3A6
330
1F
100
AcDbEntity
  8
0
  6
Continuous
 62
     7
370
    30
100
AcDbLine
 10
149.6783307549
 20
112.3441408397
 30
0.0
 11
149.5512541179
 21
111.8698843763
 31
0.0
  0
CIRCLE
  5
3A7
330
1F
100
AcDbEntity
  8
0
  6
Continuous
 62
     7
370
    30
100
AcDbCircle
 10
148.2587681413
 20
105.6939649404
 30
0.0
 40
6.908690179766396
  0
CIRCLE
  5
3A8
330
1F
100
AcDbEntity
  8
0
  6
Continuous
 62
     7
370
    30
100
AcDbCircle
 10
148.2587681413
 20
105.6939649404
 30
0.0
 40
7.130918594402843
  0
ARC
  5
3A9
330
1F
100
AcDbEntity
  8
0
  6
Continuous
 62
     7
370
    30
100
AcDbCircle
 10
144.6988143056
 20
107.749305094
 30
0.0
 40
2.731804354855483
100
AcDbArc
 50
112.0792331194
 51
187.9207609145
  0
ARC
  5
3AA
330
1F
100
AcDbEntity
  8
0
  6
Continuous
 62
     7
370
    30
100
AcDbCircle
 10
146.2391350935
 20
102.1708257571
 30
0.0
 40
2.778808127307291
100
AcDbArc
 50
202.5059017361
 51
269.3552715889
  0
ARC
  5
3AB
330
1F
100
AcDbEntity
  8
0
  6
Continuous
 62
     7
370
    30
100
AcDbCircle
 10
151.818721977
 20
103.6386247868
 30
0.0
 40
2.731804354855475
100
AcDbArc
 50
292.0792331194
 51
7.9207609145
  0
ARC
  5
3AC
330
1F
100
AcDbEntity
  8
0
  6
Continuous
 62
     7
370
    30
100
AcDbCircle
 10
150.2784011891
 20
109.2171041238
 30
0.0
 40
2.778808127307285
100
AcDbArc
 50
22.5059017361
 51
89.3552715889
  0
SPLINE
  5
3AD
330
1F
100
AcDbEntity
  8
0
  6
Continuous
 62
     7
370
    30
100
AcDbSpline
210
0.0
220
0.0
230
1.0
 70
     8
 71
     3
 72
     8
 73
     4
 74
     0
 42
0.000000001
 43
0.00000001
 40
0.0
 40
0.0
 40
0.0
 40
0.0
 40
1.0
 40
1.0
 40
1.0
 40
1.0
 10
144.6979709671191
 20
102.1331676816284
 30
0.0
 10
145.1716036715717
 20
102.0832682432096
 30
0.0
 10
145.6338964433526
 20
102.0082727820162
 30
0.0
 10
146.0727820862647
 20
101.9077259713444
 30
0.0
  0
SPLINE
  5
3AE
330
1F
100
AcDbEntity
  8
0
  6
Continuous
 62
     7
370
    30
100
AcDbSpline
210
0.0
220
0.0
230
1.0
 70
     8
 71
     3
 72
     8
 73
     4
 74
     0
 42
0.000000001
 43
0.00000001
 40
0.0
 40
0.0
 40
0.0
 40
0.0
 40
1.0
 40
1.0
 40
1.0
 40
1.0
 10
146.0727819916756
 20
101.9077259529483
 30
0.0
 10
146.3792604510543
 20
101.5779573272324
 30
0.0
 10
146.6758243140231
 20
101.2144618392184
 30
0.0
 10
146.9554251640597
 20
100.8298247334977
 30
0.0
  0
SPLINE
  5
3AF
330
1F
100
AcDbEntity
  8
0
  6
Continuous
 62
     7
370
    30
100
AcDbSpline
210
0.0
220
0.0
230
1.0
 70
     8
 71
     3
 72
     8
 73
     4
 74
     0
 42
0.000000001
 43
0.00000001
 40
0.0
 40
0.0
 40
0.0
 40
0.0
 40
1.0
 40
1.0
 40
1.0
 40
1.0
 10
151.8195654000812
 20
102.1331677662445
 30
0.0
 10
151.8694648385
 20
102.606800470697
 30
0.0
 10
151.9444602996935
 20
103.0690932424781
 30
0.0
 10
152.0450071103652
 20
103.50797888539
 30
0.0
  0
SPLINE
  5
3B0
330
1F
100
AcDbEntity
  8
0
  6
Continuous
 62
     7
370
    30
100
AcDbSpline
210
0.0
220
0.0
230
1.0
 70
     8
 71
     3
 72
     8
 73
     4
 74
     0
 42
0.000000001
 43
0.00000001
 40
0.0
 40
0.0
 40
0.0
 40
0.0
 40
1.0
 40
1.0
 40
1.0
 40
1.0
 10
152.0450071287613
 20
103.507978790801
 30
0.0
 10
152.3747757544774
 20
103.8144572501798
 30
0.0
 10
152.738271242491
 20
104.1110211131483
 30
0.0
 10
153.1229083482119
 20
104.3906219631851
 30
0.0
  0
SPLINE
  5
3B1
330
1F
100
AcDbEntity
  8
0
  6
Continuous
 62
     7
370
    30
100
AcDbSpline
210
0.0
220
0.0
230
1.0
 70
     8
 71
     3
 72
     8
 73
     4
 74
     0
 42
0.000000001
 43
0.00000001
 40
0.0
 40
0.0
 40
0.0
 40
0.0
 40
1.0
 40
1.0
 40
1.0
 40
1.0
 10
144.697970882503
 20
109.2547621145905
 30
0.0
 10
144.6480714440842
 20
108.7811294101381
 30
0.0
 10
144.5730759828907
 20
108.3188366383566
 30
0.0
 10
144.472529172219
 20
107.8799509954449
 30
0.0
  0
SPLINE
  5
3B2
330
1F
100
AcDbEntity
  8
0
  6
Continuous
 62
     7
370
    30
100
AcDbSpline
210
0.0
220
0.0
230
1.0
 70
     8
 71
     3
 72
     8
 73
     4
 74
     0
 42
0.000000001
 43
0.00000001
 40
0.0
 40
0.0
 40
0.0
 40
0.0
 40
1.0
 40
1.0
 40
1.0
 40
1.0
 10
144.4725291538229
 20
107.8799510900339
 30
0.0
 10
144.1427605281065
 20
107.5734726306549
 30
0.0
 10
143.7792650400925
 20
107.2769087676861
 30
0.0
 10
143.3946279343723
 20
106.9973079176499
 30
0.0
  0
SPLINE
  5
3B3
330
1F
100
AcDbEntity
  8
0
  6
Continuous
 62
     7
370
    30
100
AcDbSpline
210
0.0
220
0.0
230
1.0
 70
     8
 71
     3
 72
     8
 73
     4
 74
     0
 42
0.000000001
 43
0.00000001
 40
0.0
 40
0.0
 40
0.0
 40
0.0
 40
1.0
 40
1.0
 40
1.0
 40
1.0
 10
151.8195653154651
 20
109.2547621992066
 30
0.0
 10
151.3459326110125
 20
109.3046616376254
 30
0.0
 10
150.883639839231
 20
109.379657098819
 30
0.0
 10
150.4447541963196
 20
109.4802039094906
 30
0.0
  0
SPLINE
  5
3B4
330
1F
100
AcDbEntity
  8
0
  6
Continuous
 62
     7
370
    30
100
AcDbSpline
210
0.0
220
0.0
230
1.0
 70
     8
 71
     3
 72
     8
 73
     4
 74
     0
 42
0.000000001
 43
0.00000001
 40
0.0
 40
0.0
 40
0.0
 40
0.0
 40
1.0
 40
1.0
 40
1.0
 40
1.0
 10
150.4447542909085
 20
109.4802039278866
 30
0.0
 10
150.1382758315298
 20
109.8099725536028
 30
0.0
 10
149.8417119685613
 20
110.1734680416163
 30
0.0
 10
149.5621111185245
 20
110.5581051473373
 30
0.0
  0
SPLINE
  5
3B5
330
1F
100
AcDbEntity
  8
0
  6
Continuous
 62
     7
370
    30
100
AcDbSpline
210
0.0
220
0.0
230
1.0
 70
     8
 71
     3
 72
     8
 73
     4
 74
     0
 42
0.000000001
 43
0.00000001
 40
0.0
 40
0.0
 40
0.0
 40
0.0
 40
1.0
 40
1.0
 40
1.0
 40
1.0
 10
148.3417227931162
 20
103.4807288083866
 30
0.0
 10
148.7341716433258
 20
103.4879200698811
 30
0.0
 10
149.1358080478914
 20
103.4845795305365
 30
0.0
 10
149.5431185776759
 20
103.4694047324957
 30
0.0
  0
SPLINE
  5
3B6
330
1F
100
AcDbEntity
  8
0
  6
Continuous
 62
     7
370
    30
100
AcDbSpline
210
0.0
220
0.0
230
1.0
 70
    24
 71
     3
 72
    10
 73
     6
 74
     0
 42
0.000000001
 43
0.00000001
 40
0.0
 40
0.0
 40
0.0
 40
0.0
 40
0.5
 40
0.5
 40
1.0
 40
1.0
 40
1.0
 40
1.0
 10
150.4447541924277
 20
101.9077260352138
 30
0.0
 10
150.2817958106336
 20
102.1899782320003
 30
0.0
 10
150.1243433770291
 20
102.4626938467788
 30
0.0
 10
149.8216288158474
 20
102.9870108469364
 30
0.0
 10
149.6781120202013
 20
103.235589228735
 30
0.0
 10
149.5431185774579
 20
103.469404730255
 30
0.0
  0
SPLINE
  5
3B7
330
1F
100
AcDbEntity
  8
0
  6
Continuous
 62
     7
370
    30
100
AcDbSpline
210
0.0
220
0.0
230
1.0
 70
    24
 71
     3
 72
    12
 73
     8
 74
     0
 42
0.000000001
 43
0.00000001
 40
0.0
 40
0.0
 40
0.0
 40
0.0
 40
0.5
 40
0.5
 40
0.75
 40
0.75
 40
1.0
 40
1.0
 40
1.0
 40
1.0
 10
148.2587681412921
 20
103.4376064303545
 30
0.0
 10
148.2587681412921
 20
103.1246025093856
 30
0.0
 10
148.2587681412921
 20
102.7967772045663
 30
0.0
 10
148.2587681412921
 20
102.2705305649598
 30
0.0
 10
148.2587681412921
 20
102.0893718322897
 30
0.0
 10
148.2587681412921
 20
101.7146337389142
 30
0.0
 10
148.2587681412921
 20
101.5200688275024
 30
0.0
 10
148.2587681412921
 20
101.3219928381463
 30
0.0
  0
ARC
  5
3B8
330
1F
100
AcDbEntity
  8
0
  6
Continuous
 62
     7
370
    30
100
AcDbCircle
 10
149.4297498892
 20
101.2864044192
 30
0.0
 40
2.449258735948264
100
AcDbArc
 50
116.3739107038
 51
118.5611475655
  0
SPLINE
  5
3B9
330
1F
100
AcDbEntity
  8
0
  6
Continuous
 62
     7
370
    30
100
AcDbSpline
210
0.0
220
0.0
230
1.0
 70
     8
 71
     3
 72
     8
 73
     4
 74
     0
 42
0.000000001
 43
0.00000001
 40
0.0
 40
0.0
 40
0.0
 40
0.0
 40
1.0
 40
1.0
 40
1.0
 40
1.0
 10
150.472004273323
 20
105.7769195922428
 30
0.0
 10
150.4648130118285
 20
106.1693684424519
 30
0.0
 10
150.4681535511731
 20
106.5710048470168
 30
0.0
 10
150.4833283492139
 20
106.9783153768013
 30
0.0
  0
SPLINE
  5
3BA
330
1F
100
AcDbEntity
  8
0
  6
Continuous
 62
     7
370
    30
100
AcDbSpline
210
0.0
220
0.0
230
1.0
 70
    24
 71
     3
 72
    10
 73
     6
 74
     0
 42
0.000000001
 43
0.00000001
 40
0.0
 40
0.0
 40
0.0
 40
0.0
 40
0.5
 40
0.5
 40
1.0
 40
1.0
 40
1.0
 40
1.0
 10
152.0450070464958
 20
107.8799509915531
 30
0.0
 10
151.7627548497093
 20
107.716992609759
 30
0.0
 10
151.4900392349308
 20
107.5595401761544
 30
0.0
 10
150.9657222347733
 20
107.2568256149728
 30
0.0
 10
150.7171438529747
 20
107.1133088193266
 30
0.0
 10
150.4833283514546
 20
106.9783153765833
 30
0.0
  0
SPLINE
  5
3BB
330
1F
100
AcDbEntity
  8
0
  6
Continuous
 62
     7
370
    30
100
AcDbSpline
210
0.0
220
0.0
230
1.0
 70
    24
 71
     3
 72
    10
 73
     6
 74
     0
 42
0.000000001
 43
0.00000001
 40
0.0
 40
0.0
 40
0.0
 40
0.0
 40
0.5
 40
0.5
 40
1.0
 40
1.0
 40
1.0
 40
1.0
 10
152.6307402435633
 20
105.6939649404175
 30
0.0
 10
152.2406978980734
 20
105.6939649404175
 30
0.0
 10
151.8663683904723
 20
105.6939649404175
 30
0.0
 10
151.1534283268375
 20
105.6939649404175
 30
0.0
 10
150.8256884644814
 20
105.6939649404175
 30
0.0
 10
150.5151266513768
 20
105.6939649404175
 30
0.0
  0
ARC
  5
3BC
330
1F
100
AcDbEntity
  8
0
  6
Continuous
 62
     7
370
    30
100
AcDbCircle
 10
152.6663286782
 20
106.8649466964
 30
0.0
 40
2.449258753574368
100
AcDbArc
 50
206.3739107084
 51
208.5611475546
  0
SPLINE
  5
3BD
330
1F
100
AcDbEntity
  8
0
  6
Continuous
 62
     7
370
    30
100
AcDbSpline
210
0.0
220
0.0
230
1.0
 70
     8
 71
     3
 72
     8
 73
     4
 74
     0
 42
0.000000001
 43
0.00000001
 40
0.0
 40
0.0
 40
0.0
 40
0.0
 40
1.0
 40
1.0
 40
1.0
 40
1.0
 10
146.0455320092612
 20
105.6110102885919
 30
0.0
 10
146.0527232707556
 20
105.2185614383824
 30
0.0
 10
146.0493827314111
 20
104.8169250338189
 30
0.0
 10
146.0342079333703
 20
104.4096145040337
 30
0.0
  0
SPLINE
  5
3BE
330
1F
100
AcDbEntity
  8
0
  6
Continuous
 62
     7
370
    30
100
AcDbSpline
210
0.0
220
0.0
230
1.0
 70
    24
 71
     3
 72
    10
 73
     6
 74
     0
 42
0.000000001
 43
0.00000001
 40
0.0
 40
0.0
 40
0.0
 40
0.0
 40
0.5
 40
0.5
 40
1.0
 40
1.0
 40
1.0
 40
1.0
 10
144.4725292360884
 20
103.5079788892819
 30
0.0
 10
144.7547814328749
 20
103.670937271076
 30
0.0
 10
145.0274970476534
 20
103.8283897046805
 30
0.0
 10
145.551814047811
 20
104.1311042658622
 30
0.0
 10
145.8003924296096
 20
104.2746210615083
 30
0.0
 10
146.0342079311296
 20
104.4096145042516
 30
0.0
  0
SPLINE
  5
3BF
330
1F
100
AcDbEntity
  8
0
  6
Continuous
 62
     7
370
    30
100
AcDbSpline
210
0.0
220
0.0
230
1.0
 70
    24
 71
     3
 72
    10
 73
     6
 74
     0
 42
0.000000001
 43
0.00000001
 40
0.0
 40
0.0
 40
0.0
 40
0.0
 40
0.5
 40
0.5
 40
1.0
 40
1.0
 40
1.0
 40
1.0
 10
143.8867960390209
 20
105.6939649404175
 30
0.0
 10
144.2768383845107
 20
105.6939649404175
 30
0.0
 10
144.6511678921119
 20
105.6939649404175
 30
0.0
 10
145.3641079557466
 20
105.6939649404175
 30
0.0
 10
145.6918478181026
 20
105.6939649404175
 30
0.0
 10
146.0024096312073
 20
105.6939649404175
 30
0.0
  0
ARC
  5
3C0
330
1F
100
AcDbEntity
  8
0
  6
Continuous
 62
     7
370
    30
100
AcDbCircle
 10
143.8512076009
 20
104.5229831827
 30
0.0
 40
2.449258757474063
100
AcDbArc
 50
26.3739107094
 51
28.5611475522
  0
SPLINE
  5
3C1
330
1F
100
AcDbEntity
  8
0
  6
Continuous
 62
     7
370
    30
100
AcDbSpline
210
0.0
220
0.0
230
1.0
 70
     8
 71
     3
 72
     8
 73
     4
 74
     0
 42
0.000000001
 43
0.00000001
 40
0.0
 40
0.0
 40
0.0
 40
0.0
 40
1.0
 40
1.0
 40
1.0
 40
1.0
 10
148.1758134894654
 20
107.9072010724483
 30
0.0
 10
147.7833646392569
 20
107.9000098109539
 30
0.0
 10
147.381728234693
 20
107.9033503502985
 30
0.0
 10
146.9744177049083
 20
107.9185251483393
 30
0.0
  0
SPLINE
  5
3C2
330
1F
100
AcDbEntity
  8
0
  6
Continuous
 62
     7
370
    30
100
AcDbSpline
210
0.0
220
0.0
230
1.0
 70
    24
 71
     3
 72
    10
 73
     6
 74
     0
 42
0.000000001
 43
0.00000001
 40
0.0
 40
0.0
 40
0.0
 40
0.0
 40
0.5
 40
0.5
 40
1.0
 40
1.0
 40
1.0
 40
1.0
 10
146.0727820901565
 20
109.4802038456212
 30
0.0
 10
146.2357404719506
 20
109.1979516488347
 30
0.0
 10
146.3931929055551
 20
108.9252360340562
 30
0.0
 10
146.6959074667368
 20
108.4009190338986
 30
0.0
 10
146.8394242623829
 20
108.1523406521
 30
0.0
 10
146.9744177051263
 20
107.91852515058
 30
0.0
  0
SPLINE
  5
3C3
330
1F
100
AcDbEntity
  8
0
  6
Continuous
 62
     7
370
    30
100
AcDbSpline
210
0.0
220
0.0
230
1.0
 70
    24
 71
     3
 72
    10
 73
     6
 74
     0
 42
0.000000001
 43
0.00000001
 40
0.0
 40
0.0
 40
0.0
 40
0.0
 40
0.5
 40
0.5
 40
1.0
 40
1.0
 40
1.0
 40
1.0
 10
148.2587681412921
 20
110.0659370426887
 30
0.0
 10
148.2587681412921
 20
109.675894697199
 30
0.0
 10
148.2587681412921
 20
109.301565189598
 30
0.0
 10
148.2587681412921
 20
108.5886251259634
 30
0.0
 10
148.2587681412921
 20
108.2608852636074
 30
0.0
 10
148.2587681412921
 20
107.9503234505029
 30
0.0
  0
ARC
  5
3C4
330
1F
100
AcDbEntity
  8
0
  6
Continuous
 62
     7
370
    30
100
AcDbCircle
 10
147.0877863847
 20
110.1015254786
 30
0.0
 40
2.449258754965686
100
AcDbArc
 50
296.3739107088
 51
298.5611475538
  0
SPLINE
  5
3C5
330
1F
100
AcDbEntity
  8
0
  6
Continuous
 62
     7
370
    30
100
AcDbSpline
210
0.0
220
0.0
230
1.0
 70
    24
 71
     3
 72
    10
 73
     6
 74
     0
 42
0.000000001
 43
0.00000001
 40
0.0
 40
0.0
 40
0.0
 40
0.0
 40
0.5
 40
0.5
 40
1.0
 40
1.0
 40
1.0
 40
1.0
 10
146.0727820901565
 20
101.9077260352138
 30
0.0
 10
146.2357404719506
 20
102.1899782320003
 30
0.0
 10
146.3931929055551
 20
102.4626938467788
 30
0.0
 10
146.6959074667368
 20
102.9870108469364
 30
0.0
 10
146.839424262383
 20
103.235589228735
 30
0.0
 10
146.9744177051263
 20
103.469404730255
 30
0.0
  0
SPLINE
  5
3C6
330
1F
100
AcDbEntity
  8
0
  6
Continuous
 62
     7
370
    30
100
AcDbSpline
210
0.0
220
0.0
230
1.0
 70
     8
 71
     3
 72
     8
 73
     4
 74
     0
 42
0.000000001
 43
0.00000001
 40
0.0
 40
0.0
 40
0.0
 40
0.0
 40
1.0
 40
1.0
 40
1.0
 40
1.0
 10
146.9744177049579
 20
103.4694047319844
 30
0.0
 10
147.3821554381181
 20
103.4845954378294
 30
0.0
 10
147.783897143497
 20
103.4879109162284
 30
0.0
 10
148.1758135028568
 20
103.4807305792569
 30
0.0
  0
ARC
  5
3C7
330
1F
100
AcDbEntity
  8
0
  6
Continuous
 62
     7
370
    30
100
AcDbCircle
 10
147.0877863937
 20
101.2864044199
 30
0.0
 40
2.449258735125993
100
AcDbArc
 50
61.438852434
 51
63.6260892965
  0
SPLINE
  5
3C8
330
1F
100
AcDbEntity
  8
0
  6
Continuous
 62
     7
370
    30
100
AcDbSpline
210
0.0
220
0.0
230
1.0
 70
    24
 71
     3
 72
    10
 73
     6
 74
     0
 42
0.000000001
 43
0.00000001
 40
0.0
 40
0.0
 40
0.0
 40
0.0
 40
0.5
 40
0.5
 40
1.0
 40
1.0
 40
1.0
 40
1.0
 10
150.4833283514546
 20
104.4096145042516
 30
0.0
 10
150.717684143959
 20
104.2743091243631
 30
0.0
 10
150.96277384078
 20
104.1328065219279
 30
0.0
 10
151.4820088432853
 20
103.8330260534588
 30
0.0
 10
151.758068835375
 20
103.6736427427133
 30
0.0
 10
152.0450070464958
 20
103.5079788892819
 30
0.0
  0
SPLINE
  5
3C9
330
1F
100
AcDbEntity
  8
0
  6
Continuous
 62
     7
370
    30
100
AcDbSpline
210
0.0
220
0.0
230
1.0
 70
     8
 71
     3
 72
     8
 73
     4
 74
     0
 42
0.000000001
 43
0.00000001
 40
0.0
 40
0.0
 40
0.0
 40
0.0
 40
1.0
 40
1.0
 40
1.0
 40
1.0
 10
150.4833283497252
 20
104.4096145040833
 30
0.0
 10
150.4681376438803
 20
104.8173522372434
 30
0.0
 10
150.4648221654812
 20
105.2190939426218
 30
0.0
 10
150.4720025024527
 20
105.611010301981
 30
0.0
  0
ARC
  5
3CA
330
1F
100
AcDbEntity
  8
0
  6
Continuous
 62
     7
370
    30
100
AcDbCircle
 10
152.6663286818
 20
104.5229831827
 30
0.0
 40
2.449258757565271
100
AcDbArc
 50
151.4388524478
 51
153.6260892905
  0
SPLINE
  5
3CB
330
1F
100
AcDbEntity
  8
0
  6
Continuous
 62
     7
370
    30
100
AcDbSpline
210
0.0
220
0.0
230
1.0
 70
    24
 71
     3
 72
    10
 73
     6
 74
     0
 42
0.000000001
 43
0.00000001
 40
0.0
 40
0.0
 40
0.0
 40
0.0
 40
0.5
 40
0.5
 40
1.0
 40
1.0
 40
1.0
 40
1.0
 10
144.4725292360884
 20
107.8799509915531
 30
0.0
 10
144.7547814328749
 20
107.716992609759
 30
0.0
 10
145.0274970476534
 20
107.5595401761545
 30
0.0
 10
145.551814047811
 20
107.2568256149728
 30
0.0
 10
145.8003924296096
 20
107.1133088193266
 30
0.0
 10
146.0342079311296
 20
106.9783153765833
 30
0.0
  0
SPLINE
  5
3CC
330
1F
100
AcDbEntity
  8
0
  6
Continuous
 62
     7
370
    30
100
AcDbSpline
210
0.0
220
0.0
230
1.0
 70
     8
 71
     3
 72
     8
 73
     4
 74
     0
 42
0.000000001
 43
0.00000001
 40
0.0
 40
0.0
 40
0.0
 40
0.0
 40
1.0
 40
1.0
 40
1.0
 40
1.0
 10
146.034207932859
 20
106.9783153767517
 30
0.0
 10
146.049398638704
 20
106.5705776435915
 30
0.0
 10
146.052714117103
 20
106.1688359382133
 30
0.0
 10
146.0455337801315
 20
105.7769195788543
 30
0.0
  0
ARC
  5
3CD
330
1F
100
AcDbEntity
  8
0
  6
Continuous
 62
     7
370
    30
100
AcDbCircle
 10
143.8512076052
 20
106.8649466959
 30
0.0
 40
2.449258752662223
100
AcDbArc
 50
331.4388524448
 51
333.6260892918
  0
SPLINE
  5
3CE
330
1F
100
AcDbEntity
  8
0
  6
Continuous
 62
     7
370
    30
100
AcDbSpline
210
0.0
220
0.0
230
1.0
 70
    24
 71
     3
 72
    10
 73
     6
 74
     0
 42
0.000000001
 43
0.00000001
 40
0.0
 40
0.0
 40
0.0
 40
0.0
 40
0.5
 40
0.5
 40
1.0
 40
1.0
 40
1.0
 40
1.0
 10
150.4447541924277
 20
109.4802038456212
 30
0.0
 10
150.2817958106336
 20
109.1979516488347
 30
0.0
 10
150.1243433770291
 20
108.9252360340562
 30
0.0
 10
149.8216288158474
 20
108.4009190338986
 30
0.0
 10
149.6781120202013
 20
108.1523406521
 30
0.0
 10
149.5431185774579
 20
107.91852515058
 30
0.0
  0
SPLINE
  5
3CF
330
1F
100
AcDbEntity
  8
0
  6
Continuous
 62
     7
370
    30
100
AcDbSpline
210
0.0
220
0.0
230
1.0
 70
     8
 71
     3
 72
     8
 73
     4
 74
     0
 42
0.000000001
 43
0.00000001
 40
0.0
 40
0.0
 40
0.0
 40
0.0
 40
1.0
 40
1.0
 40
1.0
 40
1.0
 10
149.5431185776263
 20
107.9185251488506
 30
0.0
 10
149.1353808444664
 20
107.9033344430056
 30
0.0
 10
148.7336391390888
 20
107.9000189646066
 30
0.0
 10
148.34172277973
 20
107.9071993015781
 30
0.0
  0
ARC
  5
3D0
330
1F
100
AcDbEntity
  8
0
  6
Continuous
 62
     7
370
    30
100
AcDbCircle
 10
149.4297498983
 20
110.1015254794
 30
0.0
 40
2.449258755832876
100
AcDbArc
 50
241.4388524468
 51
243.626089291
  0
SPLINE
  5
3D1
330
1F
100
AcDbEntity
  8
0
  6
Continuous
 62
     7
370
    30
100
AcDbSpline
210
0.0
220
0.0
230
1.0
 70
     8
 71
     3
 72
     8
 73
     4
 74
     0
 42
0.000000001
 43
0.00000001
 40
0.0
 40
0.0
 40
0.0
 40
0.0
 40
1.0
 40
1.0
 40
1.0
 40
1.0
 10
149.5431183235591
 20
103.4694050222008
 30
0.0
 10
149.844962949683
 20
103.7920308148769
 30
0.0
 10
150.160771756242
 20
104.1078346381531
 30
0.0
 10
150.4833280068491
 20
104.4096147782622
 30
0.0
  0
SPLINE
  5
3D2
330
1F
100
AcDbEntity
  8
0
  6
Continuous
 62
     7
370
    30
100
AcDbSpline
210
0.0
220
0.0
230
1.0
 70
     8
 71
     3
 72
     8
 73
     4
 74
     0
 42
0.000000001
 43
0.00000001
 40
0.0
 40
0.0
 40
0.0
 40
0.0
 40
1.0
 40
1.0
 40
1.0
 40
1.0
 10
146.0342082230754
 20
104.4096147581505
 30
0.0
 10
146.3568340157517
 20
104.1077701320265
 30
0.0
 10
146.6726378390275
 20
103.7919613254678
 30
0.0
 10
146.9744179791368
 20
103.4694050748605
 30
0.0
  0
SPLINE
  5
3D3
330
1F
100
AcDbEntity
  8
0
  6
Continuous
 62
     7
370
    30
100
AcDbSpline
210
0.0
220
0.0
230
1.0
 70
     8
 71
     3
 72
     8
 73
     4
 74
     0
 42
0.000000001
 43
0.00000001
 40
0.0
 40
0.0
 40
0.0
 40
0.0
 40
1.0
 40
1.0
 40
1.0
 40
1.0
 10
150.4833280595088
 20
106.9783151226845
 30
0.0
 10
150.160702266833
 20
107.280159748808
 30
0.0
 10
149.8448984435567
 20
107.5959685553671
 30
0.0
 10
149.5431183034474
 20
107.9185248059744
 30
0.0
  0
SPLINE
  5
3D4
330
1F
100
AcDbEntity
  8
0
  6
Continuous
 62
     7
370
    30
100
AcDbSpline
210
0.0
220
0.0
230
1.0
 70
     8
 71
     3
 72
     8
 73
     4
 74
     0
 42
0.000000001
 43
0.00000001
 40
0.0
 40
0.0
 40
0.0
 40
0.0
 40
1.0
 40
1.0
 40
1.0
 40
1.0
 10
146.9744179590251
 20
107.9185248586341
 30
0.0
 10
146.6725733329011
 20
107.5958990659579
 30
0.0
 10
146.3567645263429
 20
107.2800952426825
 30
0.0
 10
146.0342082757351
 20
106.9783151025728
 30
0.0
  0
ARC
  5
3D5
330
1F
100
AcDbEntity
  8
0
  6
Continuous
 62
     7
370
    30
100
AcDbCircle
 10
149.6118992661
 20
104.3415647053
 30
0.0
 40
1.562509242718932
100
AcDbArc
 50
120.0566025839
 51
129.5213966163
  0
SPLINE
  5
3D6
330
1F
100
AcDbEntity
  8
0
  6
Continuous
 62
     7
370
    30
100
AcDbSpline
210
0.0
220
0.0
230
1.0
 70
    24
 71
     3
 72
     8
 73
     4
 74
     0
 42
0.000000001
 43
0.00000001
 40
0.0
 40
0.0
 40
0.0
 40
0.0
 40
1.0
 40
1.0
 40
1.0
 40
1.0
 10
150.3485857063627
 20
105.6939649404175
 30
0.0
 10
149.8360991001608
 20
105.6939649404175
 30
0.0
 10
149.3253797945521
 20
105.6939649404175
 30
0.0
 10
148.8293082256598
 20
105.6939649404175
 30
0.0
  0
ARC
  5
3D7
330
1F
100
AcDbEntity
  8
0
  6
Continuous
 62
     7
370
    30
100
AcDbCircle
 10
149.6100229735
 20
104.461861392
 30
0.0
 40
1.436507581312301
100
AcDbArc
 50
53.1263314795
 51
59.0601646423
  0
ARC
  5
3D8
330
1F
100
AcDbEntity
  8
0
  6
Continuous
 62
     7
370
    30
100
AcDbCircle
 10
149.4908716893
 20
104.3427101079
 30
0.0
 40
1.436507580834557
100
AcDbArc
 50
210.9398353564
 51
216.8736685211
  0
SPLINE
  5
3D9
330
1F
100
AcDbEntity
  8
0
  6
Continuous
 62
     7
370
    30
100
AcDbSpline
210
0.0
220
0.0
230
1.0
 70
    24
 71
     3
 72
     8
 73
     4
 74
     0
 42
0.000000001
 43
0.00000001
 40
0.0
 40
0.0
 40
0.0
 40
0.0
 40
1.0
 40
1.0
 40
1.0
 40
1.0
 10
148.2587681412921
 20
105.1234245362418
 30
0.0
 10
148.2587681412921
 20
104.6283644517403
 30
0.0
 10
148.2587681412921
 20
104.1176806750813
 30
0.0
 10
148.2587681412921
 20
103.6041474665095
 30
0.0
  0
ARC
  5
3DA
330
1F
100
AcDbEntity
  8
0
  6
Continuous
 62
     7
370
    30
100
AcDbCircle
 10
149.6111683762
 20
104.3408338158
 30
0.0
 40
1.562509242531523
100
AcDbArc
 50
140.4786033833
 51
149.9433974168
  0
SPLINE
  5
3DB
330
1F
100
AcDbEntity
  8
0
  6
Continuous
 62
     7
370
    30
100
AcDbSpline
210
0.0
220
0.0
230
1.0
 70
     8
 71
     3
 72
     8
 73
     4
 74
     0
 42
0.000000001
 43
0.00000001
 40
0.0
 40
0.0
 40
0.0
 40
0.0
 40
1.0
 40
1.0
 40
1.0
 40
1.0
 10
148.4058690742471
 20
105.3351621026538
 30
0.0
 10
148.4916510290983
 20
105.3874674507952
 30
0.0
 10
148.565177910253
 20
105.4609381885667
 30
0.0
 10
148.6175709793623
 20
105.5468640079661
 30
0.0
  0
ARC
  5
3DC
330
1F
100
AcDbEntity
  8
0
  6
Continuous
 62
     7
370
    30
100
AcDbCircle
 10
149.6111683762
 20
107.0470960651
 30
0.0
 40
1.562509242531539
100
AcDbArc
 50
210.0566025832
 51
219.5213966167
  0
SPLINE
  5
3DD
330
1F
100
AcDbEntity
  8
0
  6
Continuous
 62
     7
370
    30
100
AcDbSpline
210
0.0
220
0.0
230
1.0
 70
    24
 71
     3
 72
     8
 73
     4
 74
     0
 42
0.000000001
 43
0.00000001
 40
0.0
 40
0.0
 40
0.0
 40
0.0
 40
1.0
 40
1.0
 40
1.0
 40
1.0
 10
148.2587681412921
 20
107.783782505486
 30
0.0
 10
148.2587681412921
 20
107.2712958992852
 30
0.0
 10
148.2587681412921
 20
106.7605765936774
 30
0.0
 10
148.2587681412921
 20
106.2645050247857
 30
0.0
  0
ARC
  5
3DE
330
1F
100
AcDbEntity
  8
0
  6
Continuous
 62
     7
370
    30
100
AcDbCircle
 10
149.4908716893
 20
107.0452197729
 30
0.0
 40
1.436507580834582
100
AcDbArc
 50
143.1263314789
 51
149.0601646436
  0
ARC
  5
3DF
330
1F
100
AcDbEntity
  8
0
  6
Continuous
 62
     7
370
    30
100
AcDbCircle
 10
149.6100229741
 20
106.9260684879
 30
0.0
 40
1.436507580223505
100
AcDbArc
 50
300.9398353546
 51
306.8736685218
  0
ARC
  5
3E0
330
1F
100
AcDbEntity
  8
0
  6
Continuous
 62
     7
370
    30
100
AcDbCircle
 10
149.6118992658
 20
107.0463651751
 30
0.0
 40
1.562509242291221
100
AcDbArc
 50
230.4786033829
 51
239.9433974178
  0
SPLINE
  5
3E1
330
1F
100
AcDbEntity
  8
0
  6
Continuous
 62
     7
370
    30
100
AcDbSpline
210
0.0
220
0.0
230
1.0
 70
     8
 71
     3
 72
     8
 73
     4
 74
     0
 42
0.000000001
 43
0.00000001
 40
0.0
 40
0.0
 40
0.0
 40
0.0
 40
1.0
 40
1.0
 40
1.0
 40
1.0
 10
148.6175709793597
 20
105.841065872872
 30
0.0
 10
148.5652656312918
 20
105.9268478277757
 30
0.0
 10
148.4917948935932
 20
106.0003747089961
 30
0.0
 10
148.4058690742445
 20
106.0527677781807
 30
0.0
  0
ARC
  5
3E2
330
1F
100
AcDbEntity
  8
0
  6
Continuous
 62
     7
370
    30
100
AcDbCircle
 10
146.9063679064
 20
104.3408338158
 30
0.0
 40
1.562509242478642
100
AcDbArc
 50
30.0566025829
 51
39.5213966167
  0
ARC
  5
3E3
330
1F
100
AcDbEntity
  8
0
  6
Continuous
 62
     7
370
    30
100
AcDbCircle
 10
147.0266645934
 20
104.3427101079
 30
0.0
 40
1.436507580701225
100
AcDbArc
 50
323.1263314788
 51
329.060164644
  0
ARC
  5
3E4
330
1F
100
AcDbEntity
  8
0
  6
Continuous
 62
     7
370
    30
100
AcDbCircle
 10
146.9075133091
 20
104.461861392
 30
0.0
 40
1.436507581312301
100
AcDbArc
 50
120.9398353577
 51
126.8736685205
  0
SPLINE
  5
3E5
330
1F
100
AcDbEntity
  8
0
  6
Continuous
 62
     7
370
    30
100
AcDbSpline
210
0.0
220
0.0
230
1.0
 70
    24
 71
     3
 72
     8
 73
     4
 74
     0
 42
0.000000001
 43
0.00000001
 40
0.0
 40
0.0
 40
0.0
 40
0.0
 40
1.0
 40
1.0
 40
1.0
 40
1.0
 10
147.6882277371159
 20
105.6939649404175
 30
0.0
 10
147.1931676526146
 20
105.6939649404175
 30
0.0
 10
146.6824838759569
 20
105.6939649404175
 30
0.0
 10
146.1689506673862
 20
105.6939649404175
 30
0.0
  0
ARC
  5
3E6
330
1F
100
AcDbEntity
  8
0
  6
Continuous
 62
     7
370
    30
100
AcDbCircle
 10
146.9056370165
 20
104.3415647053
 30
0.0
 40
1.562509242721099
100
AcDbArc
 50
50.4786033837
 51
59.943397416
  0
SPLINE
  5
3E7
330
1F
100
AcDbEntity
  8
0
  6
Continuous
 62
     7
370
    30
100
AcDbSpline
210
0.0
220
0.0
230
1.0
 70
     8
 71
     3
 72
     8
 73
     4
 74
     0
 42
0.000000001
 43
0.00000001
 40
0.0
 40
0.0
 40
0.0
 40
0.0
 40
1.0
 40
1.0
 40
1.0
 40
1.0
 10
147.8999653035324
 20
105.5468640074571
 30
0.0
 10
147.9522706516731
 20
105.4610820526085
 30
0.0
 10
148.0257413894427
 20
105.3875551714559
 30
0.0
 10
148.1116672088397
 20
105.3351621023475
 30
0.0
  0
ARC
  5
3E8
330
1F
100
AcDbEntity
  8
0
  6
Continuous
 62
     7
370
    30
100
AcDbCircle
 10
146.9056370168
 20
107.0463651751
 30
0.0
 40
1.562509242289069
100
AcDbArc
 50
300.0566025822
 51
309.5213966171
  0
ARC
  5
3E9
330
1F
100
AcDbEntity
  8
0
  6
Continuous
 62
     7
370
    30
100
AcDbCircle
 10
146.9075133085
 20
106.9260684879
 30
0.0
 40
1.436507580223523
100
AcDbArc
 50
233.1263314782
 51
239.0601646454
  0
ARC
  5
3EA
330
1F
100
AcDbEntity
  8
0
  6
Continuous
 62
     7
370
    30
100
AcDbCircle
 10
147.0266645934
 20
107.045219773
 30
0.0
 40
1.436507580701234
100
AcDbArc
 50
30.939835356
 51
36.8736685212
  0
ARC
  5
3EB
330
1F
100
AcDbEntity
  8
0
  6
Continuous
 62
     7
370
    30
100
AcDbCircle
 10
146.9063679064
 20
107.047096065
 30
0.0
 40
1.56250924247861
100
AcDbArc
 50
320.4786033833
 51
329.9433974171
  0
SPLINE
  5
3EC
330
1F
100
AcDbEntity
  8
0
  6
Continuous
 62
     7
370
    30
100
AcDbSpline
210
0.0
220
0.0
230
1.0
 70
     8
 71
     3
 72
     8
 73
     4
 74
     0
 42
0.000000001
 43
0.00000001
 40
0.0
 40
0.0
 40
0.0
 40
0.0
 40
1.0
 40
1.0
 40
1.0
 40
1.0
 10
148.1116672088347
 20
106.0527677784825
 30
0.0
 10
148.0258852539336
 20
106.0004624304159
 30
0.0
 10
147.952358372715
 20
105.9269916927198
 30
0.0
 10
147.899965303531
 20
105.8410658733741
 30
0.0
  0
ARC
  5
3ED
330
1F
100
AcDbEntity
  8
0
  6
Continuous
 62
     7
370
    30
100
AcDbCircle
 10
148.2587681413
 20
105.6939649404
 30
0.0
 40
0.3877862309758596
100
AcDbArc
 50
247.7074960955
 51
292.2925039789
  0
ARC
  5
3EE
330
1F
100
AcDbEntity
  8
0
  6
Continuous
 62
     7
370
    30
100
AcDbCircle
 10
148.2587681413
 20
105.6939649404
 30
0.0
 40
0.3877862305755078
100
AcDbArc
 50
157.7074960191
 51
202.2925039796
  0
ARC
  5
3EF
330
1F
100
AcDbEntity
  8
0
  6
Continuous
 62
     7
370
    30
100
AcDbCircle
 10
148.2587681413
 20
105.6939649404
 30
0.0
 40
0.3877862309756772
100
AcDbArc
 50
67.70749602
 51
112.2925039053
  0
ARC
  5
3F0
330
1F
100
AcDbEntity
  8
0
  6
Continuous
 62
     7
370
    30
100
AcDbCircle
 10
148.2587681413
 20
105.6939649404
 30
0.0
 40
0.3877862309761987
100
AcDbArc
 50
337.707496096
 51
22.292503905
  0
CIRCLE
  5
3F1
330
1F
100
AcDbEntity
  8
0
  6
Continuous
 62
     7
370
    30
100
AcDbCircle
 10
148.2587681413
 20
105.6939649404
 30
0.0
 40
0.1500000000000057
  0
LINE
  5
3F2
330
1F
100
AcDbEntity
  8
0
  6
CENTERX2
 62
     7
370
     0
100
AcDbLine
 10
138.9042839543
 20
105.6939649404
 30
0.0
 11
157.8024253579
 21
105.6939649404
 31
0.0
  0
LINE
  5
3F3
330
1F
100
AcDbEntity
  8
0
  6
CENTERX2
 62
     7
370
     0
100
AcDbLine
 10
148.2587681413
 20
96.5132215396
 30
0.0
 11
148.2587681413
 21
114.898291231
 31
0.0
  0
INSERT
  5
3FA
330
1F
100
AcDbEntity
  8
0
  6
Continuous
 62
     7
370
     0
100
AcDbBlockReference
  2
SW_NOTE_6
 10
135.0679384777
 20
90.4347792854
 30
0.0
  0
ENDSEC
  0
SECTION
  2
OBJECTS
  0
DICTIONARY
  5
C
330
0
100
AcDbDictionary
281
     1
  3
ACAD_GROUP
350
D
  3
ACAD_LAYOUT
350
1A
  3
ACAD_MLINESTYLE
350
17
  3
ACAD_PLOTSETTINGS
350
19
  3
ACAD_PLOTSTYLENAME
350
E
  3
ACAD_SCALELIST
350
47
  0
DICTIONARY
  5
D
102
{ACAD_REACTORS
330
C
102
}
330
C
100
AcDbDictionary
281
     1
  0
DICTIONARY
  5
1A
102
{ACAD_REACTORS
330
C
102
}
330
C
100
AcDbDictionary
281
     1
  3
Layout1
350
1E
  3
Layout2
350
26
  3
Model
350
22
  0
DICTIONARY
  5
17
102
{ACAD_REACTORS
330
C
102
}
330
C
100
AcDbDictionary
281
     1
  3
Standard
350
18
  0
DICTIONARY
  5
19
102
{ACAD_REACTORS
330
C
102
}
330
C
100
AcDbDictionary
281
     1
  0
ACDBDICTIONARYWDFLT
  5
E
102
{ACAD_REACTORS
330
C
102
}
330
C
100
AcDbDictionary
281
     1
  3
Normal
350
F
100
AcDbDictionaryWithDefault
340
F
  0
DICTIONARY
  5
47
102
{ACAD_REACTORS
330
C
102
}
330
C
100
AcDbDictionary
281
     1
  3
A0
350
48
  3
A1
350
49
  3
A2
350
4A
  3
A3
350
4B
  3
A4
350
4C
  3
A5
350
4D
  3
A6
350
4E
  3
A7
350
4F
  3
A8
350
50
  3
A9
350
51
  3
B0
350
52
  3
B1
350
53
  3
B2
350
54
  3
B3
350
55
  3
B4
350
56
  3
B5
350
57
  3
B6
350
58
  3
B7
350
59
  3
B8
350
5A
  3
B9
350
5B
  3
C0
350
5C
  3
C1
350
5D
  3
C2
350
5E
  3
C3
350
5F
  3
C4
350
60
  3
C5
350
61
  3
C6
350
62
  3
C7
350
63
  3
C8
350
64
  3
C9
350
65
  3
D0
350
66
  3
D1
350
67
  3
D2
350
68
  0
LAYOUT
  5
1E
102
{ACAD_REACTORS
330
1A
102
}
330
1A
100
AcDbPlotSettings
  1

  2
none_device
  4

  6

 40
0.0
 41
0.0
 42
0.0
 43
0.0
 44
0.0
 45
0.0
 46
0.0
 47
0.0
 48
0.0
 49
0.0
140
0.0
141
0.0
142
1.0
143
1.0
 70
   688
 72
     1
 73
     0
 74
     5
  7

 75
    16
147
1.0
148
0.0
149
0.0
100
AcDbLayout
  1
Layout1
 70
     1
 71
     1
 10
0.0
 20
0.0
 11
420.0
 21
297.0
 12
0.0
 22
0.0
 32
0.0
 14
1.0000000000E+20
 24
1.0000000000E+20
 34
1.0000000000E+20
 15
-1.0000000000E+20
 25
-1.0000000000E+20
 35
-1.0000000000E+20
146
0.0
 13
0.0
 23
0.0
 33
0.0
 16
1.0
 26
0.0
 36
0.0
 17
0.0
 27
1.0
 37
0.0
 76
     0
330
1B
  0
LAYOUT
  5
26
102
{ACAD_REACTORS
330
1A
102
}
330
1A
100
AcDbPlotSettings
  1

  2
none_device
  4

  6

 40
0.0
 41
0.0
 42
0.0
 43
0.0
 44
0.0
 45
0.0
 46
0.0
 47
0.0
 48
0.0
 49
0.0
140
0.0
141
0.0
142
1.0
143
1.0
 70
   688
 72
     1
 73
     0
 74
     5
  7

 75
    16
147
1.0
148
0.0
149
0.0
100
AcDbLayout
  1
Layout2
 70
     1
 71
     2
 10
0.0
 20
0.0
 11
0.0
 21
0.0
 12
0.0
 22
0.0
 32
0.0
 14
0.0
 24
0.0
 34
0.0
 15
0.0
 25
0.0
 35
0.0
146
0.0
 13
0.0
 23
0.0
 33
0.0
 16
1.0
 26
0.0
 36
0.0
 17
0.0
 27
1.0
 37
0.0
 76
     0
330
23
  0
LAYOUT
  5
22
102
{ACAD_REACTORS
330
1A
102
}
330
1A
100
AcDbPlotSettings
  1

  2
none_device
  4
Letter_(8.50_x_11.00_Inches)
  6

 40
6.35
 41
6.35
 42
6.35000508
 43
6.35000508
 44
215.9
 45
279.4
 46
0.0
 47
0.0
 48
0.0
 49
0.0
140
0.0
141
0.0
142
1.0
143
1.0
 70
  1712
 72
     1
 73
     0
 74
     0
  7

 75
     0
147
1.0
148
0.0
149
0.0
100
AcDbLayout
  1
Model
 70
     1
 71
     0
 10
0.0
 20
0.0
 11
210.0
 21
297.0
 12
0.0
 22
0.0
 32
0.0
 14
0.0
 24
0.0
 34
0.0
 15
210.0
 25
297.0
 35
0.0
146
0.0
 13
0.0
 23
0.0
 33
0.0
 16
1.0
 26
0.0
 36
0.0
 17
0.0
 27
1.0
 37
0.0
 76
     0
330
1F
331
29
  0
MLINESTYLE
  5
18
102
{ACAD_REACTORS
330
17
102
}
330
17
100
AcDbMlineStyle
  2
Standard
 70
     0
  3

 62
   256
 51
90.0
 52
90.0
 71
     2
 49
0.5
 62
   256
  6
BYLAYER
 49
-0.5
 62
   256
  6
BYLAYER
  0
ACDBPLACEHOLDER
  5
F
102
{ACAD_REACTORS
330
E
102
}
330
E
  0
SCALE
  5
48
102
{ACAD_REACTORS
330
47
102
}
330
47
100
AcDbScale
 70
     0
300
1:1
140
1.0
141
1.0
290
     1
  0
SCALE
  5
49
102
{ACAD_REACTORS
330
47
102
}
330
47
100
AcDbScale
 70
     0
300
1:2
140
1.0
141
2.0
290
     0
  0
SCALE
  5
4A
102
{ACAD_REACTORS
330
47
102
}
330
47
100
AcDbScale
 70
     0
300
1:4
140
1.0
141
4.0
290
     0
  0
SCALE
  5
4B
102
{ACAD_REACTORS
330
47
102
}
330
47
100
AcDbScale
 70
     0
300
1:5
140
1.0
141
5.0
290
     0
  0
SCALE
  5
4C
102
{ACAD_REACTORS
330
47
102
}
330
47
100
AcDbScale
 70
     0
300
1:8
140
1.0
141
8.0
290
     0
  0
SCALE
  5
4D
102
{ACAD_REACTORS
330
47
102
}
330
47
100
AcDbScale
 70
     0
300
1:10
140
1.0
141
10.0
290
     0
  0
SCALE
  5
4E
102
{ACAD_REACTORS
330
47
102
}
330
47
100
AcDbScale
 70
     0
300
1:16
140
1.0
141
16.0
290
     0
  0
SCALE
  5
4F
102
{ACAD_REACTORS
330
47
102
}
330
47
100
AcDbScale
 70
     0
300
1:20
140
1.0
141
20.0
290
     0
  0
SCALE
  5
50
102
{ACAD_REACTORS
330
47
102
}
330
47
100
AcDbScale
 70
     0
300
1:30
140
1.0
141
30.0
290
     0
  0
SCALE
  5
51
102
{ACAD_REACTORS
330
47
102
}
330
47
100
AcDbScale
 70
     0
300
1:40
140
1.0
141
40.0
290
     0
  0
SCALE
  5
52
102
{ACAD_REACTORS
330
47
102
}
330
47
100
AcDbScale
 70
     0
300
1:50
140
1.0
141
50.0
290
     0
  0
SCALE
  5
53
102
{ACAD_REACTORS
330
47
102
}
330
47
100
AcDbScale
 70
     0
300
1:100
140
1.0
141
100.0
290
     0
  0
SCALE
  5
54
102
{ACAD_REACTORS
330
47
102
}
330
47
100
AcDbScale
 70
     0
300
2:1
140
2.0
141
1.0
290
     0
  0
SCALE
  5
55
102
{ACAD_REACTORS
330
47
102
}
330
47
100
AcDbScale
 70
     0
300
4:1
140
4.0
141
1.0
290
     0
  0
SCALE
  5
56
102
{ACAD_REACTORS
330
47
102
}
330
47
100
AcDbScale
 70
     0
300
8:1
140
8.0
141
1.0
290
     0
  0
SCALE
  5
57
102
{ACAD_REACTORS
330
47
102
}
330
47
100
AcDbScale
 70
     0
300
10:1
140
10.0
141
1.0
290
     0
  0
SCALE
  5
58
102
{ACAD_REACTORS
330
47
102
}
330
47
100
AcDbScale
 70
     0
300
100:1
140
100.0
141
1.0
290
     0
  0
SCALE
  5
59
102
{ACAD_REACTORS
330
47
102
}
330
47
100
AcDbScale
 70
     0
300
1/128" = 1'-0"
140
0.0078125
141
12.0
290
     0
  0
SCALE
  5
5A
102
{ACAD_REACTORS
330
47
102
}
330
47
100
AcDbScale
 70
     0
300
1/64" = 1'-0"
140
0.015625
141
12.0
290
     0
  0
SCALE
  5
5B
102
{ACAD_REACTORS
330
47
102
}
330
47
100
AcDbScale
 70
     0
300
1/32" = 1'-0"
140
0.03125
141
12.0
290
     0
  0
SCALE
  5
5C
102
{ACAD_REACTORS
330
47
102
}
330
47
100
AcDbScale
 70
     0
300
1/16" = 1'-0"
140
0.0625
141
12.0
290
     0
  0
SCALE
  5
5D
102
{ACAD_REACTORS
330
47
102
}
330
47
100
AcDbScale
 70
     0
300
3/32" = 1'-0"
140
0.09375
141
12.0
290
     0
  0
SCALE
  5
5E
102
{ACAD_REACTORS
330
47
102
}
330
47
100
AcDbScale
 70
     0
300
1/8" = 1'-0"
140
0.125
141
12.0
290
     0
  0
SCALE
  5
5F
102
{ACAD_REACTORS
330
47
102
}
330
47
100
AcDbScale
 70
     0
300
3/16" = 1'-0"
140
0.1875
141
12.0
290
     0
  0
SCALE
  5
60
102
{ACAD_REACTORS
330
47
102
}
330
47
100
AcDbScale
 70
     0
300
1/4" = 1'-0"
140
0.25
141
12.0
290
     0
  0
SCALE
  5
61
102
{ACAD_REACTORS
330
47
102
}
330
47
100
AcDbScale
 70
     0
300
3/8" = 1'-0"
140
0.375
141
12.0
290
     0
  0
SCALE
  5
62
102
{ACAD_REACTORS
330
47
102
}
330
47
100
AcDbScale
 70
     0
300
1/2" = 1'-0"
140
0.5
141
12.0
290
     0
  0
SCALE
  5
63
102
{ACAD_REACTORS
330
47
102
}
330
47
100
AcDbScale
 70
     0
300
3/4" = 1'-0"
140
0.75
141
12.0
290
     0
  0
SCALE
  5
64
102
{ACAD_REACTORS
330
47
102
}
330
47
100
AcDbScale
 70
     0
300
1" = 1'-0"
140
1.0
141
12.0
290
     0
  0
SCALE
  5
65
102
{ACAD_REACTORS
330
47
102
}
330
47
100
AcDbScale
 70
     0
300
1-1/2" = 1'-0"
140
1.5
141
12.0
290
     0
  0
SCALE
  5
66
102
{ACAD_REACTORS
330
47
102
}
330
47
100
AcDbScale
 70
     0
300
3" = 1'-0"
140
3.0
141
12.0
290
     0
  0
SCALE
  5
67
102
{ACAD_REACTORS
330
47
102
}
330
47
100
AcDbScale
 70
     0
300
6" = 1'-0"
140
6.0
141
12.0
290
     0
  0
SCALE
  5
68
102
{ACAD_REACTORS
330
47
102
}
330
47
100
AcDbScale
 70
     0
300
1'-0" = 1'-0"
140
12.0
141
12.0
290
     0
  0
ENDSEC
  0
EOF
