  0
SECTION
  2
HEADER
  9
$ACADVER
  1
AC1015
  9
$ACADMAINTVER
 70
     6
  9
$DWGCODEPAGE
  3
DOS932
  9
$INSBASE
 10
0.0
 20
0.0
 30
0.0
  9
$EXTMIN
 10
0.0
 20
0.0
 30
0.0
  9
$EXTMAX
 10
210.0
 20
297.0
 30
0.0
  9
$LIMMIN
 10
0.0
 20
0.0
  9
$LIMMAX
 10
210.0
 20
297.0
  9
$ORTHOMODE
 70
     0
  9
$REGENMODE
 70
     1
  9
$FILLMODE
 70
     1
  9
$QTEXTMODE
 70
     0
  9
$MIRRTEXT
 70
     1
  9
$LTSCALE
 40
1.0
  9
$ATTMODE
 70
     1
  9
$TEXTSIZE
 40
3.5
  9
$TRACEWID
 40
1.0
  9
$TEXTSTYLE
  7
Standard
  9
$CLAYER
  8
0
  9
$CELTYPE
  6
ByLayer
  9
$CECOLOR
 62
   256
  9
$CELTSCALE
 40
1.0
  9
$DISPSILH
 70
     0
  9
$DIMSCALE
 40
1.0
  9
$DIMASZ
 40
1.5
  9
$DIMEXO
 40
1.0
  9
$DIMDLI
 40
3.75
  9
$DIMRND
 40
0.0
  9
$DIMDLE
 40
0.0
  9
$DIMEXE
 40
1.0
  9
$DIMTP
 40
0.0
  9
$DIMTM
 40
0.0
  9
$DIMTXT
 40
3.5
  9
$DIMCEN
 40
2.5
  9
$DIMTSZ
 40
0.0
  9
$DIMTOL
 70
     0
  9
$DIMLIM
 70
     0
  9
$DIMTIH
 70
     1
  9
$DIMTOH
 70
     1
  9
$DIMSE1
 70
     0
  9
$DIMSE2
 70
     0
  9
$DIMTAD
 70
     1
  9
$DIMZIN
 70
     0
  9
$DIMBLK
  1

  9
$DIMASO
 70
     1
  9
$DIMSHO
 70
     1
  9
$DIMPOST
  1

  9
$DIMAPOST
  1

  9
$DIMALT
 70
     0
  9
$DIMALTD
 70
     3
  9
$DIMALTF
 40
0.0393700787
  9
$DIMLFAC
 40
1.0
  9
$DIMTOFL
 70
     1
  9
$DIMTVP
 40
0.0
  9
$DIMTIX
 70
     0
  9
$DIMSOXD
 70
     0
  9
$DIMSAH
 70
     0
  9
$DIMBLK1
  1

  9
$DIMBLK2
  1

  9
$DIMSTYLE
  2
ISO-25
  9
$DIMCLRD
 70
     0
  9
$DIMCLRE
 70
     0
  9
$DIMCLRT
 70
     0
  9
$DIMTFAC
 40
1.0
  9
$DIMGAP
 40
1.524
  9
$DIMJUST
 70
     0
  9
$DIMSD1
 70
     0
  9
$DIMSD2
 70
     0
  9
$DIMTOLJ
 70
     0
  9
$DIMTZIN
 70
     0
  9
$DIMALTZ
 70
     0
  9
$DIMALTTZ
 70
     0
  9
$DIMUPT
 70
     0
  9
$DIMDEC
 70
     2
  9
$DIMTDEC
 70
     2
  9
$DIMALTU
 70
     2
  9
$DIMALTTD
 70
     3
  9
$DIMTXSTY
  7
Standard
  9
$DIMAUNIT
 70
     0
  9
$DIMADEC
 70
     2
  9
$DIMALTRND
 40
0.0
  9
$DIMAZIN
 70
     0
  9
$DIMDSEP
 70
    44
  9
$DIMATFIT
 70
     3
  9
$DIMFRAC
 70
     0
  9
$DIMLDRBLK
  1

  9
$DIMLUNIT
 70
     2
  9
$DIMLWD
 70
    -2
  9
$DIMLWE
 70
    -2
  9
$DIMTMOVE
 70
     0
  9
$LUNITS
 70
     2
  9
$LUPREC
 70
     2
  9
$SKETCHINC
 40
1.0
  9
$FILLETRAD
 40
10.0
  9
$AUNITS
 70
     0
  9
$AUPREC
 70
     2
  9
$MENU
  1
.
  9
$ELEVATION
 40
0.0
  9
$PELEVATION
 40
0.0
  9
$THICKNESS
 40
0.0
  9
$LIMCHECK
 70
     0
  9
$CHAMFERA
 40
0.0
  9
$CHAMFERB
 40
0.0
  9
$CHAMFERC
 40
0.0
  9
$CHAMFERD
 40
0.0
  9
$SKPOLY
 70
     0
  9
$TDCREATE
 40
2458131.637967801
  9
$TDUCREATE
 40
2458131.596301134
  9
$TDUPDATE
 40
2458131.637971621
  9
$TDUUPDATE
 40
2458131.596304954
  9
$TDINDWG
 40
0.0000000116
  9
$TDUSRTIMER
 40
0.0000000116
  9
$USRTIMER
 70
     1
  9
$ANGBASE
 50
0.0
  9
$ANGDIR
 70
     0
  9
$PDMODE
 70
     0
  9
$PDSIZE
 40
-1.0
  9
$PLINEWID
 40
0.0
  9
$SPLFRAME
 70
     0
  9
$SPLINETYPE
 70
     6
  9
$SPLINESEGS
 70
     8
  9
$HANDSEED
  5
4AA
  9
$SURFTAB1
 70
     6
  9
$SURFTAB2
 70
     6
  9
$SURFTYPE
 70
     6
  9
$SURFU
 70
     6
  9
$SURFV
 70
     6
  9
$UCSBASE
  2

  9
$UCSNAME
  2

  9
$UCSORG
 10
0.0
 20
0.0
 30
0.0
  9
$UCSXDIR
 10
1.0
 20
0.0
 30
0.0
  9
$UCSYDIR
 10
0.0
 20
1.0
 30
0.0
  9
$UCSORTHOREF
  2

  9
$UCSORTHOVIEW
 70
     0
  9
$UCSORGTOP
 10
0.0
 20
0.0
 30
0.0
  9
$UCSORGBOTTOM
 10
0.0
 20
0.0
 30
0.0
  9
$UCSORGLEFT
 10
0.0
 20
0.0
 30
0.0
  9
$UCSORGRIGHT
 10
0.0
 20
0.0
 30
0.0
  9
$UCSORGFRONT
 10
0.0
 20
0.0
 30
0.0
  9
$UCSORGBACK
 10
0.0
 20
0.0
 30
0.0
  9
$PUCSBASE
  2

  9
$PUCSNAME
  2

  9
$PUCSORG
 10
0.0
 20
0.0
 30
0.0
  9
$PUCSXDIR
 10
1.0
 20
0.0
 30
0.0
  9
$PUCSYDIR
 10
0.0
 20
1.0
 30
0.0
  9
$PUCSORTHOREF
  2

  9
$PUCSORTHOVIEW
 70
     0
  9
$PUCSORGTOP
 10
0.0
 20
0.0
 30
0.0
  9
$PUCSORGBOTTOM
 10
0.0
 20
0.0
 30
0.0
  9
$PUCSORGLEFT
 10
0.0
 20
0.0
 30
0.0
  9
$PUCSORGRIGHT
 10
0.0
 20
0.0
 30
0.0
  9
$PUCSORGFRONT
 10
0.0
 20
0.0
 30
0.0
  9
$PUCSORGBACK
 10
0.0
 20
0.0
 30
0.0
  9
$USERI1
 70
     0
  9
$USERI2
 70
     0
  9
$USERI3
 70
     0
  9
$USERI4
 70
     0
  9
$USERI5
 70
     0
  9
$USERR1
 40
0.0
  9
$USERR2
 40
0.0
  9
$USERR3
 40
0.0
  9
$USERR4
 40
0.0
  9
$USERR5
 40
0.0
  9
$WORLDVIEW
 70
     1
  9
$SHADEDGE
 70
     3
  9
$SHADEDIF
 70
    70
  9
$TILEMODE
 70
     1
  9
$MAXACTVP
 70
    64
  9
$PINSBASE
 10
0.0
 20
0.0
 30
0.0
  9
$PLIMCHECK
 70
     0
  9
$PEXTMIN
 10
1.0000000000E+20
 20
1.0000000000E+20
 30
1.0000000000E+20
  9
$PEXTMAX
 10
-1.0000000000E+20
 20
-1.0000000000E+20
 30
-1.0000000000E+20
  9
$PLIMMIN
 10
0.0
 20
0.0
  9
$PLIMMAX
 10
420.0
 20
297.0
  9
$UNITMODE
 70
     0
  9
$VISRETAIN
 70
     1
  9
$PLINEGEN
 70
     0
  9
$PSLTSCALE
 70
     1
  9
$TREEDEPTH
 70
  3020
  9
$CMLSTYLE
  2
Standard
  9
$CMLJUST
 70
     0
  9
$CMLSCALE
 40
20.0
  9
$PROXYGRAPHICS
 70
     1
  9
$MEASUREMENT
 70
     1
  9
$CELWEIGHT
370
    -1
  9
$ENDCAPS
280
     0
  9
$JOINSTYLE
280
     0
  9
$LWDISPLAY
290
     1
  9
$INSUNITS
 70
     4
  9
$HYPERLINKBASE
  1

  9
$STYLESHEET
  1

  9
$XEDIT
290
     1
  9
$CEPSNTYPE
380
     0
  9
$PSTYLEMODE
290
     1
  9
$FINGERPRINTGUID
  2
{A95BC037-FF7B-4BE4-A23D-3310DBBC2092}
  9
$VERSIONGUID
  2
{FAEB1C32-E019-11D5-929B-00C0DF256EC4}
  9
$EXTNAMES
290
     1
  9
$PSVPSCALE
 40
0.0
  9
$OLESTARTUP
290
     0
  0
ENDSEC
  0
SECTION
  2
CLASSES
  0
CLASS
  1
ACDBDICTIONARYWDFLT
  2
AcDbDictionaryWithDefault
  3
ObjectDBX Classes
 90
        0
280
     0
281
     0
  0
CLASS
  1
VISUALSTYLE
  2
AcDbVisualStyle
  3
ObjectDBX Classes
 90
     4095
280
     0
281
     0
  0
CLASS
  1
MATERIAL
  2
AcDbMaterial
  3
ObjectDBX Classes
 90
     1153
280
     0
281
     0
  0
CLASS
  1
SCALE
  2
AcDbScale
  3
ObjectDBX Classes
 90
     1153
280
     0
281
     0
  0
CLASS
  1
SUN
  2
AcDbSun
  3
SCENEOE
 90
     1153
280
     0
281
     0
  0
CLASS
  1
ACDBPLACEHOLDER
  2
AcDbPlaceHolder
  3
ObjectDBX Classes
 90
        0
280
     0
281
     0
  0
CLASS
  1
LAYOUT
  2
AcDbLayout
  3
ObjectDBX Classes
 90
        0
280
     0
281
     0
  0
ENDSEC
  0
SECTION
  2
TABLES
  0
TABLE
  2
VPORT
  5
8
330
0
100
AcDbSymbolTable
 70
     1
  0
VPORT
  5
29
330
8
100
AcDbSymbolTableRecord
100
AcDbViewportTableRecord
  2
*Active
 70
     0
 10
0.0
 20
0.0
 11
1.0
 21
1.0
 12
105.0
 22
148.5
 13
0.0
 23
0.0
 14
10.0
 24
10.0
 15
10.0
 25
10.0
 16
0.0
 26
0.0
 36
1.0
 17
0.0
 27
0.0
 37
0.0
 40
297.0
 41
0.7070707071
 42
50.0
 43
0.0
 44
0.0
 50
0.0
 51
0.0
 71
     0
 72
  2000
 73
     1
 74
     3
 75
     0
 76
     0
 77
     0
 78
     0
281
     0
 65
     1
110
0.0
120
0.0
130
0.0
111
1.0
121
0.0
131
0.0
112
0.0
122
1.0
132
0.0
 79
     0
146
0.0
  0
ENDTAB
  0
TABLE
  2
LTYPE
  5
5
330
0
100
AcDbSymbolTable
 70
     6
  0
LTYPE
  5
14
330
5
100
AcDbSymbolTableRecord
100
AcDbLinetypeTableRecord
  2
ByBlock
 70
     0
  3

 72
    65
 73
     0
 40
0.0
  0
LTYPE
  5
15
330
5
100
AcDbSymbolTableRecord
100
AcDbLinetypeTableRecord
  2
ByLayer
 70
     0
  3

 72
    65
 73
     0
 40
0.0
  0
LTYPE
  5
16
330
5
100
AcDbSymbolTableRecord
100
AcDbLinetypeTableRecord
  2
Continuous
 70
     0
  3
Solid line
 72
    65
 73
     0
 40
0.0
  0
LTYPE
  5
6A
330
5
100
AcDbSymbolTableRecord
100
AcDbLinetypeTableRecord
  2
HIDDEN
 70
     0
  3
Hidden __ __ __ __ __ __ __ __ __ __ __ __ __ __
 72
    65
 73
     2
 40
1.905
 49
1.27
 74
     0
 49
-0.635
 74
     0
  0
LTYPE
  5
6B
330
5
100
AcDbSymbolTableRecord
100
AcDbLinetypeTableRecord
  2
PHANTOM
 70
     0
  3
Phantom ______  __  __  ______  __  __  ______
 72
    65
 73
     6
 40
12.7
 49
6.35
 74
     0
 49
-1.27
 74
     0
 49
1.27
 74
     0
 49
-1.27
 74
     0
 49
1.27
 74
     0
 49
-1.27
 74
     0
  0
LTYPE
  5
6C
330
5
100
AcDbSymbolTableRecord
100
AcDbLinetypeTableRecord
  2
CENTER
 70
     0
  3
Center ____ _ ____ _ ____ _ ____ _ ____ _ ____
 72
    65
 73
     4
 40
10.16
 49
6.35
 74
     0
 49
-1.27
 74
     0
 49
1.27
 74
     0
 49
-1.27
 74
     0
  0
LTYPE
  5
6D
330
5
100
AcDbSymbolTableRecord
100
AcDbLinetypeTableRecord
  2
CENTERX2
 70
     0
  3
Center (2x) ________  __  ________  __  _____
 72
    65
 73
     4
 40
20.32
 49
12.7
 74
     0
 49
-2.54
 74
     0
 49
2.54
 74
     0
 49
-2.54
 74
     0
  0
LTYPE
  5
6E
330
5
100
AcDbSymbolTableRecord
100
AcDbLinetypeTableRecord
  2
DOT2
 70
     0
  3
Dot (.5x) ........................................
 72
    65
 73
     2
 40
0.635
 49
0.0
 74
     0
 49
-0.635
 74
     0
  0
ENDTAB
  0
TABLE
  2
LAYER
  5
2
330
0
100
AcDbSymbolTable
 70
     1
  0
LAYER
  5
10
330
2
100
AcDbSymbolTableRecord
100
AcDbLayerTableRecord
  2
0
 70
     0
 62
     7
  6
Continuous
370
    -3
390
F
  0
ENDTAB
  0
TABLE
  2
STYLE
  5
3
330
0
100
AcDbSymbolTable
 70
     4
  0
STYLE
  5
11
330
3
100
AcDbSymbolTableRecord
100
AcDbTextStyleTableRecord
  2
Standard
 70
     0
 40
0.0
 41
1.0
 50
0.0
 71
     0
 42
3.5
  3
txt
  4
bigfont
  0
STYLE
  5
87
330
3
100
AcDbSymbolTableRecord
100
AcDbTextStyleTableRecord
  2
SLDTEXTSTYLE0
 70
     0
 40
0.0
 41
0.7
 50
0.0
 71
     0
 42
3.5
  3
TXT
  4
bigfont
  0
STYLE
  5
E6
330
3
100
AcDbSymbolTableRecord
100
AcDbTextStyleTableRecord
  2
SLDTEXTSTYLE1
 70
     0
 40
0.0
 41
0.6090909091
 50
0.0
 71
     0
 42
3.5
  3
TXT
  4
bigfont
  0
STYLE
  5
3B7
330
3
100
AcDbSymbolTableRecord
100
AcDbTextStyleTableRecord
  2
SLDTEXTSTYLE2
 70
     0
 40
0.0
 41
0.75
 50
0.0
 71
     0
 42
3.5
  3
TXT
  4
bigfont
  0
ENDTAB
  0
TABLE
  2
VIEW
  5
6
330
0
100
AcDbSymbolTable
 70
     0
  0
ENDTAB
  0
TABLE
  2
UCS
  5
7
330
0
100
AcDbSymbolTable
 70
     0
  0
ENDTAB
  0
TABLE
  2
APPID
  5
9
330
0
100
AcDbSymbolTable
 70
     1
  0
APPID
  5
12
330
9
100
AcDbSymbolTableRecord
100
AcDbRegAppTableRecord
  2
ACAD
 70
     0
  0
ENDTAB
  0
TABLE
  2
DIMSTYLE
  5
A
330
0
100
AcDbSymbolTable
 70
    15
100
AcDbDimStyleTable
  0
DIMSTYLE
105
27
330
A
100
AcDbSymbolTableRecord
100
AcDbDimStyleTableRecord
  2
ISO-25
 70
     0
 41
2.5
 42
0.625
 43
3.75
 44
1.25
 73
     0
 74
     0
 77
     1
 78
     8
140
2.5
141
2.5
143
0.0393700787
147
0.625
171
     3
172
     1
178
     0
271
     2
272
     2
274
     3
278
    44
283
     0
284
     8
340
11
  0
DIMSTYLE
105
88
102
{ACAD_REACTORS
330
86
102
}
330
A
100
AcDbSymbolTableRecord
100
AcDbDimStyleTableRecord
  2
SLDDIMSTYLE0
 70
     0
 41
1.5
 44
0.0
 45
0.000000001
 78
    12
 79
     3
140
3.5
141
0.0
147
0.875
172
     1
173
     1
178
     0
271
     2
272
     2
276
     2
284
    12
340
87
341
89
343
89
344
8C
  0
DIMSTYLE
105
9D
102
{ACAD_REACTORS
330
9C
330
A7
102
}
330
A
100
AcDbSymbolTableRecord
100
AcDbDimStyleTableRecord
  2
SLDDIMSTYLE1
 70
     0
 41
1.5
 44
0.0
 73
     0
 74
     0
 77
     3
 78
    12
 79
     3
140
3.5
147
0.875
173
     1
178
     0
179
     2
272
     2
276
     2
284
    12
340
87
341
8C
343
8C
344
8C
  0
DIMSTYLE
105
B2
102
{ACAD_REACTORS
330
B1
102
}
330
A
100
AcDbSymbolTableRecord
100
AcDbDimStyleTableRecord
  2
SLDDIMSTYLE2
 70
     0
 41
1.5
 44
0.0
 45
0.000000001
 47
0.1
 71
     1
 78
     8
 79
     2
140
3.5
141
0.0
147
0.875
172
     1
173
     1
178
     0
271
     2
272
     1
276
     2
284
     8
340
87
341
89
343
89
344
8C
  0
DIMSTYLE
105
14B
102
{ACAD_REACTORS
330
14A
330
189
330
49B
102
}
330
A
100
AcDbSymbolTableRecord
100
AcDbDimStyleTableRecord
  2
SLDDIMSTYLE3
 70
     0
 41
1.5
 44
0.0
 45
0.000000001
 73
     0
 74
     0
 77
     3
 78
    12
 79
     3
140
3.5
147
0.875
173
     1
178
     0
271
     1
272
     1
276
     2
284
    12
340
87
341
8C
343
8C
344
8C
  0
DIMSTYLE
105
156
102
{ACAD_REACTORS
330
155
102
}
330
A
100
AcDbSymbolTableRecord
100
AcDbDimStyleTableRecord
  2
SLDDIMSTYLE4
 70
     0
 41
1.5
 44
0.0
 45
0.000000001
 73
     0
 74
     0
 77
     3
 78
    12
 79
     3
140
3.5
147
0.875
172
     1
173
     1
178
     0
271
     6
272
     0
276
     2
284
    12
289
     0
340
87
341
8C
343
8C
344
8C
  0
DIMSTYLE
105
164
102
{ACAD_REACTORS
330
163
102
}
330
A
100
AcDbSymbolTableRecord
100
AcDbDimStyleTableRecord
  2
SLDDIMSTYLE5
 70
     0
 41
1.5
 44
0.0
 45
0.000000001
 47
0.05
 48
0.05
 71
     1
 73
     0
 74
     0
 77
     3
 78
     8
 79
     2
140
3.5
147
0.875
172
     1
173
     1
178
     0
271
     2
272
     2
276
     2
284
     8
289
     0
340
87
341
8C
343
8C
344
8C
  0
DIMSTYLE
105
171
102
{ACAD_REACTORS
330
170
330
42E
102
}
330
A
100
AcDbSymbolTableRecord
100
AcDbDimStyleTableRecord
  2
SLDDIMSTYLE6
 70
     0
 41
1.5
 44
0.0
 45
0.000000001
 73
     0
 74
     0
 77
     3
 78
    12
 79
     3
140
3.5
147
0.875
173
     1
178
     0
271
     1
272
     2
276
     2
284
    12
340
87
341
8C
343
8C
344
8C
  0
DIMSTYLE
105
17D
102
{ACAD_REACTORS
330
17C
330
2A7
102
}
330
A
100
AcDbSymbolTableRecord
100
AcDbDimStyleTableRecord
  2
SLDDIMSTYLE7
 70
     0
 41
1.5
 44
0.0
 45
0.000000001
 73
     0
 74
     0
 77
     3
 78
    12
 79
     3
140
3.5
147
0.875
172
     1
173
     1
178
     0
271
     1
272
     1
276
     2
284
    12
289
     0
340
87
341
8C
343
8C
344
8C
  0
DIMSTYLE
105
195
102
{ACAD_REACTORS
330
194
330
29C
102
}
330
A
100
AcDbSymbolTableRecord
100
AcDbDimStyleTableRecord
  2
SLDDIMSTYLE8
 70
     0
 41
1.5
 44
0.0
 45
0.000000001
 73
     0
 74
     0
 77
     3
 78
    12
 79
     3
140
3.5
147
0.875
173
     1
178
     0
271
     6
272
     2
276
     2
284
    12
340
87
341
8C
343
8C
344
8C
  0
DIMSTYLE
105
1A0
102
{ACAD_REACTORS
330
19F
102
}
330
A
100
AcDbSymbolTableRecord
100
AcDbDimStyleTableRecord
  2
SLDDIMSTYLE9
 70
     0
 41
1.5
 44
0.0
 45
0.000000001
 73
     0
 74
     0
 77
     3
 78
    12
 79
     3
140
3.5
147
0.875
172
     1
173
     1
178
     0
271
     2
272
     2
276
     2
284
    12
289
     0
340
87
341
8C
343
8C
344
8C
  0
DIMSTYLE
105
27B
102
{ACAD_REACTORS
330
27A
102
}
330
A
100
AcDbSymbolTableRecord
100
AcDbDimStyleTableRecord
  2
SLDDIMSTYLE10
 70
     0
 41
1.5
 44
0.0
 45
0.000000001
 47
0.2
 48
0.2
 71
     1
 78
    12
 79
     3
140
3.5
141
0.0
147
0.875
172
     1
173
     1
178
     0
271
     2
272
     1
276
     2
284
     8
340
87
341
89
343
89
344
8C
  0
DIMSTYLE
105
288
102
{ACAD_REACTORS
330
287
330
292
102
}
330
A
100
AcDbSymbolTableRecord
100
AcDbDimStyleTableRecord
  2
SLDDIMSTYLE11
 70
     0
 41
1.5
 44
0.0
 73
     0
 74
     0
 77
     3
 78
    12
 79
     3
140
3.5
147
0.875
173
     1
178
     0
179
     2
272
     2
276
     2
284
    12
340
87
341
8C
343
8C
344
8C
  0
DIMSTYLE
105
2B6
330
A
100
AcDbSymbolTableRecord
100
AcDbDimStyleTableRecord
  2
SLDDIMSTYLE12
 70
     0
 41
1.5
 44
0.0
 45
0.000000001
146
1.5
147
0.0
173
     1
178
     0
271
     0
272
     0
276
     2
340
11
341
8C
343
8C
344
8C
  0
DIMSTYLE
105
41D
102
{ACAD_REACTORS
330
41C
102
}
330
A
100
AcDbSymbolTableRecord
100
AcDbDimStyleTableRecord
  2
SLDDIMSTYLE13
 70
     0
 41
1.5
 44
0.0
 45
0.000000001
 47
0.2
 71
     1
 73
     0
 74
     0
 77
     3
 78
    12
 79
     3
140
3.5
147
0.875
173
     1
178
     0
271
     1
272
     1
276
     2
284
     8
340
87
341
8C
343
8C
344
8C
  0
ENDTAB
  0
TABLE
  2
BLOCK_RECORD
  5
1
330
0
100
AcDbSymbolTable
 70
    28
  0
BLOCK_RECORD
  5
1F
330
1
100
AcDbSymbolTableRecord
100
AcDbBlockTableRecord
  2
*Model_Space
340
22
  0
BLOCK_RECORD
  5
1B
330
1
100
AcDbSymbolTableRecord
100
AcDbBlockTableRecord
  2
*Paper_Space
340
1E
  0
BLOCK_RECORD
  5
23
330
1
100
AcDbSymbolTableRecord
100
AcDbBlockTableRecord
  2
*Paper_Space0
340
26
  0
BLOCK_RECORD
  5
89
330
1
100
AcDbSymbolTableRecord
100
AcDbBlockTableRecord
  2
_NONE
340
0
  0
BLOCK_RECORD
  5
8C
330
1
100
AcDbSymbolTableRecord
100
AcDbBlockTableRecord
  2
_OPEN30
340
0
102
{BLKREFS
331
95
331
A2
331
A3
331
AC
331
AD
331
B6
331
14F
331
150
331
15A
331
15B
331
168
331
169
331
175
331
176
331
181
331
182
331
18D
331
18E
331
199
331
19A
331
1A4
331
1A5
331
1B2
331
1B4
331
27F
331
28D
331
28E
331
297
331
298
331
2A0
331
2A1
331
2AB
331
2AC
331
421
331
422
331
432
331
433
331
49F
331
4A0
102
}
  0
BLOCK_RECORD
  5
92
330
1
100
AcDbSymbolTableRecord
100
AcDbBlockTableRecord
  2
_D
340
0
  0
BLOCK_RECORD
  5
9E
330
1
100
AcDbSymbolTableRecord
100
AcDbBlockTableRecord
  2
_D_1
340
0
  0
BLOCK_RECORD
  5
A8
330
1
100
AcDbSymbolTableRecord
100
AcDbBlockTableRecord
  2
_D_2
340
0
  0
BLOCK_RECORD
  5
B3
330
1
100
AcDbSymbolTableRecord
100
AcDbBlockTableRecord
  2
_D_3
340
0
  0
BLOCK_RECORD
  5
C2
330
1
100
AcDbSymbolTableRecord
100
AcDbBlockTableRecord
  2
SW_NOTE_0
340
0
102
{BLKREFS
331
C8
102
}
  0
BLOCK_RECORD
  5
C9
330
1
100
AcDbSymbolTableRecord
100
AcDbBlockTableRecord
  2
SW_NOTE_1
340
0
102
{BLKREFS
331
CE
102
}
  0
BLOCK_RECORD
  5
E3
330
1
100
AcDbSymbolTableRecord
100
AcDbBlockTableRecord
  2
SW_NOTE_2
340
0
102
{BLKREFS
331
E9
102
}
  0
BLOCK_RECORD
  5
EA
330
1
100
AcDbSymbolTableRecord
100
AcDbBlockTableRecord
  2
SW_NOTE_3
340
0
102
{BLKREFS
331
F1
102
}
  0
BLOCK_RECORD
  5
14C
330
1
100
AcDbSymbolTableRecord
100
AcDbBlockTableRecord
  2
_D_4
340
0
  0
BLOCK_RECORD
  5
157
330
1
100
AcDbSymbolTableRecord
100
AcDbBlockTableRecord
  2
_D_5
340
0
  0
BLOCK_RECORD
  5
165
330
1
100
AcDbSymbolTableRecord
100
AcDbBlockTableRecord
  2
_D_6
340
0
  0
BLOCK_RECORD
  5
172
330
1
100
AcDbSymbolTableRecord
100
AcDbBlockTableRecord
  2
_D_7
340
0
  0
BLOCK_RECORD
  5
17E
330
1
100
AcDbSymbolTableRecord
100
AcDbBlockTableRecord
  2
_D_8
340
0
  0
BLOCK_RECORD
  5
18A
330
1
100
AcDbSymbolTableRecord
100
AcDbBlockTableRecord
  2
_D_9
340
0
  0
BLOCK_RECORD
  5
196
330
1
100
AcDbSymbolTableRecord
100
AcDbBlockTableRecord
  2
_D_10
340
0
  0
BLOCK_RECORD
  5
1A1
330
1
100
AcDbSymbolTableRecord
100
AcDbBlockTableRecord
  2
_D_11
340
0
  0
BLOCK_RECORD
  5
27C
330
1
100
AcDbSymbolTableRecord
100
AcDbBlockTableRecord
  2
_D_12
340
0
  0
BLOCK_RECORD
  5
289
330
1
100
AcDbSymbolTableRecord
100
AcDbBlockTableRecord
  2
_D_13
340
0
  0
BLOCK_RECORD
  5
293
330
1
100
AcDbSymbolTableRecord
100
AcDbBlockTableRecord
  2
_D_14
340
0
  0
BLOCK_RECORD
  5
29D
330
1
100
AcDbSymbolTableRecord
100
AcDbBlockTableRecord
  2
_D_15
340
0
  0
BLOCK_RECORD
  5
2A8
330
1
100
AcDbSymbolTableRecord
100
AcDbBlockTableRecord
  2
_D_16
340
0
  0
BLOCK_RECORD
  5
3B4
330
1
100
AcDbSymbolTableRecord
100
AcDbBlockTableRecord
  2
SW_NOTE_4
340
0
102
{BLKREFS
331
3BA
102
}
  0
BLOCK_RECORD
  5
41E
330
1
100
AcDbSymbolTableRecord
100
AcDbBlockTableRecord
  2
_D_17
340
0
  0
BLOCK_RECORD
  5
42F
330
1
100
AcDbSymbolTableRecord
100
AcDbBlockTableRecord
  2
_D_18
340
0
  0
BLOCK_RECORD
  5
49C
330
1
100
AcDbSymbolTableRecord
100
AcDbBlockTableRecord
  2
_D_19
340
0
  0
ENDTAB
  0
ENDSEC
  0
SECTION
  2
BLOCKS
  0
BLOCK
  5
20
330
1F
100
AcDbEntity
  8
0
100
AcDbBlockBegin
  2
*Model_Space
 70
     0
 10
0.0
 20
0.0
 30
0.0
  3
*Model_Space
  1
*Model_Space
  0
ENDBLK
  5
21
330
1F
100
AcDbEntity
  8
0
100
AcDbBlockEnd
  0
BLOCK
  5
1C
330
1B
100
AcDbEntity
 67
     1
  8
0
100
AcDbBlockBegin
  2
*Paper_Space
 70
     0
 10
0.0
 20
0.0
 30
0.0
  3
*Paper_Space
  1
*Paper_Space
  0
ENDBLK
  5
1D
330
1B
100
AcDbEntity
 67
     1
  8
0
100
AcDbBlockEnd
  0
BLOCK
  5
24
330
23
100
AcDbEntity
  8
0
100
AcDbBlockBegin
  2
*Paper_Space0
 70
     0
 10
0.0
 20
0.0
 30
0.0
  3
*Paper_Space0
  1
*Paper_Space0
  0
ENDBLK
  5
25
330
23
100
AcDbEntity
  8
0
100
AcDbBlockEnd
  0
BLOCK
  5
8A
330
89
100
AcDbEntity
  8
0
100
AcDbBlockBegin
  2
_NONE
 70
     0
 10
0.0
 20
0.0
 30
0.0
  3
_NONE
  1
_NONE
  0
ENDBLK
  5
8B
330
89
100
AcDbEntity
  8
0
100
AcDbBlockEnd
  0
BLOCK
  5
8D
330
8C
100
AcDbEntity
  8
0
100
AcDbBlockBegin
  2
_OPEN30
 70
     0
 10
0.0
 20
0.0
 30
0.0
  3
_OPEN30
  1
_OPEN30
  0
LINE
  5
8F
330
8C
100
AcDbEntity
  8
0
  6
ByBlock
 62
     0
370
    -2
100
AcDbLine
 10
-1.0
 20
0.267949
 30
0.0
 11
0.0
 21
0.0
 31
0.0
  0
LINE
  5
90
330
8C
100
AcDbEntity
  8
0
  6
ByBlock
 62
     0
370
    -2
100
AcDbLine
 10
0.0
 20
0.0
 30
0.0
 11
-1.0
 21
-0.267949
 31
0.0
  0
LINE
  5
91
330
8C
100
AcDbEntity
  8
0
  6
ByBlock
 62
     0
370
    -2
100
AcDbLine
 10
0.0
 20
0.0
 30
0.0
 11
-1.0
 21
0.0
 31
0.0
  0
ENDBLK
  5
8E
330
8C
100
AcDbEntity
  8
0
100
AcDbBlockEnd
  0
BLOCK
  5
93
330
92
100
AcDbEntity
  8
0
100
AcDbBlockBegin
  2
_D
 70
     0
 10
0.0
 20
0.0
 30
0.0
  3
_D
  1
_D
  0
INSERT
  5
95
330
92
100
AcDbEntity
  8
0
  6
Continuous
 62
     7
370
     0
100
AcDbBlockReference
  2
_OPEN30
 10
49.8217118314
 20
125.6768594977
 30
0.1
 41
1.5
 42
1.5
 50
41.1443632207
  0
LINE
  5
96
330
92
100
AcDbEntity
  8
0
  6
Continuous
 62
     7
370
     0
100
AcDbLine
 10
49.8217118314
 20
125.6768594977
 30
0.0
 11
44.1895096072
 21
120.755891542
 31
0.0
  0
LINE
  5
97
330
92
100
AcDbEntity
  8
0
  6
Continuous
 62
     7
370
     0
100
AcDbLine
 10
53.6472270208
 20
129.0192887842
 30
0.0
 11
49.8217118314
 21
125.6768594977
 31
0.0
  0
LINE
  5
98
330
92
100
AcDbEntity
  8
0
  6
Continuous
 62
     7
370
     0
100
AcDbLine
 10
44.1895096072
 20
120.755891542
 30
0.0
 11
22.8216624835
 21
120.755891542
 31
0.0
  0
MTEXT
  5
99
330
92
100
AcDbEntity
  8
0
  6
Continuous
 62
     7
370
     0
100
AcDbMText
 10
22.8216624835
 20
125.2676288641
 30
0.0
 40
3.5
 41
0.0
 71
     1
 72
     1
  1
%%c
  7
SLDTEXTSTYLE0
 73
     1
 44
1.0
  0
MTEXT
  5
9A
330
92
100
AcDbEntity
  8
0
  6
Continuous
 62
     7
370
     0
100
AcDbMText
 10
26.6915929986
 20
125.2676288641
 30
0.0
 40
3.5
 41
0.0
 71
     1
 72
     1
  1
5.08
  7
SLDTEXTSTYLE0
 73
     1
 44
1.0
  0
MTEXT
  5
9B
330
92
100
AcDbEntity
  8
0
  6
Continuous
 62
     7
370
     0
100
AcDbMText
 10
33.6283980885
 20
125.2676288641
 30
0.0
 40
3.5
 41
0.0
 71
     1
 72
     1
  1
±0.1
  7
SLDTEXTSTYLE0
 73
     1
 44
1.0
  0
ENDBLK
  5
94
330
92
100
AcDbEntity
  8
0
100
AcDbBlockEnd
  0
BLOCK
  5
9F
330
9E
100
AcDbEntity
  8
0
100
AcDbBlockBegin
  2
_D_1
 70
     0
 10
0.0
 20
0.0
 30
0.0
  3
_D_1
  1
_D_1
  0
ARC
  5
A1
330
9E
100
AcDbEntity
  8
0
  6
Continuous
 62
     7
370
     0
100
AcDbCircle
 10
51.7344694261
 20
127.3480741409
 30
0.0
 40
16.68740954512761
100
AcDbArc
 50
0.0
 51
45.0
  0
INSERT
  5
A2
330
9E
100
AcDbEntity
  8
0
  6
Continuous
 62
     7
370
     0
100
AcDbBlockReference
  2
_OPEN30
 10
68.4218789712
 20
127.3480741409
 30
0.1
 41
1.5
 42
1.5
 50
272.5682030927
  0
INSERT
  5
A3
330
9E
100
AcDbEntity
  8
0
  6
Continuous
 62
     7
370
     0
100
AcDbBlockReference
  2
_OPEN30
 10
63.5342498759
 20
139.1478545907
 30
0.1
 41
1.5
 42
1.5
 50
132.4317969073
  0
LINE
  5
A4
330
9E
100
AcDbEntity
  8
0
  6
Continuous
 62
     7
370
     0
100
AcDbLine
 10
56.6741111514
 20
127.3480741409
 30
0.0
 11
69.4218789712
 21
127.3480741409
 31
0.0
  0
LINE
  5
A5
330
9E
100
AcDbEntity
  8
0
  6
Continuous
 62
     7
370
     0
100
AcDbLine
 10
54.2376274315
 20
129.8512321463
 30
0.0
 11
64.2413566571
 21
139.8549613719
 31
0.0
  0
MTEXT
  5
A6
330
9E
100
AcDbEntity
  8
0
  6
Continuous
 62
     7
370
     0
100
AcDbMText
 10
70.9943052883
 20
137.0977837393
 30
0.0
 40
3.5
 41
0.0
 71
     1
 72
     1
  1
45°
  7
SLDTEXTSTYLE0
 11
0.2751694437706695
 21
-0.9613957443295349
 31
0.0
 73
     1
 44
1.0
  0
ENDBLK
  5
A0
330
9E
100
AcDbEntity
  8
0
100
AcDbBlockEnd
  0
BLOCK
  5
A9
330
A8
100
AcDbEntity
  8
0
100
AcDbBlockBegin
  2
_D_2
 70
     0
 10
0.0
 20
0.0
 30
0.0
  3
_D_2
  1
_D_2
  0
ARC
  5
AB
330
A8
100
AcDbEntity
  8
0
  6
Continuous
 62
     7
370
     0
100
AcDbCircle
 10
51.7344694261
 20
127.3480741409
 30
0.0
 40
16.5504509358092
100
AcDbArc
 50
315.0
 51
0.0
  0
INSERT
  5
AC
330
A8
100
AcDbEntity
  8
0
  6
Continuous
 62
     7
370
     0
100
AcDbBlockReference
  2
_OPEN30
 10
63.4374055145
 20
115.6451380525
 30
0.1
 41
1.5
 42
1.5
 50
227.5893404481
  0
INSERT
  5
AD
330
A8
100
AcDbEntity
  8
0
  6
Continuous
 62
     7
370
     0
100
AcDbBlockReference
  2
_OPEN30
 10
68.2849203619
 20
127.3480741409
 30
0.1
 41
1.5
 42
1.5
 50
87.4106595519
  0
LINE
  5
AE
330
A8
100
AcDbEntity
  8
0
  6
Continuous
 62
     7
370
     0
100
AcDbLine
 10
54.2376274315
 20
124.8449161355
 30
0.0
 11
64.1445122957
 21
114.9380312713
 31
0.0
  0
LINE
  5
AF
330
A8
100
AcDbEntity
  8
0
  6
Continuous
 62
     7
370
     0
100
AcDbLine
 10
56.6741111514
 20
127.3480741409
 30
0.0
 11
69.2849203619
 21
127.3480741409
 31
0.0
  0
MTEXT
  5
B0
330
A8
100
AcDbEntity
  8
0
  6
Continuous
 62
     7
370
     0
100
AcDbMText
 10
62.4034185962
 20
120.4416664764
 30
0.0
 40
3.5
 41
0.0
 71
     1
 72
     1
  1
45°
  7
SLDTEXTSTYLE0
 11
0.2456779600317693
 21
0.9693515048498291
 31
0.0
 73
     1
 44
1.0
  0
ENDBLK
  5
AA
330
A8
100
AcDbEntity
  8
0
100
AcDbBlockEnd
  0
BLOCK
  5
B4
330
B3
100
AcDbEntity
  8
0
100
AcDbBlockBegin
  2
_D_3
 70
     0
 10
0.0
 20
0.0
 30
0.0
  3
_D_3
  1
_D_3
  0
INSERT
  5
B6
330
B3
100
AcDbEntity
  8
0
  6
Continuous
 62
     7
370
     0
100
AcDbBlockReference
  2
_OPEN30
 10
49.7313529489
 20
129.3946228322
 30
0.1
 41
1.5
 42
1.5
 50
309.5776854325
  0
LINE
  5
B7
330
B3
100
AcDbEntity
  8
0
  6
Continuous
 62
     7
370
     0
100
AcDbLine
 10
49.7313529489
 20
129.3946228322
 30
0.0
 11
45.827703222
 21
134.1170683174
 31
0.0
  0
LINE
  5
B8
330
B3
100
AcDbEntity
  8
0
  6
Continuous
 62
     7
370
     0
100
AcDbLine
 10
50.1454834548
 20
128.8936278981
 30
0.0
 11
49.7313529489
 21
129.3946228322
 31
0.0
  0
LINE
  5
B9
330
B3
100
AcDbEntity
  8
0
  6
Continuous
 62
     7
370
     0
100
AcDbLine
 10
45.827703222
 20
134.1170683174
 30
0.0
 11
21.1834688687
 21
134.1170683174
 31
0.0
  0
MTEXT
  5
BA
330
B3
100
AcDbEntity
  8
0
  6
Continuous
 62
     7
370
     0
100
AcDbMText
 10
21.1834688687
 20
138.628806105
 30
0.0
 40
3.5
 41
0.0
 71
     1
 72
     1
  1
3-
  7
SLDTEXTSTYLE0
 73
     1
 44
1.0
  0
MTEXT
  5
BB
330
B3
100
AcDbEntity
  8
0
  6
Continuous
 62
     7
370
     0
100
AcDbMText
 10
25.2570798637
 20
138.628806105
 30
0.0
 40
3.5
 41
0.0
 71
     1
 72
     1
  1
%%c
  7
SLDTEXTSTYLE0
 73
     1
 44
1.0
  0
MTEXT
  5
BC
330
B3
100
AcDbEntity
  8
0
  6
Continuous
 62
     7
370
     0
100
AcDbMText
 10
29.1270106116
 20
138.628806105
 30
0.0
 40
3.5
 41
0.0
 71
     1
 72
     1
  1
0.65
  7
SLDTEXTSTYLE0
 73
     1
 44
1.0
  0
MTEXT
  5
BD
330
B3
100
AcDbEntity
  8
0
  6
Continuous
 62
     7
370
     0
100
AcDbMText
 10
37.2669409343
 20
138.628806105
 30
0.0
 40
3.5
 41
0.0
 71
     1
 72
     1
  1

  7
SLDTEXTSTYLE0
 73
     1
 44
1.0
  0
MTEXT
  5
BE
330
B3
100
AcDbEntity
  8
0
  6
Continuous
 62
     7
370
     0
100
AcDbMText
 10
37.3033997619
 20
142.7024171
 30
0.0
 40
3.5
 41
0.0
 71
     1
 72
     1
  1
+
  7
SLDTEXTSTYLE0
 73
     1
 44
1.0
  0
MTEXT
  5
BF
330
B3
100
AcDbEntity
  8
0
  6
Continuous
 62
     7
370
     0
100
AcDbMText
 10
38.9051358297
 20
138.628806105
 30
0.0
 40
3.5
 41
0.0
 71
     1
 72
     1
  1

  7
SLDTEXTSTYLE0
 73
     1
 44
1.0
  0
MTEXT
  5
C0
330
B3
100
AcDbEntity
  8
0
  6
Continuous
 62
     7
370
     0
100
AcDbMText
 10
39.3402040952
 20
142.7024171
 30
0.0
 40
3.5
 41
0.0
 71
     1
 72
     1
  1
0.1
  7
SLDTEXTSTYLE0
 73
     1
 44
1.0
  0
MTEXT
  5
C1
330
B3
100
AcDbEntity
  8
0
  6
Continuous
 62
     7
370
     0
100
AcDbMText
 10
39.3402040952
 20
138.628806105
 30
0.0
 40
3.5
 41
0.0
 71
     1
 72
     1
  1
0
  7
SLDTEXTSTYLE0
 73
     1
 44
1.0
  0
ENDBLK
  5
B5
330
B3
100
AcDbEntity
  8
0
100
AcDbBlockEnd
  0
BLOCK
  5
C3
330
C2
100
AcDbEntity
  8
0
100
AcDbBlockBegin
  2
SW_NOTE_0
 70
     0
 10
0.0
 20
0.0
 30
0.0
  3
SW_NOTE_0
  1
SW_NOTE_0
  0
MTEXT
  5
C5
330
C2
100
AcDbEntity
  8
0
  6
Continuous
 62
     0
370
     0
100
AcDbMText
 10
0.0
 20
4.5117370892
 30
0.0
 40
3.5
 41
0.0
 71
     1
 72
     1
  1
Recommended
  7
SLDTEXTSTYLE0
 73
     1
 44
1.0
  0
MTEXT
  5
C6
330
C2
100
AcDbEntity
  8
0
  6
Continuous
 62
     0
370
     0
100
AcDbMText
 10
0.0
 20
0.0117372829
 30
0.0
 40
3.5
 41
0.0
 71
     1
 72
     1
  1
panel mouting hole
  7
SLDTEXTSTYLE0
 73
     1
 44
1.0
  0
MTEXT
  5
C7
330
C2
100
AcDbEntity
  8
0
  6
Continuous
 62
     0
370
     0
100
AcDbMText
 10
0.0
 20
-4.4882625234
 30
0.0
 40
3.5
 41
0.0
 71
     1
 72
     1
  1
dimensions
  7
SLDTEXTSTYLE0
 73
     1
 44
1.0
  0
ENDBLK
  5
C4
330
C2
100
AcDbEntity
  8
0
100
AcDbBlockEnd
  0
BLOCK
  5
CA
330
C9
100
AcDbEntity
  8
0
100
AcDbBlockBegin
  2
SW_NOTE_1
 70
     0
 10
0.0
 20
0.0
 30
0.0
  3
SW_NOTE_1
  1
SW_NOTE_1
  0
MTEXT
  5
CC
330
C9
100
AcDbEntity
  8
0
  6
Continuous
 62
     0
370
     0
100
AcDbMText
 10
0.0
 20
4.5117370892
 30
0.0
 40
3.5
 41
0.0
 71
     1
 72
     1
  1
Recommended
  7
SLDTEXTSTYLE0
 73
     1
 44
1.0
  0
MTEXT
  5
CD
330
C9
100
AcDbEntity
  8
0
  6
Continuous
 62
     0
370
     0
100
AcDbMText
 10
0.0
 20
0.0117372829
 30
0.0
 40
3.5
 41
0.0
 71
     1
 72
     1
  1
PC board pattern
  7
SLDTEXTSTYLE0
 73
     1
 44
1.0
  0
ENDBLK
  5
CB
330
C9
100
AcDbEntity
  8
0
100
AcDbBlockEnd
  0
BLOCK
  5
E4
330
E3
100
AcDbEntity
  8
0
100
AcDbBlockBegin
  2
SW_NOTE_2
 70
     0
 10
0.0
 20
0.0
 30
0.0
  3
SW_NOTE_2
  1
SW_NOTE_2
  0
MTEXT
  5
E7
330
E3
100
AcDbEntity
  8
0
  6
Continuous
 62
     0
370
     0
100
AcDbMText
 10
0.0
 20
4.7749217527
 30
0.0
 40
3.7041666667
 41
0.0
 71
     1
 72
     1
  1
±0.5     mm
  7
SLDTEXTSTYLE1
 73
     1
 44
1.0
  0
MTEXT
  5
E8
330
E3
100
AcDbEntity
  8
0
  6
Continuous
 62
     0
370
     0
100
AcDbMText
 10
0.0
 20
-0.1639670765
 30
0.0
 40
3.7041666667
 41
0.0
 71
     1
 72
     1
  1
(±0.020 inch)
  7
SLDTEXTSTYLE0
 73
     1
 44
1.0
  0
ENDBLK
  5
E5
330
E3
100
AcDbEntity
  8
0
100
AcDbBlockEnd
  0
BLOCK
  5
EB
330
EA
100
AcDbEntity
  8
0
100
AcDbBlockBegin
  2
SW_NOTE_3
 70
     0
 10
0.0
 20
0.0
 30
0.0
  3
SW_NOTE_3
  1
SW_NOTE_3
  0
MTEXT
  5
ED
330
EA
100
AcDbEntity
  8
0
  6
Continuous
 62
     0
370
     0
100
AcDbMText
 10
0.0
 20
4.7749217527
 30
0.0
 40
3.7041666667
 41
0.0
 71
     1
 72
     1
  1
Note1 : In oredr to ensure proper detection, install it with
  7
SLDTEXTSTYLE0
 73
     1
 44
1.0
  0
MTEXT
  5
EE
330
EA
100
AcDbEntity
  8
0
  6
Continuous
 62
     0
370
     0
100
AcDbMText
 10
14.0063802083
 20
-0.1639670765
 30
0.0
 40
3.7041666667
 41
0.0
 71
     1
 72
     1
  1
the lens exposed at least 5.1mm (0.201inch)
  7
SLDTEXTSTYLE0
 73
     1
 44
1.0
  0
MTEXT
  5
EF
330
EA
100
AcDbEntity
  8
0
  6
Continuous
 62
     0
370
     0
100
AcDbMText
 10
0.0
 20
-5.1028559057
 30
0.0
 40
3.7041666667
 41
0.0
 71
     1
 72
     1
  1
Note2 : As for panel mouting hole, tapering or making
  7
SLDTEXTSTYLE0
 73
     1
 44
1.0
  0
MTEXT
  5
F0
330
EA
100
AcDbEntity
  8
0
  6
Continuous
 62
     0
370
     0
100
AcDbMText
 10
14.0063802083
 20
-10.0417447349
 30
0.0
 40
3.7041666667
 41
0.0
 71
     1
 72
     1
  1
a large size hole should be done.
  7
SLDTEXTSTYLE0
 73
     1
 44
1.0
  0
ENDBLK
  5
EC
330
EA
100
AcDbEntity
  8
0
100
AcDbBlockEnd
  0
BLOCK
  5
14D
330
14C
100
AcDbEntity
  8
0
100
AcDbBlockBegin
  2
_D_4
 70
     0
 10
0.0
 20
0.0
 30
0.0
  3
_D_4
  1
_D_4
  0
INSERT
  5
14F
330
14C
100
AcDbEntity
  8
0
  6
Continuous
 62
     7
370
     0
100
AcDbBlockReference
  2
_OPEN30
 10
173.429508107
 20
219.6015990867
 30
0.1
 41
1.5
 42
1.5
 50
90.0
  0
INSERT
  5
150
330
14C
100
AcDbEntity
  8
0
  6
Continuous
 62
     7
370
     0
100
AcDbBlockReference
  2
_OPEN30
 10
173.429508107
 20
198.8042105802
 30
0.1
 41
1.5
 42
1.5
 50
270.0
  0
LINE
  5
151
330
14C
100
AcDbEntity
  8
0
  6
Continuous
 62
     7
370
     0
100
AcDbLine
 10
147.4238058906
 20
219.6015990867
 30
0.0
 11
174.429508107
 21
219.6015990867
 31
0.0
  0
LINE
  5
152
330
14C
100
AcDbEntity
  8
0
  6
Continuous
 62
     7
370
     0
100
AcDbLine
 10
152.944508107
 20
198.8042105802
 30
0.0
 11
174.429508107
 21
198.8042105802
 31
0.0
  0
LINE
  5
153
330
14C
100
AcDbEntity
  8
0
  6
Continuous
 62
     7
370
     0
100
AcDbLine
 10
173.429508107
 20
219.6015990867
 30
0.0
 11
173.429508107
 21
198.8042105802
 31
0.0
  0
MTEXT
  5
154
330
14C
100
AcDbEntity
  8
0
  6
Continuous
 62
     7
370
     0
100
AcDbMText
 10
168.9177712507
 20
204.6028708427
 30
0.0
 40
3.5
 41
0.0
 71
     1
 72
     1
  1
20.8
  7
SLDTEXTSTYLE0
 11
-7.044195017643634E-15
 21
1.0
 31
0.0
 73
     1
 44
1.0
  0
ENDBLK
  5
14E
330
14C
100
AcDbEntity
  8
0
100
AcDbBlockEnd
  0
BLOCK
  5
158
330
157
100
AcDbEntity
  8
0
100
AcDbBlockBegin
  2
_D_5
 70
     0
 10
0.0
 20
0.0
 30
0.0
  3
_D_5
  1
_D_5
  0
INSERT
  5
15A
330
157
100
AcDbEntity
  8
0
  6
Continuous
 62
     7
370
     0
100
AcDbBlockReference
  2
_OPEN30
 10
151.944508107
 20
187.4510102373
 30
0.15
 41
1.5
 42
1.5
 50
180.0
  0
INSERT
  5
15B
330
157
100
AcDbEntity
  8
0
  6
Continuous
 62
     7
370
     0
100
AcDbBlockReference
  2
_OPEN30
 10
140.914508107
 20
187.4510102373
 30
0.15
 41
1.5
 42
1.5
 50
0.0
  0
LINE
  5
15C
330
157
100
AcDbEntity
  8
0
  6
Continuous
 62
     7
370
     0
100
AcDbLine
 10
151.944508107
 20
197.8042105802
 30
0.0
 11
151.944508107
 21
186.4510102373
 31
0.0
  0
LINE
  5
15D
330
157
100
AcDbEntity
  8
0
  6
Continuous
 62
     7
370
     0
100
AcDbLine
 10
140.914508107
 20
197.8042105802
 30
0.0
 11
140.914508107
 21
186.4510102373
 31
0.0
  0
LINE
  5
15E
330
157
100
AcDbEntity
  8
0
  6
Continuous
 62
     7
370
     0
100
AcDbLine
 10
151.944508107
 20
187.4510102373
 30
0.0
 11
154.944508107
 21
187.4510102373
 31
0.0
  0
LINE
  5
15F
330
157
100
AcDbEntity
  8
0
  6
Continuous
 62
     7
370
     0
100
AcDbLine
 10
151.944508107
 20
187.4510102373
 30
0.0
 11
140.914508107
 21
187.4510102373
 31
0.0
  0
LINE
  5
160
330
157
100
AcDbEntity
  8
0
  6
Continuous
 62
     7
370
     0
100
AcDbLine
 10
140.914508107
 20
187.4510102373
 30
0.0
 11
137.914508107
 21
187.4510102373
 31
0.0
  0
MTEXT
  5
161
330
157
100
AcDbEntity
  8
0
  6
Continuous
 62
     7
370
     0
100
AcDbMText
 10
141.5320571365
 20
191.9627475593
 30
0.0
 40
3.5
 41
0.0
 71
     1
 72
     1
  1
%%c
  7
SLDTEXTSTYLE0
 73
     1
 44
1.0
  0
MTEXT
  5
162
330
157
100
AcDbEntity
  8
0
  6
Continuous
 62
     7
370
     0
100
AcDbMText
 10
145.4019876516
 20
191.9627475593
 30
0.0
 40
3.5
 41
0.0
 71
     1
 72
     1
  1
11
  7
SLDTEXTSTYLE0
 73
     1
 44
1.0
  0
ENDBLK
  5
159
330
157
100
AcDbEntity
  8
0
100
AcDbBlockEnd
  0
BLOCK
  5
166
330
165
100
AcDbEntity
  8
0
100
AcDbBlockBegin
  2
_D_6
 70
     0
 10
0.0
 20
0.0
 30
0.0
  3
_D_6
  1
_D_6
  0
INSERT
  5
168
330
165
100
AcDbEntity
  8
0
  6
Continuous
 62
     7
370
     0
100
AcDbBlockReference
  2
_OPEN30
 10
144.4084568828
 20
195.4019406907
 30
0.15
 41
1.5
 42
1.5
 50
0.0
  0
INSERT
  5
169
330
165
100
AcDbEntity
  8
0
  6
Continuous
 62
     7
370
     0
100
AcDbBlockReference
  2
_OPEN30
 10
144.8584568828
 20
195.4019406907
 30
0.15
 41
1.5
 42
1.5
 50
180.0
  0
LINE
  5
16A
330
165
100
AcDbEntity
  8
0
  6
Continuous
 62
     7
370
     0
100
AcDbLine
 10
144.4084568828
 20
195.4019406907
 30
0.0
 11
112.4397904622
 21
195.4019406907
 31
0.0
  0
LINE
  5
16B
330
165
100
AcDbEntity
  8
0
  6
Continuous
 62
     7
370
     0
100
AcDbLine
 10
144.4084568828
 20
195.4019406907
 30
0.0
 11
144.8584568828
 21
195.4019406907
 31
0.0
  0
LINE
  5
16C
330
165
100
AcDbEntity
  8
0
  6
Continuous
 62
     7
370
     0
100
AcDbLine
 10
144.8584568828
 20
195.4019406907
 30
0.0
 11
147.8584568828
 21
195.4019406907
 31
0.0
  0
MTEXT
  5
16D
330
165
100
AcDbEntity
  8
0
  6
Continuous
 62
     7
370
     0
100
AcDbMText
 10
112.4397904622
 20
199.9136780127
 30
0.0
 40
3.5
 41
0.0
 71
     1
 72
     1
  1
%%c
  7
SLDTEXTSTYLE0
 73
     1
 44
1.0
  0
MTEXT
  5
16E
330
165
100
AcDbEntity
  8
0
  6
Continuous
 62
     7
370
     0
100
AcDbMText
 10
116.3097209773
 20
199.9136780127
 30
0.0
 40
3.5
 41
0.0
 71
     1
 72
     1
  1
0.45
  7
SLDTEXTSTYLE0
 73
     1
 44
1.0
  0
MTEXT
  5
16F
330
165
100
AcDbEntity
  8
0
  6
Continuous
 62
     7
370
     0
100
AcDbMText
 10
124.4496510672
 20
199.9136780127
 30
0.0
 40
3.5
 41
0.0
 71
     1
 72
     1
  1
±0.05
  7
SLDTEXTSTYLE0
 73
     1
 44
1.0
  0
ENDBLK
  5
167
330
165
100
AcDbEntity
  8
0
100
AcDbBlockEnd
  0
BLOCK
  5
173
330
172
100
AcDbEntity
  8
0
100
AcDbBlockBegin
  2
_D_7
 70
     0
 10
0.0
 20
0.0
 30
0.0
  3
_D_7
  1
_D_7
  0
INSERT
  5
175
330
172
100
AcDbEntity
  8
0
  6
Continuous
 62
     7
370
     0
100
AcDbBlockReference
  2
_OPEN30
 10
164.1494879855
 20
198.8042105802
 30
0.15
 41
1.5
 42
1.5
 50
90.0
  0
INSERT
  5
176
330
172
100
AcDbEntity
  8
0
  6
Continuous
 62
     7
370
     0
100
AcDbBlockReference
  2
_OPEN30
 10
164.1494879855
 20
194.1842105802
 30
0.15
 41
1.5
 42
1.5
 50
270.0
  0
LINE
  5
177
330
172
100
AcDbEntity
  8
0
  6
Continuous
 62
     7
370
     0
100
AcDbLine
 10
152.944508107
 20
198.8042105802
 30
0.0
 11
165.1494879855
 21
198.8042105802
 31
0.0
  0
LINE
  5
178
330
172
100
AcDbEntity
  8
0
  6
Continuous
 62
     7
370
     0
100
AcDbLine
 10
149.4505593312
 20
194.1842105802
 30
0.0
 11
165.1494879855
 21
194.1842105802
 31
0.0
  0
LINE
  5
179
330
172
100
AcDbEntity
  8
0
  6
Continuous
 62
     7
370
     0
100
AcDbLine
 10
164.1494879855
 20
198.8042105802
 30
0.0
 11
164.1494879855
 21
194.1842105802
 31
0.0
  0
LINE
  5
17A
330
172
100
AcDbEntity
  8
0
  6
Continuous
 62
     7
370
     0
100
AcDbLine
 10
164.1494879855
 20
194.1842105802
 30
0.0
 11
164.1494879855
 21
187.3702754239
 31
0.0
  0
MTEXT
  5
17B
330
172
100
AcDbEntity
  8
0
  6
Continuous
 62
     7
370
     0
100
AcDbMText
 10
159.6377511291
 20
187.3702754239
 30
0.0
 40
3.5
 41
0.0
 71
     1
 72
     1
  1
4.6
  7
SLDTEXTSTYLE0
 11
-7.044195017643634E-15
 21
1.0
 31
0.0
 73
     1
 44
1.0
  0
ENDBLK
  5
174
330
172
100
AcDbEntity
  8
0
100
AcDbBlockEnd
  0
BLOCK
  5
17F
330
17E
100
AcDbEntity
  8
0
100
AcDbBlockBegin
  2
_D_8
 70
     0
 10
0.0
 20
0.0
 30
0.0
  3
_D_8
  1
_D_8
  0
INSERT
  5
181
330
17E
100
AcDbEntity
  8
0
  6
Continuous
 62
     7
370
     0
100
AcDbBlockReference
  2
_OPEN30
 10
164.1462419627
 20
206.1042105802
 30
0.15
 41
1.5
 42
1.5
 50
270.0
  0
INSERT
  5
182
330
17E
100
AcDbEntity
  8
0
  6
Continuous
 62
     7
370
     0
100
AcDbBlockReference
  2
_OPEN30
 10
164.1462419627
 20
198.8042105802
 30
0.15
 41
1.5
 42
1.5
 50
90.0
  0
LINE
  5
183
330
17E
100
AcDbEntity
  8
0
  6
Continuous
 62
     7
370
     0
100
AcDbLine
 10
157.779508107
 20
206.1042105802
 30
0.0
 11
165.1462419627
 21
206.1042105802
 31
0.0
  0
LINE
  5
184
330
17E
100
AcDbEntity
  8
0
  6
Continuous
 62
     7
370
     0
100
AcDbLine
 10
152.944508107
 20
198.8042105802
 30
0.0
 11
165.1462419627
 21
198.8042105802
 31
0.0
  0
LINE
  5
185
330
17E
100
AcDbEntity
  8
0
  6
Continuous
 62
     7
370
     0
100
AcDbLine
 10
164.1462419627
 20
206.1042105802
 30
0.0
 11
164.1462419627
 21
209.1042105802
 31
0.0
  0
LINE
  5
186
330
17E
100
AcDbEntity
  8
0
  6
Continuous
 62
     7
370
     0
100
AcDbLine
 10
164.1462419627
 20
206.1042105802
 30
0.0
 11
164.1462419627
 21
198.8042105802
 31
0.0
  0
LINE
  5
187
330
17E
100
AcDbEntity
  8
0
  6
Continuous
 62
     7
370
     0
100
AcDbLine
 10
164.1462419627
 20
198.8042105802
 30
0.0
 11
164.1462419627
 21
195.8042105802
 31
0.0
  0
MTEXT
  5
188
330
17E
100
AcDbEntity
  8
0
  6
Continuous
 62
     7
370
     0
100
AcDbMText
 10
159.6345051064
 20
200.1090915863
 30
0.0
 40
3.5
 41
0.0
 71
     1
 72
     1
  1
7.3
  7
SLDTEXTSTYLE0
 11
-7.044195017643634E-15
 21
1.0
 31
0.0
 73
     1
 44
1.0
  0
ENDBLK
  5
180
330
17E
100
AcDbEntity
  8
0
100
AcDbBlockEnd
  0
BLOCK
  5
18B
330
18A
100
AcDbEntity
  8
0
100
AcDbBlockBegin
  2
_D_9
 70
     0
 10
0.0
 20
0.0
 30
0.0
  3
_D_9
  1
_D_9
  0
INSERT
  5
18D
330
18A
100
AcDbEntity
  8
0
  6
Continuous
 62
     7
370
     0
100
AcDbBlockReference
  2
_OPEN30
 10
136.7671262657
 20
227.7740616216
 30
0.15
 41
1.5
 42
1.5
 50
180.0
  0
INSERT
  5
18E
330
18A
100
AcDbEntity
  8
0
  6
Continuous
 62
     7
370
     0
100
AcDbBlockReference
  2
_OPEN30
 10
156.0918899484
 20
227.7740616216
 30
0.15
 41
1.5
 42
1.5
 50
0.0
  0
LINE
  5
18F
330
18A
100
AcDbEntity
  8
0
  6
Continuous
 62
     7
370
     0
100
AcDbLine
 10
136.7671262657
 20
215.5042105802
 30
0.0
 11
136.7671262657
 21
228.7740616216
 31
0.0
  0
LINE
  5
190
330
18A
100
AcDbEntity
  8
0
  6
Continuous
 62
     7
370
     0
100
AcDbLine
 10
156.0918899484
 20
215.5042105802
 30
0.0
 11
156.0918899484
 21
228.7740616216
 31
0.0
  0
LINE
  5
191
330
18A
100
AcDbEntity
  8
0
  6
Continuous
 62
     7
370
     0
100
AcDbLine
 10
136.7671262657
 20
227.7740616216
 30
0.0
 11
156.0918899484
 21
227.7740616216
 31
0.0
  0
MTEXT
  5
192
330
18A
100
AcDbEntity
  8
0
  6
Continuous
 62
     7
370
     0
100
AcDbMText
 10
139.4028589574
 20
232.2857989437
 30
0.0
 40
3.5
 41
0.0
 71
     1
 72
     1
  1
%%c
  7
SLDTEXTSTYLE0
 73
     1
 44
1.0
  0
MTEXT
  5
193
330
18A
100
AcDbEntity
  8
0
  6
Continuous
 62
     7
370
     0
100
AcDbMText
 10
143.2727894725
 20
232.2857989437
 30
0.0
 40
3.5
 41
0.0
 71
     1
 72
     1
  1
19.3
  7
SLDTEXTSTYLE0
 73
     1
 44
1.0
  0
ENDBLK
  5
18C
330
18A
100
AcDbEntity
  8
0
100
AcDbBlockEnd
  0
BLOCK
  5
197
330
196
100
AcDbEntity
  8
0
100
AcDbBlockBegin
  2
_D_10
 70
     0
 10
0.0
 20
0.0
 30
0.0
  3
_D_10
  1
_D_10
  0
INSERT
  5
199
330
196
100
AcDbEntity
  8
0
  6
Continuous
 62
     7
370
     0
100
AcDbBlockReference
  2
_OPEN30
 10
135.429508107
 20
244.5113793829
 30
0.15
 41
1.5
 42
1.5
 50
180.0
  0
INSERT
  5
19A
330
196
100
AcDbEntity
  8
0
  6
Continuous
 62
     7
370
     0
100
AcDbBlockReference
  2
_OPEN30
 10
157.429508107
 20
244.5113793829
 30
0.15
 41
1.5
 42
1.5
 50
0.0
  0
LINE
  5
19B
330
196
100
AcDbEntity
  8
0
  6
Continuous
 62
     7
370
     0
100
AcDbLine
 10
135.429508107
 20
209.1042105802
 30
0.0
 11
135.429508107
 21
245.5113793829
 31
0.0
  0
LINE
  5
19C
330
196
100
AcDbEntity
  8
0
  6
Continuous
 62
     7
370
     0
100
AcDbLine
 10
157.429508107
 20
209.1042105802
 30
0.0
 11
157.429508107
 21
245.5113793829
 31
0.0
  0
LINE
  5
19D
330
196
100
AcDbEntity
  8
0
  6
Continuous
 62
     7
370
     0
100
AcDbLine
 10
135.429508107
 20
244.5113793829
 30
0.0
 11
157.429508107
 21
244.5113793829
 31
0.0
  0
MTEXT
  5
19E
330
196
100
AcDbEntity
  8
0
  6
Continuous
 62
     7
370
     0
100
AcDbMText
 10
144.3904649141
 20
249.0231162393
 30
0.0
 40
3.5
 41
0.0
 71
     1
 72
     1
  1
22
  7
SLDTEXTSTYLE0
 73
     1
 44
1.0
  0
ENDBLK
  5
198
330
196
100
AcDbEntity
  8
0
100
AcDbBlockEnd
  0
BLOCK
  5
1A2
330
1A1
100
AcDbEntity
  8
0
100
AcDbBlockBegin
  2
_D_11
 70
     0
 10
0.0
 20
0.0
 30
0.0
  3
_D_11
  1
_D_11
  0
INSERT
  5
1A4
330
1A1
100
AcDbEntity
  8
0
  6
Continuous
 62
     7
370
     0
100
AcDbBlockReference
  2
_OPEN30
 10
156.6568899484
 20
235.7042105802
 30
0.15
 41
1.5
 42
1.5
 50
0.0
  0
INSERT
  5
1A5
330
1A1
100
AcDbEntity
  8
0
  6
Continuous
 62
     7
370
     0
100
AcDbBlockReference
  2
_OPEN30
 10
136.2021262657
 20
235.7042105802
 30
0.15
 41
1.5
 42
1.5
 50
180.0
  0
LINE
  5
1A6
330
1A1
100
AcDbEntity
  8
0
  6
Continuous
 62
     7
370
     0
100
AcDbLine
 10
156.6568899484
 20
212.3042105802
 30
0.0
 11
156.6568899484
 21
236.7042105802
 31
0.0
  0
LINE
  5
1A7
330
1A1
100
AcDbEntity
  8
0
  6
Continuous
 62
     7
370
     0
100
AcDbLine
 10
136.2021262657
 20
212.3042105802
 30
0.0
 11
136.2021262657
 21
236.7042105802
 31
0.0
  0
LINE
  5
1A8
330
1A1
100
AcDbEntity
  8
0
  6
Continuous
 62
     7
370
     0
100
AcDbLine
 10
156.6568899484
 20
235.7042105802
 30
0.0
 11
136.2021262657
 21
235.7042105802
 31
0.0
  0
MTEXT
  5
1A9
330
1A1
100
AcDbEntity
  8
0
  6
Continuous
 62
     7
370
     0
100
AcDbMText
 10
138.3844563251
 20
240.2159479022
 30
0.0
 40
3.5
 41
0.0
 71
     1
 72
     1
  1
%%c
  7
SLDTEXTSTYLE0
 73
     1
 44
1.0
  0
MTEXT
  5
1AA
330
1A1
100
AcDbEntity
  8
0
  6
Continuous
 62
     7
370
     0
100
AcDbMText
 10
142.2543868402
 20
240.2159479022
 30
0.0
 40
3.5
 41
0.0
 71
     1
 72
     1
  1
20.45
  7
SLDTEXTSTYLE0
 73
     1
 44
1.0
  0
ENDBLK
  5
1A3
330
1A1
100
AcDbEntity
  8
0
100
AcDbBlockEnd
  0
BLOCK
  5
27D
330
27C
100
AcDbEntity
  8
0
100
AcDbBlockBegin
  2
_D_12
 70
     0
 10
0.0
 20
0.0
 30
0.0
  3
_D_12
  1
_D_12
  0
INSERT
  5
27F
330
27C
100
AcDbEntity
  8
0
  6
Continuous
 62
     7
370
     0
100
AcDbBlockReference
  2
_OPEN30
 10
144.9841392486
 20
155.8599050715
 30
0.1
 41
1.5
 42
1.5
 50
304.6835082445
  0
LINE
  5
280
330
27C
100
AcDbEntity
  8
0
  6
Continuous
 62
     7
370
     0
100
AcDbLine
 10
144.9841392486
 20
155.8599050715
 30
0.0
 11
137.9486528921
 21
166.0266889835
 31
0.0
  0
LINE
  5
281
330
27C
100
AcDbEntity
  8
0
  6
Continuous
 62
     7
370
     0
100
AcDbLine
 10
147.8748769655
 20
151.6825811133
 30
0.0
 11
144.9841392486
 21
155.8599050715
 31
0.0
  0
LINE
  5
282
330
27C
100
AcDbEntity
  8
0
  6
Continuous
 62
     7
370
     0
100
AcDbLine
 10
137.9486528921
 20
166.0266889835
 30
0.0
 11
105.0064983118
 21
166.0266889835
 31
0.0
  0
MTEXT
  5
283
330
27C
100
AcDbEntity
  8
0
  6
Continuous
 62
     7
370
     0
100
AcDbMText
 10
105.0064983118
 20
170.5384263055
 30
0.0
 40
3.5
 41
0.0
 71
     1
 72
     1
  1
P.C.D.
  7
SLDTEXTSTYLE0
 73
     1
 44
1.0
  0
MTEXT
  5
284
330
27C
100
AcDbEntity
  8
0
  6
Continuous
 62
     7
370
     0
100
AcDbMText
 10
115.3412200782
 20
170.5384263055
 30
0.0
 40
3.5
 41
0.0
 71
     1
 72
     1
  1
%%c
  7
SLDTEXTSTYLE0
 73
     1
 44
1.0
  0
MTEXT
  5
285
330
27C
100
AcDbEntity
  8
0
  6
Continuous
 62
     7
370
     0
100
AcDbMText
 10
119.2111512917
 20
170.5384263055
 30
0.0
 40
3.5
 41
0.0
 71
     1
 72
     1
  1
5.08
  7
SLDTEXTSTYLE0
 73
     1
 44
1.0
  0
MTEXT
  5
286
330
27C
100
AcDbEntity
  8
0
  6
Continuous
 62
     7
370
     0
100
AcDbMText
 10
127.3510816145
 20
170.5384263055
 30
0.0
 40
3.5
 41
0.0
 71
     1
 72
     1
  1
±0.2
  7
SLDTEXTSTYLE0
 73
     1
 44
1.0
  0
ENDBLK
  5
27E
330
27C
100
AcDbEntity
  8
0
100
AcDbBlockEnd
  0
BLOCK
  5
28A
330
289
100
AcDbEntity
  8
0
100
AcDbBlockBegin
  2
_D_13
 70
     0
 10
0.0
 20
0.0
 30
0.0
  3
_D_13
  1
_D_13
  0
ARC
  5
28C
330
289
100
AcDbEntity
  8
0
  6
Continuous
 62
     7
370
     0
100
AcDbCircle
 10
146.429508107
 20
153.7712430924
 30
0.0
 40
23.01734328515056
100
AcDbArc
 50
225.0
 51
270.0
  0
INSERT
  5
28D
330
289
100
AcDbEntity
  8
0
  6
Continuous
 62
     7
370
     0
100
AcDbBlockReference
  2
_OPEN30
 10
130.1537885852
 20
137.4955235706
 30
0.1
 41
1.5
 42
1.5
 50
136.8642966857
  0
INSERT
  5
28E
330
289
100
AcDbEntity
  8
0
  6
Continuous
 62
     7
370
     0
100
AcDbBlockReference
  2
_OPEN30
 10
146.429508107
 20
130.7538998072
 30
0.1
 41
1.5
 42
1.5
 50
358.1357033143
  0
LINE
  5
28F
330
289
100
AcDbEntity
  8
0
  6
Continuous
 62
     7
370
     0
100
AcDbLine
 10
143.9263501016
 20
151.268085087
 30
0.0
 11
129.446681804
 21
136.7884167894
 31
0.0
  0
LINE
  5
290
330
289
100
AcDbEntity
  8
0
  6
Continuous
 62
     7
370
     0
100
AcDbLine
 10
146.429508107
 20
139.7778001657
 30
0.0
 11
146.429508107
 21
129.7538998072
 31
0.0
  0
MTEXT
  5
291
330
289
100
AcDbEntity
  8
0
  6
Continuous
 62
     7
370
     0
100
AcDbMText
 10
133.1953625921
 20
140.2099316394
 30
0.0
 40
3.5
 41
0.0
 71
     1
 72
     1
  1
45°
  7
SLDTEXTSTYLE0
 11
0.8491005297968296
 21
-0.5282312848542231
 31
0.0
 73
     1
 44
1.0
  0
ENDBLK
  5
28B
330
289
100
AcDbEntity
  8
0
100
AcDbBlockEnd
  0
BLOCK
  5
294
330
293
100
AcDbEntity
  8
0
100
AcDbBlockBegin
  2
_D_14
 70
     0
 10
0.0
 20
0.0
 30
0.0
  3
_D_14
  1
_D_14
  0
ARC
  5
296
330
293
100
AcDbEntity
  8
0
  6
Continuous
 62
     7
370
     0
100
AcDbCircle
 10
146.429508107
 20
153.7712430924
 30
0.0
 40
23.08812774734878
100
AcDbArc
 50
270.0
 51
315.0
  0
INSERT
  5
297
330
293
100
AcDbEntity
  8
0
  6
Continuous
 62
     7
370
     0
100
AcDbBlockReference
  2
_OPEN30
 10
146.429508107
 20
130.683115345
 30
0.1
 41
1.5
 42
1.5
 50
181.8585971032
  0
INSERT
  5
298
330
293
100
AcDbEntity
  8
0
  6
Continuous
 62
     7
370
     0
100
AcDbBlockReference
  2
_OPEN30
 10
162.7552798021
 20
137.4454713973
 30
0.1
 41
1.5
 42
1.5
 50
43.1414028968
  0
LINE
  5
299
330
293
100
AcDbEntity
  8
0
  6
Continuous
 62
     7
370
     0
100
AcDbLine
 10
146.429508107
 20
139.7778001657
 30
0.0
 11
146.429508107
 21
129.683115345
 31
0.0
  0
LINE
  5
29A
330
293
100
AcDbEntity
  8
0
  6
Continuous
 62
     7
370
     0
100
AcDbLine
 10
148.9326661124
 20
151.268085087
 30
0.0
 11
163.4623865833
 21
136.7383646162
 31
0.0
  0
MTEXT
  5
29B
330
293
100
AcDbEntity
  8
0
  6
Continuous
 62
     7
370
     0
100
AcDbMText
 10
146.6160293744
 20
134.7543607273
 30
0.0
 40
3.5
 41
0.0
 71
     1
 72
     1
  1
45°
  7
SLDTEXTSTYLE0
 11
0.9746420429549186
 21
0.2237697211524885
 31
0.0
 73
     1
 44
1.0
  0
ENDBLK
  5
295
330
293
100
AcDbEntity
  8
0
100
AcDbBlockEnd
  0
BLOCK
  5
29E
330
29D
100
AcDbEntity
  8
0
100
AcDbBlockBegin
  2
_D_15
 70
     0
 10
0.0
 20
0.0
 30
0.0
  3
_D_15
  1
_D_15
  0
INSERT
  5
2A0
330
29D
100
AcDbEntity
  8
0
  6
Continuous
 62
     7
370
     0
100
AcDbBlockReference
  2
_OPEN30
 10
170.8284645085
 20
156.2712430924
 30
-1.06
 41
1.5
 42
1.5
 50
90.0
  0
INSERT
  5
2A1
330
29D
100
AcDbEntity
  8
0
  6
Continuous
 62
     7
370
     0
100
AcDbBlockReference
  2
_OPEN30
 10
170.8284645085
 20
151.2712430924
 30
-1.06
 41
1.5
 42
1.5
 50
270.0
  0
LINE
  5
2A2
330
29D
100
AcDbEntity
  8
0
  6
Continuous
 62
     7
370
     0
100
AcDbLine
 10
157.929508107
 20
156.2712430924
 30
0.0
 11
171.8284645085
 21
156.2712430924
 31
0.0
  0
LINE
  5
2A3
330
29D
100
AcDbEntity
  8
0
  6
Continuous
 62
     7
370
     0
100
AcDbLine
 10
157.929508107
 20
151.2712430924
 30
0.0
 11
171.8284645085
 21
151.2712430924
 31
0.0
  0
LINE
  5
2A4
330
29D
100
AcDbEntity
  8
0
  6
Continuous
 62
     7
370
     0
100
AcDbLine
 10
170.8284645085
 20
156.2712430924
 30
0.0
 11
170.8284645085
 21
163.3374427136
 31
0.0
  0
LINE
  5
2A5
330
29D
100
AcDbEntity
  8
0
  6
Continuous
 62
     7
370
     0
100
AcDbLine
 10
170.8284645085
 20
156.2712430924
 30
0.0
 11
170.8284645085
 21
151.2712430924
 31
0.0
  0
MTEXT
  5
2A6
330
29D
100
AcDbEntity
  8
0
  6
Continuous
 62
     7
370
     0
100
AcDbMText
 10
166.3167276521
 20
161.3006372161
 30
0.0
 40
3.5
 41
0.0
 71
     1
 72
     1
  1
5
  7
SLDTEXTSTYLE0
 11
-7.044195017643634E-15
 21
1.0
 31
0.0
 73
     1
 44
1.0
  0
ENDBLK
  5
29F
330
29D
100
AcDbEntity
  8
0
100
AcDbBlockEnd
  0
BLOCK
  5
2A9
330
2A8
100
AcDbEntity
  8
0
100
AcDbBlockBegin
  2
_D_16
 70
     0
 10
0.0
 20
0.0
 30
0.0
  3
_D_16
  1
_D_16
  0
INSERT
  5
2AB
330
2A8
100
AcDbEntity
  8
0
  6
Continuous
 62
     7
370
     0
100
AcDbBlockReference
  2
_OPEN30
 10
162.2950772123
 20
155.0212430924
 30
-1.06
 41
1.5
 42
1.5
 50
270.0
  0
INSERT
  5
2AC
330
2A8
100
AcDbEntity
  8
0
  6
Continuous
 62
     7
370
     0
100
AcDbBlockReference
  2
_OPEN30
 10
162.2950772123
 20
152.5212430924
 30
-1.06
 41
1.5
 42
1.5
 50
90.0
  0
LINE
  5
2AD
330
2A8
100
AcDbEntity
  8
0
  6
Continuous
 62
     7
370
     0
100
AcDbLine
 10
157.7437252239
 20
155.0212430924
 30
0.0
 11
163.2950772123
 21
155.0212430924
 31
0.0
  0
LINE
  5
2AE
330
2A8
100
AcDbEntity
  8
0
  6
Continuous
 62
     7
370
     0
100
AcDbLine
 10
157.7437252239
 20
152.5212430924
 30
0.0
 11
163.2950772123
 21
152.5212430924
 31
0.0
  0
LINE
  5
2AF
330
2A8
100
AcDbEntity
  8
0
  6
Continuous
 62
     7
370
     0
100
AcDbLine
 10
162.2950772123
 20
155.0212430924
 30
0.0
 11
162.2950772123
 21
164.7690399939
 31
0.0
  0
LINE
  5
2B0
330
2A8
100
AcDbEntity
  8
0
  6
Continuous
 62
     7
370
     0
100
AcDbLine
 10
162.2950772123
 20
155.0212430924
 30
0.0
 11
162.2950772123
 21
152.5212430924
 31
0.0
  0
LINE
  5
2B1
330
2A8
100
AcDbEntity
  8
0
  6
Continuous
 62
     7
370
     0
100
AcDbLine
 10
162.2950772123
 20
152.5212430924
 30
0.0
 11
162.2950772123
 21
149.5212430924
 31
0.0
  0
MTEXT
  5
2B2
330
2A8
100
AcDbEntity
  8
0
  6
Continuous
 62
     7
370
     0
100
AcDbMText
 10
157.7833403559
 20
159.8690399358
 30
0.0
 40
3.5
 41
0.0
 71
     1
 72
     1
  1
2.5
  7
SLDTEXTSTYLE0
 11
-6.156016597943509E-15
 21
1.0
 31
0.0
 73
     1
 44
1.0
  0
ENDBLK
  5
2AA
330
2A8
100
AcDbEntity
  8
0
100
AcDbBlockEnd
  0
BLOCK
  5
3B5
330
3B4
100
AcDbEntity
  8
0
100
AcDbBlockBegin
  2
SW_NOTE_4
 70
     0
 10
0.0
 20
0.0
 30
0.0
  3
SW_NOTE_4
  1
SW_NOTE_4
  0
MTEXT
  5
3B8
330
3B4
100
AcDbEntity
  8
0
  6
Continuous
 62
     0
370
     0
100
AcDbMText
 10
9.5703125
 20
4.5117370892
 30
0.0
 40
3.5
 41
0.0
 71
     2
 72
     1
  1
SECTION
  7
SLDTEXTSTYLE2
 73
     1
 44
1.0
  0
MTEXT
  5
3B9
330
3B4
100
AcDbEntity
  8
0
  6
Continuous
 62
     0
370
     0
100
AcDbMText
 10
23.5776031315
 20
4.9638206247
 30
0.0
 40
3.5
 41
0.0
 71
     2
 72
     1
  1
A-A
  7
SLDTEXTSTYLE0
 73
     1
 44
1.0
  0
ENDBLK
  5
3B6
330
3B4
100
AcDbEntity
  8
0
100
AcDbBlockEnd
  0
BLOCK
  5
41F
330
41E
100
AcDbEntity
  8
0
100
AcDbBlockBegin
  2
_D_17
 70
     0
 10
0.0
 20
0.0
 30
0.0
  3
_D_17
  1
_D_17
  0
INSERT
  5
421
330
41E
100
AcDbEntity
  8
0
  6
Continuous
 62
     7
370
     0
100
AcDbBlockReference
  2
_OPEN30
 10
41.8794245295
 20
200.1402432574
 30
0.1
 41
1.5
 42
1.5
 50
180.0
  0
INSERT
  5
422
330
41E
100
AcDbEntity
  8
0
  6
Continuous
 62
     7
370
     0
100
AcDbBlockReference
  2
_OPEN30
 10
61.6794245295
 20
200.1402432574
 30
0.1
 41
1.5
 42
1.5
 50
0.0
  0
LINE
  5
423
330
41E
100
AcDbEntity
  8
0
  6
Continuous
 62
     7
370
     0
100
AcDbLine
 10
41.8794245295
 20
191.6105176526
 30
0.0
 11
41.8794245295
 21
201.1402432574
 31
0.0
  0
LINE
  5
424
330
41E
100
AcDbEntity
  8
0
  6
Continuous
 62
     7
370
     0
100
AcDbLine
 10
61.6794245295
 20
191.6105176526
 30
0.0
 11
61.6794245295
 21
201.1402432574
 31
0.0
  0
LINE
  5
425
330
41E
100
AcDbEntity
  8
0
  6
Continuous
 62
     7
370
     0
100
AcDbLine
 10
41.8794245295
 20
200.1402432574
 30
0.0
 11
21.2878626175
 21
200.1402432574
 31
0.0
  0
LINE
  5
426
330
41E
100
AcDbEntity
  8
0
  6
Continuous
 62
     7
370
     0
100
AcDbLine
 10
41.8794245295
 20
200.1402432574
 30
0.0
 11
61.6794245295
 21
200.1402432574
 31
0.0
  0
MTEXT
  5
427
330
41E
100
AcDbEntity
  8
0
  6
Continuous
 62
     7
370
     0
100
AcDbMText
 10
21.2878626175
 20
204.6519810451
 30
0.0
 40
3.5
 41
0.0
 71
     1
 72
     1
  1
%%c
  7
SLDTEXTSTYLE0
 73
     1
 44
1.0
  0
MTEXT
  5
428
330
41E
100
AcDbEntity
  8
0
  6
Continuous
 62
     7
370
     0
100
AcDbMText
 10
25.1577931325
 20
204.6519810451
 30
0.0
 40
3.5
 41
0.0
 71
     1
 72
     1
  1
19.8
  7
SLDTEXTSTYLE0
 73
     1
 44
1.0
  0
MTEXT
  5
429
330
41E
100
AcDbEntity
  8
0
  6
Continuous
 62
     7
370
     0
100
AcDbMText
 10
33.2977232225
 20
204.6519810451
 30
0.0
 40
3.5
 41
0.0
 71
     1
 72
     1
  1

  7
SLDTEXTSTYLE0
 73
     1
 44
1.0
  0
MTEXT
  5
42A
330
41E
100
AcDbEntity
  8
0
  6
Continuous
 62
     7
370
     0
100
AcDbMText
 10
33.33418205
 20
208.7255920401
 30
0.0
 40
3.5
 41
0.0
 71
     1
 72
     1
  1
+
  7
SLDTEXTSTYLE0
 73
     1
 44
1.0
  0
MTEXT
  5
42B
330
41E
100
AcDbEntity
  8
0
  6
Continuous
 62
     7
370
     0
100
AcDbMText
 10
34.9359181178
 20
204.6519810451
 30
0.0
 40
3.5
 41
0.0
 71
     1
 72
     1
  1

  7
SLDTEXTSTYLE0
 73
     1
 44
1.0
  0
MTEXT
  5
42C
330
41E
100
AcDbEntity
  8
0
  6
Continuous
 62
     7
370
     0
100
AcDbMText
 10
35.3709873147
 20
208.7255920401
 30
0.0
 40
3.5
 41
0.0
 71
     1
 72
     1
  1
0.2
  7
SLDTEXTSTYLE0
 73
     1
 44
1.0
  0
MTEXT
  5
42D
330
41E
100
AcDbEntity
  8
0
  6
Continuous
 62
     7
370
     0
100
AcDbMText
 10
35.3709873147
 20
204.6519810451
 30
0.0
 40
3.5
 41
0.0
 71
     1
 72
     1
  1
0
  7
SLDTEXTSTYLE0
 73
     1
 44
1.0
  0
ENDBLK
  5
420
330
41E
100
AcDbEntity
  8
0
100
AcDbBlockEnd
  0
BLOCK
  5
430
330
42F
100
AcDbEntity
  8
0
100
AcDbBlockBegin
  2
_D_18
 70
     0
 10
0.0
 20
0.0
 30
0.0
  3
_D_18
  1
_D_18
  0
INSERT
  5
432
330
42F
100
AcDbEntity
  8
0
  6
Continuous
 62
     7
370
     0
100
AcDbBlockReference
  2
_OPEN30
 10
72.7794245295
 20
190.6105176526
 30
0.15
 41
1.5
 42
1.5
 50
90.0
  0
INSERT
  5
433
330
42F
100
AcDbEntity
  8
0
  6
Continuous
 62
     7
370
     0
100
AcDbBlockReference
  2
_OPEN30
 10
72.7794245295
 20
174.9105176526
 30
0.15
 41
1.5
 42
1.5
 50
270.0
  0
LINE
  5
434
330
42F
100
AcDbEntity
  8
0
  6
Continuous
 62
     7
370
     0
100
AcDbLine
 10
62.4418063708
 20
190.6105176526
 30
0.0
 11
73.7794245295
 21
190.6105176526
 31
0.0
  0
LINE
  5
435
330
42F
100
AcDbEntity
  8
0
  6
Continuous
 62
     7
370
     0
100
AcDbLine
 10
58.2944245295
 20
174.9105176526
 30
0.0
 11
73.7794245295
 21
174.9105176526
 31
0.0
  0
LINE
  5
436
330
42F
100
AcDbEntity
  8
0
  6
Continuous
 62
     7
370
     0
100
AcDbLine
 10
72.7794245295
 20
190.6105176526
 30
0.0
 11
72.7794245295
 21
174.9105176526
 31
0.0
  0
MTEXT
  5
437
330
42F
100
AcDbEntity
  8
0
  6
Continuous
 62
     7
370
     0
100
AcDbMText
 10
68.2676876731
 20
179.829855141
 30
0.0
 40
3.5
 41
0.0
 71
     1
 72
     1
  1
15.7
  7
SLDTEXTSTYLE0
 11
-7.044195017643634E-15
 21
1.0
 31
0.0
 73
     1
 44
1.0
  0
ENDBLK
  5
431
330
42F
100
AcDbEntity
  8
0
100
AcDbBlockEnd
  0
BLOCK
  5
49D
330
49C
100
AcDbEntity
  8
0
100
AcDbBlockBegin
  2
_D_19
 70
     0
 10
0.0
 20
0.0
 30
0.0
  3
_D_19
  1
_D_19
  0
INSERT
  5
49F
330
49C
100
AcDbEntity
  8
0
  6
Continuous
 62
     7
370
     0
100
AcDbBlockReference
  2
_OPEN30
 10
69.2402000023
 20
264.9573103757
 30
0.1
 41
1.5
 42
1.5
 50
90.0
  0
INSERT
  5
4A0
330
49C
100
AcDbEntity
  8
0
  6
Continuous
 62
     7
370
     0
100
AcDbBlockReference
  2
_OPEN30
 10
69.2402000023
 20
259.8599218692
 30
0.1
 41
1.5
 42
1.5
 50
270.0
  0
LINE
  5
4A1
330
49C
100
AcDbEntity
  8
0
  6
Continuous
 62
     7
370
     0
100
AcDbLine
 10
52.7556838967
 20
264.9573103757
 30
0.0
 11
70.2402000023
 21
264.9573103757
 31
0.0
  0
LINE
  5
4A2
330
49C
100
AcDbEntity
  8
0
  6
Continuous
 62
     7
370
     0
100
AcDbLine
 10
62.4237679544
 20
259.8599218692
 30
0.0
 11
70.2402000023
 21
259.8599218692
 31
0.0
  0
LINE
  5
4A3
330
49C
100
AcDbEntity
  8
0
  6
Continuous
 62
     7
370
     0
100
AcDbLine
 10
69.2402000023
 20
264.9573103757
 30
0.0
 11
69.2402000023
 21
259.8599218692
 31
0.0
  0
LINE
  5
4A4
330
49C
100
AcDbEntity
  8
0
  6
Continuous
 62
     7
370
     0
100
AcDbLine
 10
69.2402000023
 20
259.8599218692
 30
0.0
 11
69.2402000023
 21
252.6167594417
 31
0.0
  0
MTEXT
  5
4A5
330
49C
100
AcDbEntity
  8
0
  6
Continuous
 62
     7
370
     0
100
AcDbMText
 10
64.728463146
 20
252.6167594417
 30
0.0
 40
3.5
 41
0.0
 71
     1
 72
     1
  1
5.1
  7
SLDTEXTSTYLE0
 11
-7.044195017643634E-15
 21
1.0
 31
0.0
 73
     1
 44
1.0
  0
ENDBLK
  5
49E
330
49C
100
AcDbEntity
  8
0
100
AcDbBlockEnd
  0
ENDSEC
  0
SECTION
  2
ENTITIES
  0
LINE
  5
6F
330
1F
100
AcDbEntity
  8
0
  6
CENTERX2
 62
     7
370
     0
100
AcDbLine
 10
51.7344694261
 20
132.1994093112
 30
0.0
 11
51.7344694261
 21
122.3963818466
 31
0.0
  0
LINE
  5
70
330
1F
100
AcDbEntity
  8
0
  6
CENTERX2
 62
     7
370
     0
100
AcDbLine
 10
48.1413527515
 20
127.3480741409
 30
0.0
 11
55.6741111514
 21
127.3480741409
 31
0.0
  0
LINE
  5
71
330
1F
100
AcDbEntity
  8
0
  6
CENTERX2
 62
     7
370
     0
100
AcDbLine
 10
53.5305206503
 20
125.5520229167
 30
0.0
 11
49.9384182019
 21
129.1441253651
 31
0.0
  0
LINE
  5
72
330
1F
100
AcDbEntity
  8
0
  6
CENTERX2
 62
     7
370
     0
100
AcDbLine
 10
49.9384182019
 20
125.5520229167
 30
0.0
 11
53.5305206503
 21
129.1441253651
 31
0.0
  0
LINE
  5
73
330
1F
100
AcDbEntity
  8
0
  6
Continuous
 62
     7
370
    30
100
AcDbLine
 10
5.0
 20
25.0
 30
0.0
 11
205.0
 21
25.0
 31
0.0
  0
LINE
  5
74
330
1F
100
AcDbEntity
  8
0
  6
Continuous
 62
     7
370
    30
100
AcDbLine
 10
5.0
 20
292.0
 30
0.0
 11
205.0
 21
292.0
 31
0.0
  0
LINE
  5
75
330
1F
100
AcDbEntity
  8
0
  6
Continuous
 62
     7
370
    30
100
AcDbLine
 10
5.0
 20
292.0
 30
0.0
 11
5.0
 21
7.0
 31
0.0
  0
LINE
  5
76
330
1F
100
AcDbEntity
  8
0
  6
Continuous
 62
     7
370
    30
100
AcDbLine
 10
5.0
 20
7.0
 30
0.0
 11
205.0
 21
7.0
 31
0.0
  0
LINE
  5
77
330
1F
100
AcDbEntity
  8
0
  6
Continuous
 62
     7
370
    30
100
AcDbLine
 10
205.0
 20
292.0
 30
0.0
 11
205.0
 21
7.0
 31
0.0
  0
LINE
  5
78
330
1F
100
AcDbEntity
  8
0
  6
Continuous
 62
     7
370
    30
100
AcDbLine
 10
5.0
 20
40.0
 30
0.0
 11
205.0
 21
40.0
 31
0.0
  0
LINE
  5
79
330
1F
100
AcDbEntity
  8
0
  6
Continuous
 62
     7
370
    30
100
AcDbLine
 10
5.0
 20
47.0
 30
0.0
 11
205.0
 21
47.0
 31
0.0
  0
LINE
  5
7A
330
1F
100
AcDbEntity
  8
0
  6
Continuous
 62
     7
370
    30
100
AcDbLine
 10
145.0
 20
47.0
 30
0.0
 11
145.0
 21
25.0
 31
0.0
  0
LINE
  5
7B
330
1F
100
AcDbEntity
  8
0
  6
Continuous
 62
     7
370
    30
100
AcDbLine
 10
145.0
 20
32.5
 30
0.0
 11
205.0
 21
32.5
 31
0.0
  0
LINE
  5
7C
330
1F
100
AcDbEntity
  8
0
  6
Continuous
 62
     7
370
    30
100
AcDbLine
 10
175.0
 20
40.0
 30
0.0
 11
175.0
 21
32.5
 31
0.0
  0
LINE
  5
7D
330
1F
100
AcDbEntity
  8
0
  6
Continuous
 62
     7
370
     0
100
AcDbLine
 10
128.9292008689
 20
63.0961638737
 30
0.0
 11
200.9292008689
 21
63.0961638737
 31
0.0
  0
LINE
  5
7E
330
1F
100
AcDbEntity
  8
0
  6
Continuous
 62
     7
370
     0
100
AcDbLine
 10
128.9292008689
 20
63.0961638737
 30
0.0
 11
128.9292008689
 21
49.0961638737
 31
0.0
  0
LINE
  5
7F
330
1F
100
AcDbEntity
  8
0
  6
Continuous
 62
     7
370
     0
100
AcDbLine
 10
128.9292008689
 20
49.0961638737
 30
0.0
 11
200.9292008689
 21
49.0961638737
 31
0.0
  0
LINE
  5
80
330
1F
100
AcDbEntity
  8
0
  6
Continuous
 62
     7
370
     0
100
AcDbLine
 10
200.9292008689
 20
63.0961638737
 30
0.0
 11
200.9292008689
 21
49.0961638737
 31
0.0
  0
LINE
  5
81
330
1F
100
AcDbEntity
  8
0
  6
Continuous
 62
     7
370
     0
100
AcDbLine
 10
5.0
 20
292.0
 30
0.0
 11
5.0
 21
262.0
 31
0.0
  0
CIRCLE
  5
82
330
1F
100
AcDbEntity
  8
0
  6
CENTER
 62
     7
370
     0
100
AcDbCircle
 10
51.7344694261
 20
127.3480741409
 30
0.0
 40
2.539999999998804
  0
CIRCLE
  5
83
330
1F
100
AcDbEntity
  8
0
  6
CENTER
 62
     7
370
    30
100
AcDbCircle
 10
53.5305206503
 20
129.1441253651
 30
0.0
 40
0.3249999999987916
  0
CIRCLE
  5
84
330
1F
100
AcDbEntity
  8
0
  6
CENTER
 62
     7
370
    30
100
AcDbCircle
 10
53.5305206503
 20
125.5520229167
 30
0.0
 40
0.3249999999987739
  0
CIRCLE
  5
85
330
1F
100
AcDbEntity
  8
0
  6
CENTER
 62
     7
370
    30
100
AcDbCircle
 10
49.9384182019
 20
129.1441253651
 30
0.0
 40
0.3249999999988392
  0
DIMENSION
  5
86
330
1F
100
AcDbEntity
  8
0
  6
Continuous
 62
     7
370
     0
100
AcDbDimension
  2
_D
 10
53.6472270208
 20
129.0192887842
 30
0.0
 11
32.7118360454
 21
123.2926971215
 31
0.0
 70
   163
  1
<>±0.1
 71
     1
 42
-1.0
  3
SLDDIMSTYLE0
100
AcDbDiametricDimension
 15
49.8217118314
 25
125.6768594977
 35
0.0
 40
0.0
  0
DIMENSION
  5
9C
330
1F
100
AcDbEntity
  8
0
  6
Continuous
 62
     7
370
     0
100
AcDbDimension
  2
_D_1
 10
49.9384182019
 20
125.5520229167
 30
0.0
 11
67.7776739467
 21
131.9399393434
 31
0.0
 70
   162
  1
<>
 71
     1
 42
-1.0
  3
SLDDIMSTYLE1
100
AcDb2LineAngularDimension
 13
55.6741111514
 23
127.3480741409
 33
0.0
 14
48.1413527515
 24
127.3480741409
 34
0.0
 15
53.5305206503
 25
129.1441253651
 35
0.0
 16
67.1516255555
 26
133.7340693029
 36
0.0
  0
DIMENSION
  5
A7
330
1F
100
AcDbEntity
  8
0
  6
Continuous
 62
     7
370
     0
100
AcDbDimension
  2
_D_2
 10
55.6741111514
 20
127.3480741409
 30
0.0
 11
67.7776739467
 21
123.2819931174
 31
0.0
 70
   162
  1
<>
 71
     1
 42
-1.0
  3
SLDDIMSTYLE1
100
AcDb2LineAngularDimension
 13
53.5305206503
 23
125.5520229167
 33
0.0
 14
49.9384182019
 24
129.1441253651
 34
0.0
 15
48.1413527515
 25
127.3480741409
 35
0.0
 16
67.0250922995
 26
121.0144907696
 36
0.0
  0
DIMENSION
  5
B1
330
1F
100
AcDbEntity
  8
0
  6
Continuous
 62
     7
370
     0
100
AcDbDimension
  2
_D_3
 10
50.1454834548
 20
128.8936278981
 30
0.0
 11
32.7118360454
 21
138.190679778
 31
0.0
 70
   163
  1
3-<>
 71
     1
 42
-1.0
  3
SLDDIMSTYLE2
100
AcDbDiametricDimension
 15
49.7313529489
 25
129.3946228322
 35
0.0
 40
0.0
  0
INSERT
  5
C8
330
1F
100
AcDbEntity
  8
0
  6
Continuous
 62
     7
370
     0
100
AcDbBlockReference
  2
SW_NOTE_0
 10
39.2737961629
 20
218.6332000681
 30
0.0
  0
INSERT
  5
CE
330
1F
100
AcDbEntity
  8
0
  6
Continuous
 62
     7
370
     0
100
AcDbBlockReference
  2
SW_NOTE_1
 10
37.8428782836
 20
151.0387237338
 30
0.0
  0
MTEXT
  5
CF
330
1F
100
AcDbEntity
  8
0
  6
Continuous
 62
     7
370
     0
100
AcDbMText
 10
23.837064113
 20
133.6705438604
 30
0.0
 40
2.38125
 41
0.0
 71
     1
 72
     1
  1
(3-0.026 dia.)
  7
SLDTEXTSTYLE0
 73
     1
 44
1.0
  0
MTEXT
  5
D0
330
1F
100
AcDbEntity
  8
0
  6
Continuous
 62
     7
370
     0
100
AcDbMText
 10
28.6441056384
 20
120.8119353181
 30
0.0
 40
2.38125
 41
0.0
 71
     1
 72
     1
  1
(0.2 dia.)
  7
SLDTEXTSTYLE0
 73
     1
 44
1.0
  0
MTEXT
  5
D1
330
1F
100
AcDbEntity
  8
0
  6
Continuous
 62
     7
370
     0
100
AcDbMText
 10
173.4360530891
 20
203.4397823088
 30
0.0
 40
2.38125
 41
0.0
 71
     1
 72
     1
  1
(0.819)
  7
SLDTEXTSTYLE0
 11
-3.269436733918102E-15
 21
1.0
 31
0.0
 73
     1
 44
1.0
  0
MTEXT
  5
D2
330
1F
100
AcDbEntity
  8
0
  6
Continuous
 62
     7
370
     0
100
AcDbMText
 10
164.5920788063
 20
198.8786885938
 30
0.0
 40
2.38125
 41
0.0
 71
     1
 72
     1
  1
(0.287)
  7
SLDTEXTSTYLE0
 11
-3.269436733918102E-15
 21
1.0
 31
0.0
 73
     1
 44
1.0
  0
MTEXT
  5
D3
330
1F
100
AcDbEntity
  8
0
  6
Continuous
 62
     7
370
     0
100
AcDbMText
 10
164.5339843737
 20
184.9455359631
 30
0.0
 40
2.38125
 41
0.0
 71
     1
 72
     1
  1
(0.181)
  7
SLDTEXTSTYLE0
 11
-3.269436733918102E-15
 21
1.0
 31
0.0
 73
     1
 44
1.0
  0
MTEXT
  5
D4
330
1F
100
AcDbEntity
  8
0
  6
Continuous
 62
     7
370
     0
100
AcDbMText
 10
162.8898681518
 20
157.5571130738
 30
0.0
 40
2.38125
 41
0.0
 71
     1
 72
     1
  1
(0.098)
  7
SLDTEXTSTYLE0
 11
-3.269436733918102E-15
 21
1.0
 31
0.0
 73
     1
 44
1.0
  0
MTEXT
  5
D5
330
1F
100
AcDbEntity
  8
0
  6
Continuous
 62
     7
370
     0
100
AcDbMText
 10
171.0387196834
 20
157.6262134933
 30
0.0
 40
2.38125
 41
0.0
 71
     1
 72
     1
  1
(0.197)
  7
SLDTEXTSTYLE0
 11
-3.269436733918102E-15
 21
1.0
 31
0.0
 73
     1
 44
1.0
  0
MTEXT
  5
D6
330
1F
100
AcDbEntity
  8
0
  6
Continuous
 62
     7
370
     0
100
AcDbMText
 10
114.5015994439
 20
165.6202688813
 30
0.0
 40
2.38125
 41
0.0
 71
     1
 72
     1
  1
(0.2 dia.)
  7
SLDTEXTSTYLE0
 73
     1
 44
1.0
  0
MTEXT
  5
D7
330
1F
100
AcDbEntity
  8
0
  6
Continuous
 62
     7
370
     0
100
AcDbMText
 10
6.3280684874
 20
6.445181383
 30
0.0
 40
2.38125
 41
0.0
 71
     1
 72
     1
  1
(JIS A-4)
  7
SLDTEXTSTYLE0
 73
     1
 44
1.0
  0
MTEXT
  5
D8
330
1F
100
AcDbEntity
  8
0
  6
Continuous
 62
     7
370
     0
100
AcDbMText
 10
64.7360648843
 20
6.445181383
 30
0.0
 40
2.38125
 41
0.0
 71
     1
 72
     1
  1
All Right Reserved Copyrigh, (C) Panasonic Corporation
  7
SLDTEXTSTYLE0
 73
     1
 44
1.0
  0
MTEXT
  5
D9
330
1F
100
AcDbEntity
  8
0
  6
Continuous
 62
     7
370
     0
100
AcDbMText
 10
76.198799667
 20
22.8890928843
 30
0.0
 40
4.2333333333
 41
0.0
 71
     1
 72
     1
  1
Panasonic Corporation
  7
SLDTEXTSTYLE0
 73
     1
 44
1.0
  0
MTEXT
  5
DA
330
1F
100
AcDbEntity
  8
0
  6
Continuous
 62
     7
370
     0
100
AcDbMText
 10
75.2830248209
 20
16.0597678541
 30
0.0
 40
4.2333333333
 41
0.0
 71
     1
 72
     1
  1
Eco Solutions Company
  7
SLDTEXTSTYLE0
 73
     1
 44
1.0
  0
MTEXT
  5
DB
330
1F
100
AcDbEntity
  8
0
  6
Continuous
 62
     7
370
     0
100
AcDbMText
 10
7.399505626
 20
37.9517125752
 30
0.0
 40
4.2333333333
 41
0.0
 71
     1
 72
     1
  1
Name PIR MOTION SENSOR 'PaPIRs' EKM series
  7
SLDTEXTSTYLE0
 73
     1
 44
1.0
  0
MTEXT
  5
DC
330
1F
100
AcDbEntity
  8
0
  6
Continuous
 62
     7
370
     0
100
AcDbMText
 10
43.1181563571
 20
31.8857114426
 30
0.0
 40
4.2333333333
 41
0.0
 71
     1
 72
     1
  1
(High density long distance type)
  7
SLDTEXTSTYLE0
 73
     1
 44
1.0
  0
MTEXT
  5
DD
330
1F
100
AcDbEntity
  8
0
  6
Continuous
 62
     7
370
     0
100
AcDbMText
 10
148.4473581884
 20
46.0655805192
 30
0.0
 40
4.2333333333
 41
0.0
 71
     1
 72
     1
  1
Date January.09.2018
  7
SLDTEXTSTYLE0
 73
     1
 44
1.0
  0
MTEXT
  5
DE
330
1F
100
AcDbEntity
  8
0
  6
Continuous
 62
     7
370
     0
100
AcDbMText
 10
147.8956185945
 20
38.8622472622
 30
0.0
 40
4.2333333333
 41
0.0
 71
     1
 72
     1
  1
Scale 1:1
  7
SLDTEXTSTYLE0
 73
     1
 44
1.0
  0
MTEXT
  5
DF
330
1F
100
AcDbEntity
  8
0
  6
Continuous
 62
     7
370
     0
100
AcDbMText
 10
177.1188186671
 20
38.8622472622
 30
0.0
 40
4.2333333333
 41
0.0
 71
     1
 72
     1
  1
Unit mm
  7
SLDTEXTSTYLE0
 73
     1
 44
1.0
  0
MTEXT
  5
E0
330
1F
100
AcDbEntity
  8
0
  6
Continuous
 62
     7
370
     0
100
AcDbMText
 10
147.8956185945
 20
31.5452447955
 30
0.0
 40
4.2333333333
 41
0.0
 71
     1
 72
     1
  1
Tolerance
  7
SLDTEXTSTYLE0
 73
     1
 44
1.0
  0
MTEXT
  5
E1
330
1F
100
AcDbEntity
  8
0
  6
Continuous
 62
     7
370
     0
100
AcDbMText
 10
7.399505626
 20
46.2820908805
 30
0.0
 40
4.2333333333
 41
0.0
 71
     1
 72
     1
  1
Parts No. EKM***0611**
  7
SLDTEXTSTYLE0
 73
     1
 44
1.0
  0
MTEXT
  5
E2
330
1F
100
AcDbEntity
  8
0
  6
Continuous
 62
     7
370
     0
100
AcDbMText
 10
130.1376779536
 20
58.3504872728
 30
0.0
 40
3.7041666667
 41
0.0
 71
     1
 72
     1
  1
General tolerance
  7
SLDTEXTSTYLE0
 73
     1
 44
1.0
  0
INSERT
  5
E9
330
1F
100
AcDbEntity
  8
0
  6
Continuous
 62
     7
370
     0
100
AcDbBlockReference
  2
SW_NOTE_2
 10
170.2884828494
 20
55.6699686122
 30
0.0
  0
INSERT
  5
F1
330
1F
100
AcDbEntity
  8
0
  6
Continuous
 62
     7
370
     0
100
AcDbBlockReference
  2
SW_NOTE_3
 10
9.402366996
 20
77.6648053195
 30
0.0
  0
LINE
  5
F2
330
1F
100
AcDbEntity
  8
0
  6
Continuous
 62
     7
370
    30
100
AcDbLine
 10
156.7295083052
 20
208.1042105802
 30
0.0
 11
156.6568902901
 21
211.3042104993
 31
0.0
  0
LINE
  5
F3
330
1F
100
AcDbEntity
  8
0
  6
Continuous
 62
     7
370
    30
100
AcDbLine
 10
136.2021259239
 20
211.3042104993
 30
0.0
 11
136.1295079088
 21
208.1042105802
 31
0.0
  0
LINE
  5
F4
330
1F
100
AcDbEntity
  8
0
  6
Continuous
 62
     7
370
    30
100
AcDbLine
 10
156.1645084268
 20
211.3042104993
 30
0.0
 11
156.0918904117
 21
214.5042104185
 31
0.0
  0
LINE
  5
F5
330
1F
100
AcDbEntity
  8
0
  6
Continuous
 62
     7
370
    30
100
AcDbLine
 10
136.7671258024
 20
214.5042104185
 30
0.0
 11
136.6945077872
 21
211.3042104993
 31
0.0
  0
ARC
  5
F6
330
1F
100
AcDbEntity
  8
0
  6
Continuous
 62
     7
370
    30
100
AcDbCircle
 10
146.429508107
 20
208.1042105802
 30
0.0
 40
11.50000000000001
100
AcDbArc
 50
91.2341523435
 51
146.1844075183
  0
ARC
  5
F7
330
1F
100
AcDbEntity
  8
0
  6
Continuous
 62
     7
370
    30
100
AcDbCircle
 10
146.429508107
 20
208.1042105802
 30
0.0
 40
11.50000000000001
100
AcDbArc
 50
33.8155924817
 51
88.8232487101
  0
LINE
  5
F8
330
1F
100
AcDbEntity
  8
0
  6
Continuous
 62
     7
370
    30
100
AcDbLine
 10
148.0005593014
 20
198.8042105459
 30
0.0
 11
148.0005593014
 21
194.1842107572
 31
0.0
  0
LINE
  5
F9
330
1F
100
AcDbEntity
  8
0
  6
Continuous
 62
     7
370
    30
100
AcDbLine
 10
148.4505593518
 20
194.1842107572
 30
0.0
 11
148.4505593518
 21
198.8042105459
 31
0.0
  0
LINE
  5
FA
330
1F
100
AcDbEntity
  8
0
  6
Continuous
 62
     7
370
    30
100
AcDbLine
 10
144.4084568622
 20
198.8042105459
 30
0.0
 11
144.4084568622
 21
194.1842107572
 31
0.0
  0
LINE
  5
FB
330
1F
100
AcDbEntity
  8
0
  6
Continuous
 62
     7
370
    30
100
AcDbLine
 10
144.8584569127
 20
194.1842107572
 30
0.0
 11
144.8584569127
 21
198.8042105459
 31
0.0
  0
LINE
  5
FC
330
1F
100
AcDbEntity
  8
0
  6
Continuous
 62
     7
370
    30
100
AcDbLine
 10
151.9445079586
 20
198.8042105459
 30
0.0
 11
151.4352058268
 21
206.1042104852
 31
0.0
  0
LINE
  5
FD
330
1F
100
AcDbEntity
  8
0
  6
Continuous
 62
     7
370
    30
100
AcDbLine
 10
141.4238103873
 20
206.1042104852
 30
0.0
 11
140.9145082554
 21
198.8042105459
 31
0.0
  0
LINE
  5
FE
330
1F
100
AcDbEntity
  8
0
  6
Continuous
 62
     7
370
    30
100
AcDbLine
 10
156.6568902901
 20
211.3042104993
 30
0.0
 11
136.2021259239
 21
211.3042104993
 31
0.0
  0
LINE
  5
FF
330
1F
100
AcDbEntity
  8
0
  6
Continuous
 62
     7
370
    30
100
AcDbLine
 10
156.3831540963
 20
208.1042105802
 30
0.0
 11
136.4758621177
 21
208.1042105802
 31
0.0
  0
LINE
  5
100
330
1F
100
AcDbEntity
  8
0
  6
Continuous
 62
     7
370
    30
100
AcDbLine
 10
156.0918904117
 20
214.5042104185
 30
0.0
 11
136.7671258024
 21
214.5042104185
 31
0.0
  0
SPLINE
  5
101
330
1F
100
AcDbEntity
  8
0
  6
Continuous
 62
     7
370
    30
100
AcDbSpline
210
0.0
220
0.0
230
1.0
 70
     8
 71
     3
 72
    17
 73
    13
 74
     0
 42
0.000000001
 43
0.00000001
 40
0.0
 40
0.0
 40
0.0
 40
0.0
 40
0.0720560068002758
 40
0.1794749771235841
 40
0.2868939611174348
 40
0.3943129637906638
 40
0.50173197716616
 40
0.6091509986985169
 40
0.7165700139590937
 40
0.8239890344353793
 40
0.931408027410328
 40
1.0
 40
1.0
 40
1.0
 40
1.0
 10
146.181874964161
 20
219.6014790334129
 30
0.0
 10
146.1818834821781
 20
219.6014791392383
 30
0.0
 10
146.1819046986039
 20
219.6014794028251
 30
0.0
 10
146.2134784727651
 20
219.6014951477767
 30
0.0
 10
146.2687203571346
 20
219.6015223180727
 30
0.0
 10
146.3424964099251
 20
219.6015580013265
 30
0.0
 10
146.4251782851046
 20
219.6016004395593
 30
0.0
 10
146.5077008191962
 20
219.6016408725298
 30
0.0
 10
146.5810445276484
 20
219.6016769836276
 30
0.0
 10
146.6355466329292
 20
219.6017044478173
 30
0.0
 10
146.6661596862941
 20
219.6017185924105
 30
0.0
 10
146.6657549654861
 20
219.6017191121091
 30
0.0
 10
146.6655972446391
 20
219.6017193146371
 30
0.0
  0
LINE
  5
102
330
1F
100
AcDbEntity
  8
0
  6
Continuous
 62
     7
370
    30
100
AcDbLine
 10
156.7795082203
 20
206.0542105701
 30
0.0
 11
156.778635571
 21
206.1042104852
 31
0.0
  0
LINE
  5
103
330
1F
100
AcDbEntity
  8
0
  6
Continuous
 62
     7
370
    30
100
AcDbLine
 10
157.0545082188
 20
206.0782698918
 30
0.0
 11
156.7795082203
 21
206.0542105701
 31
0.0
  0
LINE
  5
104
330
1F
100
AcDbEntity
  8
0
  6
Continuous
 62
     7
370
    30
100
AcDbLine
 10
157.1045081338
 20
206.0782698918
 30
0.0
 11
157.0545082188
 21
206.0782698918
 31
0.0
  0
LINE
  5
105
330
1F
100
AcDbEntity
  8
0
  6
Continuous
 62
     7
370
    30
100
AcDbLine
 10
157.1045081338
 20
205.7542106141
 30
0.0
 11
157.1045081338
 21
206.0782698918
 31
0.0
  0
LINE
  5
106
330
1F
100
AcDbEntity
  8
0
  6
Continuous
 62
     7
370
    30
100
AcDbLine
 10
156.4545083067
 20
205.1042105541
 30
0.0
 11
157.1045081338
 21
205.7542106141
 31
0.0
  0
LINE
  5
107
330
1F
100
AcDbEntity
  8
0
  6
Continuous
 62
     7
370
    30
100
AcDbLine
 10
156.029508563
 20
205.1042105541
 30
0.0
 11
156.4545083067
 21
205.1042105541
 31
0.0
  0
LINE
  5
108
330
1F
100
AcDbEntity
  8
0
  6
Continuous
 62
     7
370
    30
100
AcDbLine
 10
156.029508563
 20
205.1042105541
 30
0.0
 11
156.0128416142
 21
206.1042104852
 31
0.0
  0
LINE
  5
109
330
1F
100
AcDbEntity
  8
0
  6
Continuous
 62
     7
370
    30
100
AcDbLine
 10
135.7545080802
 20
205.7542106141
 30
0.0
 11
136.4045079073
 21
205.1042105541
 31
0.0
  0
LINE
  5
10A
330
1F
100
AcDbEntity
  8
0
  6
Continuous
 62
     7
370
    30
100
AcDbLine
 10
135.7545080802
 20
205.7542106141
 30
0.0
 11
135.7545080802
 21
206.0782698918
 31
0.0
  0
LINE
  5
10B
330
1F
100
AcDbEntity
  8
0
  6
Continuous
 62
     7
370
    30
100
AcDbLine
 10
135.7545080802
 20
206.0782698918
 30
0.0
 11
135.8045079953
 21
206.0782698918
 31
0.0
  0
LINE
  5
10C
330
1F
100
AcDbEntity
  8
0
  6
Continuous
 62
     7
370
    30
100
AcDbLine
 10
135.8045079953
 20
206.0782698918
 30
0.0
 11
136.0795079938
 21
206.0542105701
 31
0.0
  0
LINE
  5
10D
330
1F
100
AcDbEntity
  8
0
  6
Continuous
 62
     7
370
    30
100
AcDbLine
 10
136.080380643
 20
206.1042104852
 30
0.0
 11
136.0795079938
 21
206.0542105701
 31
0.0
  0
LINE
  5
10E
330
1F
100
AcDbEntity
  8
0
  6
Continuous
 62
     7
370
    30
100
AcDbLine
 10
136.829507651
 20
205.1042105541
 30
0.0
 11
136.4045079073
 21
205.1042105541
 31
0.0
  0
LINE
  5
10F
330
1F
100
AcDbEntity
  8
0
  6
Continuous
 62
     7
370
    30
100
AcDbLine
 10
136.829507651
 20
205.1042105541
 30
0.0
 11
136.8461745998
 21
206.1042104852
 31
0.0
  0
LINE
  5
110
330
1F
100
AcDbEntity
  8
0
  6
Continuous
 62
     7
370
    30
100
AcDbLine
 10
146.2795080999
 20
199.6842107274
 30
0.0
 11
146.2795080999
 21
200.4042106219
 31
0.0
  0
LINE
  5
111
330
1F
100
AcDbEntity
  8
0
  6
Continuous
 62
     7
370
    30
100
AcDbLine
 10
146.5795081141
 20
199.6842107274
 30
0.0
 11
146.5795081141
 21
200.4042106219
 31
0.0
  0
LINE
  5
112
330
1F
100
AcDbEntity
  8
0
  6
Continuous
 62
     7
370
    30
100
AcDbLine
 10
146.5795081141
 20
199.6842107274
 30
0.0
 11
146.2795080999
 21
199.6842107274
 31
0.0
  0
LINE
  5
113
330
1F
100
AcDbEntity
  8
0
  6
Continuous
 62
     7
370
    30
100
AcDbLine
 10
146.2795080999
 20
200.4042106219
 30
0.0
 11
146.5795081141
 21
200.4042106219
 31
0.0
  0
LINE
  5
114
330
1F
100
AcDbEntity
  8
0
  6
Continuous
 62
     7
370
    30
100
AcDbLine
 10
146.8295080969
 20
199.6842107274
 30
0.0
 11
146.8295080969
 21
200.4042106219
 31
0.0
  0
LINE
  5
115
330
1F
100
AcDbEntity
  8
0
  6
Continuous
 62
     7
370
    30
100
AcDbLine
 10
146.8295080969
 20
199.6842107274
 30
0.0
 11
146.5795081141
 21
199.6842107274
 31
0.0
  0
LINE
  5
116
330
1F
100
AcDbEntity
  8
0
  6
Continuous
 62
     7
370
    30
100
AcDbLine
 10
146.5795081141
 20
200.4042106219
 30
0.0
 11
146.8295080969
 21
200.4042106219
 31
0.0
  0
LINE
  5
117
330
1F
100
AcDbEntity
  8
0
  6
Continuous
 62
     7
370
    30
100
AcDbLine
 10
146.0295081171
 20
199.6842107274
 30
0.0
 11
146.0295081171
 21
200.4042106219
 31
0.0
  0
LINE
  5
118
330
1F
100
AcDbEntity
  8
0
  6
Continuous
 62
     7
370
    30
100
AcDbLine
 10
146.2795080999
 20
199.6842107274
 30
0.0
 11
146.0295081171
 21
199.6842107274
 31
0.0
  0
LINE
  5
119
330
1F
100
AcDbEntity
  8
0
  6
Continuous
 62
     7
370
    30
100
AcDbLine
 10
146.0295081171
 20
200.4042106219
 30
0.0
 11
146.2795080999
 21
200.4042106219
 31
0.0
  0
LINE
  5
11A
330
1F
100
AcDbEntity
  8
0
  6
Continuous
 62
     7
370
    30
100
AcDbLine
 10
146.9265586904
 20
199.6842107274
 30
0.0
 11
146.8295080969
 21
199.6842107274
 31
0.0
  0
LINE
  5
11B
330
1F
100
AcDbEntity
  8
0
  6
Continuous
 62
     7
370
    30
100
AcDbLine
 10
146.8295080969
 20
200.4042106219
 30
0.0
 11
146.8894546826
 21
200.4042106219
 31
0.0
  0
LINE
  5
11C
330
1F
100
AcDbEntity
  8
0
  6
Continuous
 62
     7
370
    30
100
AcDbLine
 10
146.0295081171
 20
199.6842107274
 30
0.0
 11
145.9319834805
 21
199.6842107274
 31
0.0
  0
LINE
  5
11D
330
1F
100
AcDbEntity
  8
0
  6
Continuous
 62
     7
370
    30
100
AcDbLine
 10
145.9688653096
 20
200.4042106219
 30
0.0
 11
146.0295081171
 21
200.4042106219
 31
0.0
  0
LINE
  5
11E
330
1F
100
AcDbEntity
  8
0
  6
Continuous
 62
     7
370
    30
100
AcDbLine
 10
148.384658268
 20
194.1842107572
 30
0.0
 11
148.4505593518
 21
194.1842107572
 31
0.0
  0
LINE
  5
11F
330
1F
100
AcDbEntity
  8
0
  6
Continuous
 62
     7
370
    30
100
AcDbLine
 10
148.0005593014
 20
194.1842107572
 30
0.0
 11
148.384658268
 21
194.1842107572
 31
0.0
  0
LINE
  5
120
330
1F
100
AcDbEntity
  8
0
  6
Continuous
 62
     7
370
    30
100
AcDbLine
 10
144.7925559452
 20
194.1842107572
 30
0.0
 11
144.8584569127
 21
194.1842107572
 31
0.0
  0
LINE
  5
121
330
1F
100
AcDbEntity
  8
0
  6
Continuous
 62
     7
370
    30
100
AcDbLine
 10
144.4084568622
 20
194.1842107572
 30
0.0
 11
144.7925559452
 21
194.1842107572
 31
0.0
  0
LINE
  5
122
330
1F
100
AcDbEntity
  8
0
  6
Continuous
 62
     7
370
    30
100
AcDbLine
 10
146.0295081171
 20
200.6542106629
 30
0.0
 11
146.0295081171
 21
200.4042106219
 31
0.0
  0
LINE
  5
123
330
1F
100
AcDbEntity
  8
0
  6
Continuous
 62
     7
370
    30
100
AcDbLine
 10
146.2795080999
 20
200.6542106629
 30
0.0
 11
146.2795080999
 21
200.4042106219
 31
0.0
  0
LINE
  5
124
330
1F
100
AcDbEntity
  8
0
  6
Continuous
 62
     7
370
    30
100
AcDbLine
 10
146.5795081141
 20
200.6542106629
 30
0.0
 11
146.5795081141
 21
200.4042106219
 31
0.0
  0
LINE
  5
125
330
1F
100
AcDbEntity
  8
0
  6
Continuous
 62
     7
370
    30
100
AcDbLine
 10
146.8295080969
 20
200.6542106629
 30
0.0
 11
146.8295080969
 21
200.4042106219
 31
0.0
  0
LINE
  5
126
330
1F
100
AcDbEntity
  8
0
  6
Continuous
 62
     7
370
    30
100
AcDbLine
 10
146.8901509044
 20
200.4042106219
 30
0.0
 11
146.8295080969
 21
200.4042106219
 31
0.0
  0
LINE
  5
127
330
1F
100
AcDbEntity
  8
0
  6
Continuous
 62
     7
370
    30
100
AcDbLine
 10
146.0295081171
 20
200.4042106219
 30
0.0
 11
145.9695615314
 21
200.4042106219
 31
0.0
  0
LINE
  5
128
330
1F
100
AcDbEntity
  8
0
  6
Continuous
 62
     7
370
    30
100
AcDbLine
 10
136.4758621177
 20
207.1042105327
 30
0.0
 11
136.4758621177
 21
208.1042105802
 31
0.0
  0
LINE
  5
129
330
1F
100
AcDbEntity
  8
0
  6
Continuous
 62
     7
370
    30
100
AcDbLine
 10
156.3831540963
 20
207.1042105327
 30
0.0
 11
156.3831540963
 21
208.1042105802
 31
0.0
  0
LINE
  5
12A
330
1F
100
AcDbEntity
  8
0
  6
Continuous
 62
     7
370
    30
100
AcDbLine
 10
136.4758621177
 20
207.1042105327
 30
0.0
 11
156.3831540963
 21
207.1042105327
 31
0.0
  0
LINE
  5
12B
330
1F
100
AcDbEntity
  8
0
  6
Continuous
 62
     7
370
    30
100
AcDbLine
 10
137.3680514491
 20
206.1042104852
 30
0.0
 11
137.3680514491
 21
207.1042105327
 31
0.0
  0
LINE
  5
12C
330
1F
100
AcDbEntity
  8
0
  6
Continuous
 62
     7
370
    30
100
AcDbLine
 10
155.490964765
 20
206.1042104852
 30
0.0
 11
155.490964765
 21
207.1042105327
 31
0.0
  0
LINE
  5
12D
330
1F
100
AcDbEntity
  8
0
  6
Continuous
 62
     7
370
    30
100
AcDbLine
 10
137.3680514491
 20
206.1042104852
 30
0.0
 11
155.490964765
 21
206.1042104852
 31
0.0
  0
LINE
  5
12E
330
1F
100
AcDbEntity
  8
0
  6
Continuous
 62
     7
370
    30
100
AcDbLine
 10
146.8795080993
 20
200.6542106629
 30
0.0
 11
146.9745081242
 21
198.8042105459
 31
0.0
  0
LINE
  5
12F
330
1F
100
AcDbEntity
  8
0
  6
Continuous
 62
     7
370
    30
100
AcDbLine
 10
145.9795081148
 20
200.6542106629
 30
0.0
 11
146.8795080993
 21
200.6542106629
 31
0.0
  0
LINE
  5
130
330
1F
100
AcDbEntity
  8
0
  6
Continuous
 62
     7
370
    30
100
AcDbLine
 10
145.8845080899
 20
198.8042105459
 30
0.0
 11
145.9795081148
 21
200.6542106629
 31
0.0
  0
LINE
  5
131
330
1F
100
AcDbEntity
  8
0
  6
Continuous
 62
     7
370
    30
100
AcDbLine
 10
146.9745081242
 20
198.8042105459
 30
0.0
 11
151.9445079586
 21
198.8042105459
 31
0.0
  0
LINE
  5
132
330
1F
100
AcDbEntity
  8
0
  6
Continuous
 62
     7
370
    30
100
AcDbLine
 10
140.9145082554
 20
198.8042105459
 30
0.0
 11
145.8845080899
 21
198.8042105459
 31
0.0
  0
LINE
  5
133
330
1F
100
AcDbEntity
  8
0
  6
Continuous
 62
     7
370
    30
100
AcDbLine
 10
146.9745081242
 20
198.8042105459
 30
0.0
 11
145.8845080899
 21
198.8042105459
 31
0.0
  0
LINE
  5
134
330
1F
100
AcDbEntity
  8
0
  6
Continuous
 62
     7
370
    30
100
AcDbLine
 10
156.5764286763
 20
208.1042105802
 30
0.0
 11
156.5764286763
 21
207.1042105327
 31
0.0
  0
LINE
  5
135
330
1F
100
AcDbEntity
  8
0
  6
Continuous
 62
     7
370
    30
100
AcDbLine
 10
156.5764286763
 20
207.1042105327
 30
0.0
 11
156.3831540963
 21
207.1042105327
 31
0.0
  0
LINE
  5
136
330
1F
100
AcDbEntity
  8
0
  6
Continuous
 62
     7
370
    30
100
AcDbLine
 10
156.3831540963
 20
208.1042105802
 30
0.0
 11
156.5764286763
 21
208.1042105802
 31
0.0
  0
LINE
  5
137
330
1F
100
AcDbEntity
  8
0
  6
Continuous
 62
     7
370
    30
100
AcDbLine
 10
136.2825875378
 20
208.1042105802
 30
0.0
 11
136.2825875378
 21
207.1042105327
 31
0.0
  0
LINE
  5
138
330
1F
100
AcDbEntity
  8
0
  6
Continuous
 62
     7
370
    30
100
AcDbLine
 10
136.2825875378
 20
207.1042105327
 30
0.0
 11
136.4758621177
 21
207.1042105327
 31
0.0
  0
LINE
  5
139
330
1F
100
AcDbEntity
  8
0
  6
Continuous
 62
     7
370
    30
100
AcDbLine
 10
136.4758621177
 20
208.1042105802
 30
0.0
 11
136.2825875378
 21
208.1042105802
 31
0.0
  0
LINE
  5
13A
330
1F
100
AcDbEntity
  8
0
  6
Continuous
 62
     7
370
    30
100
AcDbLine
 10
156.9295079655
 20
206.1173339844
 30
0.0
 11
156.9295079655
 21
208.1042105802
 31
0.0
  0
LINE
  5
13B
330
1F
100
AcDbEntity
  8
0
  6
Continuous
 62
     7
370
    30
100
AcDbLine
 10
156.9295079655
 20
206.1173339844
 30
0.0
 11
156.7795082203
 21
206.1042104852
 31
0.0
  0
LINE
  5
13C
330
1F
100
AcDbEntity
  8
0
  6
Continuous
 62
     7
370
    30
100
AcDbLine
 10
155.490964765
 20
206.1042104852
 30
0.0
 11
156.7795082203
 21
206.1042104852
 31
0.0
  0
LINE
  5
13D
330
1F
100
AcDbEntity
  8
0
  6
Continuous
 62
     7
370
    30
100
AcDbLine
 10
156.5764286763
 20
208.1042105802
 30
0.0
 11
156.9295079655
 21
208.1042105802
 31
0.0
  0
LINE
  5
13E
330
1F
100
AcDbEntity
  8
0
  6
Continuous
 62
     7
370
    30
100
AcDbLine
 10
157.4295080474
 20
208.1042105802
 30
0.0
 11
157.4295080474
 21
206.1610782057
 31
0.0
  0
LWPOLYLINE
  5
13F
330
1F
100
AcDbEntity
  8
0
  6
Continuous
 62
     7
370
    30
100
AcDbPolyline
 90
       10
 70
   128
 43
0.0
 10
157.4295080474
 20
206.1610782057
 10
157.4219121805
 20
206.1604135907
 10
157.3993546164
 20
206.1584401181
 10
157.3625208086
 20
206.1552176256
 10
157.3125302068
 20
206.150843902
 10
157.250901798
 20
206.1454522427
 10
157.1795084721
 20
206.1392060951
 10
157.1005183479
 20
206.1322952159
 10
157.0163323751
 20
206.1249300842
 10
156.9295079655
 20
206.1173339844
  0
LINE
  5
140
330
1F
100
AcDbEntity
  8
0
  6
Continuous
 62
     7
370
    30
100
AcDbLine
 10
156.9295079655
 20
208.1042105802
 30
0.0
 11
157.4295080474
 21
208.1042105802
 31
0.0
  0
LINE
  5
141
330
1F
100
AcDbEntity
  8
0
  6
Continuous
 62
     7
370
    30
100
AcDbLine
 10
135.9295082486
 20
206.1173339844
 30
0.0
 11
136.0795079938
 21
206.1042104852
 31
0.0
  0
LINE
  5
142
330
1F
100
AcDbEntity
  8
0
  6
Continuous
 62
     7
370
    30
100
AcDbLine
 10
135.9295082486
 20
208.1042105802
 30
0.0
 11
135.9295082486
 21
206.1173339844
 31
0.0
  0
LINE
  5
143
330
1F
100
AcDbEntity
  8
0
  6
Continuous
 62
     7
370
    30
100
AcDbLine
 10
137.3680514491
 20
206.1042104852
 30
0.0
 11
136.0795079938
 21
206.1042104852
 31
0.0
  0
LINE
  5
144
330
1F
100
AcDbEntity
  8
0
  6
Continuous
 62
     7
370
    30
100
AcDbLine
 10
136.2825875378
 20
208.1042105802
 30
0.0
 11
135.9295082486
 21
208.1042105802
 31
0.0
  0
LINE
  5
145
330
1F
100
AcDbEntity
  8
0
  6
Continuous
 62
     7
370
    30
100
AcDbLine
 10
135.4295081666
 20
206.1610782057
 30
0.0
 11
135.4295081666
 21
208.1042105802
 31
0.0
  0
LWPOLYLINE
  5
146
330
1F
100
AcDbEntity
  8
0
  6
Continuous
 62
     7
370
    30
100
AcDbPolyline
 90
       10
 70
   128
 43
0.0
 10
135.9295082486
 20
206.1173339844
 10
135.8426838389
 20
206.1249300842
 10
135.7584978661
 20
206.1322952159
 10
135.6795077419
 20
206.1392060951
 10
135.608114416
 20
206.1454522427
 10
135.5464860073
 20
206.150843902
 10
135.4964954055
 20
206.1552176256
 10
135.4596615976
 20
206.1584401181
 10
135.4371040335
 20
206.1604135907
 10
135.4295081666
 20
206.1610782057
  0
LINE
  5
147
330
1F
100
AcDbEntity
  8
0
  6
Continuous
 62
     7
370
    30
100
AcDbLine
 10
135.4295081666
 20
208.1042105802
 30
0.0
 11
135.9295082486
 21
208.1042105802
 31
0.0
  0
LINE
  5
148
330
1F
100
AcDbEntity
  8
0
  6
CENTERX2
 62
     7
370
     0
100
AcDbLine
 10
146.429508107
 20
222.5485477016
 30
0.0
 11
146.429508107
 21
192.1853982457
 31
0.0
  0
CIRCLE
  5
149
330
1F
100
AcDbEntity
  8
0
  6
Continuous
 62
     7
370
     0
100
AcDbCircle
 10
146.4238058906
 20
219.6015990867
 30
0.0
 40
0.0100000000000011
  0
DIMENSION
  5
14A
330
1F
100
AcDbEntity
  8
0
  6
Continuous
 62
     7
370
     0
100
AcDbDimension
  2
_D_4
 10
173.429508107
 20
198.8042105802
 30
0.0
 11
173.429508107
 21
208.0712735041
 31
0.0
 70
   160
  1
<>
 71
     2
 42
-1.0
  3
SLDDIMSTYLE3
100
AcDbAlignedDimension
 13
146.4238058906
 23
219.6015990867
 33
0.0
 14
151.944508107
 24
198.8042105802
 34
0.0
 50
90.0
100
AcDbRotatedDimension
  0
DIMENSION
  5
155
330
1F
100
AcDbEntity
  8
0
  6
Continuous
 62
     7
370
     0
100
AcDbDimension
  2
_D_5
 10
140.914508107
 20
187.4510102373
 30
0.0
 11
145.5038280079
 21
187.4510102373
 31
0.0
 70
   160
  1
%%c<>
 71
     2
 42
-1.0
  3
SLDDIMSTYLE4
100
AcDbAlignedDimension
 13
151.944508107
 23
198.8042105802
 33
0.0
 14
140.914508107
 24
198.8042105802
 34
0.0
100
AcDbRotatedDimension
  0
DIMENSION
  5
163
330
1F
100
AcDbEntity
  8
0
  6
Continuous
 62
     7
370
     0
100
AcDbDimension
  2
_D_6
 10
144.8584568828
 20
195.4019406907
 30
0.0
 11
123.9681585702
 21
195.4019406907
 31
0.0
 70
   160
  1
%%c<>
 71
     2
 42
-1.0
  3
SLDDIMSTYLE5
100
AcDbAlignedDimension
 13
144.4084568828
 23
194.1842105802
 33
0.0
 14
144.8584568828
 24
194.1842105802
 34
0.0
100
AcDbRotatedDimension
  0
DIMENSION
  5
170
330
1F
100
AcDbEntity
  8
0
  6
Continuous
 62
     7
370
     0
100
AcDbDimension
  2
_D_7
 10
164.1494879855
 20
194.1842105802
 30
0.0
 11
164.1494879855
 21
189.820275453
 31
0.0
 70
   160
  1
<>
 71
     2
 42
-1.0
  3
SLDDIMSTYLE6
100
AcDbAlignedDimension
 13
151.944508107
 23
198.8042105802
 33
0.0
 14
148.4505593312
 24
194.1842105802
 34
0.0
 50
90.0
100
AcDbRotatedDimension
  0
DIMENSION
  5
17C
330
1F
100
AcDbEntity
  8
0
  6
Continuous
 62
     7
370
     0
100
AcDbDimension
  2
_D_8
 10
164.1462419627
 20
198.8042105802
 30
0.0
 11
164.1462419627
 21
202.5590916153
 31
0.0
 70
   160
  1
<>
 71
     2
 42
-1.0
  3
SLDDIMSTYLE7
100
AcDbAlignedDimension
 13
156.779508107
 23
206.1042105802
 33
0.0
 14
151.944508107
 24
198.8042105802
 34
0.0
 50
90.0
100
AcDbRotatedDimension
  0
DIMENSION
  5
189
330
1F
100
AcDbEntity
  8
0
  6
Continuous
 62
     7
370
     0
100
AcDbDimension
  2
_D_9
 10
156.0918899484
 20
227.7740616216
 30
0.0
 11
144.8062267599
 21
227.7740616216
 31
0.0
 70
   160
  1
%%c<>
 71
     2
 42
-1.0
  3
SLDDIMSTYLE3
100
AcDbAlignedDimension
 13
136.7671262657
 23
214.5042105802
 33
0.0
 14
156.0918899484
 24
214.5042105802
 34
0.0
100
AcDbRotatedDimension
  0
DIMENSION
  5
194
330
1F
100
AcDbEntity
  8
0
  6
Continuous
 62
     7
370
     0
100
AcDbDimension
  2
_D_10
 10
157.429508107
 20
244.5113793829
 30
0.0
 11
146.4272704116
 21
244.5113793829
 31
0.0
 70
   160
  1
<>
 71
     2
 42
-1.0
  3
SLDDIMSTYLE8
100
AcDbAlignedDimension
 13
135.429508107
 23
208.1042105802
 33
0.0
 14
157.429508107
 24
208.1042105802
 34
0.0
100
AcDbRotatedDimension
  0
DIMENSION
  5
19F
330
1F
100
AcDbEntity
  8
0
  6
Continuous
 62
     7
370
     0
100
AcDbDimension
  2
_D_11
 10
136.2021262657
 20
235.7042105802
 30
0.0
 11
144.8062267599
 21
235.7042105802
 31
0.0
 70
   160
  1
%%c<>
 71
     2
 42
-1.0
  3
SLDDIMSTYLE9
100
AcDbAlignedDimension
 13
156.6568899484
 23
211.3042105802
 33
0.0
 14
136.2021262657
 24
211.3042105802
 34
0.0
100
AcDbRotatedDimension
  0
MTEXT
  5
1AB
330
1F
100
AcDbEntity
  8
0
  6
Continuous
 62
     7
370
     0
100
AcDbMText
 10
139.3842456929
 20
227.5365832496
 30
0.0
 40
2.38125
 41
0.0
 71
     1
 72
     1
  1
(0.760 dia.)
  7
SLDTEXTSTYLE0
 73
     1
 44
1.0
  0
MTEXT
  5
1AC
330
1F
100
AcDbEntity
  8
0
  6
Continuous
 62
     7
370
     0
100
AcDbMText
 10
141.426702719
 20
244.4016720263
 30
0.0
 40
2.38125
 41
0.0
 71
     1
 72
     1
  1
(0.866)
  7
SLDTEXTSTYLE0
 73
     1
 44
1.0
  0
MTEXT
  5
1AD
330
1F
100
AcDbEntity
  8
0
  6
Continuous
 62
     7
370
     0
100
AcDbMText
 10
140.5423376922
 20
186.7952906751
 30
0.0
 40
2.38125
 41
0.0
 71
     1
 72
     1
  1
(0.433 dia.)
  7
SLDTEXTSTYLE0
 73
     1
 44
1.0
  0
MTEXT
  5
1AE
330
1F
100
AcDbEntity
  8
0
  6
Continuous
 62
     7
370
     0
100
AcDbMText
 10
117.6417489702
 20
195.5364512435
 30
0.0
 40
2.38125
 41
0.0
 71
     1
 72
     1
  1
(0.018 dia.)
  7
SLDTEXTSTYLE0
 73
     1
 44
1.0
  0
MTEXT
  5
1AF
330
1F
100
AcDbEntity
  8
0
  6
Continuous
 62
     7
370
     0
100
AcDbMText
 10
139.3842456929
 20
235.5687273555
 30
0.0
 40
2.38125
 41
0.0
 71
     1
 72
     1
  1
(0.805 dia.)
  7
SLDTEXTSTYLE0
 73
     1
 44
1.0
  0
LINE
  5
1B0
330
1F
100
AcDbEntity
  8
0
  6
Continuous
 62
     7
370
     0
100
AcDbLine
 10
131.3518829734
 20
214.5042105802
 30
0.0
 11
161.4278905643
 21
214.5042105802
 31
0.0
  0
LINE
  5
1B1
330
1F
100
AcDbEntity
  8
0
  6
Continuous
 62
     7
370
     0
100
AcDbLine
 10
133.3518829734
 20
208.5042105802
 30
0.0
 11
133.3518829734
 21
214.5042105802
 31
0.0
  0
INSERT
  5
1B2
330
1F
100
AcDbEntity
  8
0
  6
Continuous
 62
     7
370
     0
100
AcDbBlockReference
  2
_OPEN30
 10
133.3518829734
 20
214.5042105802
 30
0.0
 41
3.0
 42
3.0
 50
90.0
  0
LINE
  5
1B3
330
1F
100
AcDbEntity
  8
0
  6
Continuous
 62
     7
370
     0
100
AcDbLine
 10
159.4278905643
 20
208.5042105802
 30
0.0
 11
159.4278905643
 21
214.5042105802
 31
0.0
  0
INSERT
  5
1B4
330
1F
100
AcDbEntity
  8
0
  6
Continuous
 62
     7
370
     0
100
AcDbBlockReference
  2
_OPEN30
 10
159.4278905643
 20
214.5042105802
 30
0.0
 41
3.0
 42
3.0
 50
90.0
  0
MTEXT
  5
1B5
330
1F
100
AcDbEntity
  8
0
  6
Continuous
 62
     7
100
AcDbMText
 10
132.0731356747
 20
209.2396011513
 30
0.0
 40
3.5
 41
0.0
 71
     1
 72
     1
  1
A
  7
SLDTEXTSTYLE0
 73
     1
 44
1.0
  0
MTEXT
  5
1B6
330
1F
100
AcDbEntity
  8
0
  6
Continuous
 62
     7
100
AcDbMText
 10
158.2160559458
 20
209.3184636559
 30
0.0
 40
3.5
 41
0.0
 71
     1
 72
     1
  1
A
  7
SLDTEXTSTYLE0
 73
     1
 44
1.0
  0
CIRCLE
  5
1B7
330
1F
100
AcDbEntity
  8
0
  6
Continuous
 62
     7
370
    30
100
AcDbCircle
 10
146.429508107
 20
268.8140958974
 30
0.0
 40
9.554580053565928
  0
CIRCLE
  5
1B8
330
1F
100
AcDbEntity
  8
0
  6
Continuous
 62
     7
370
    30
100
AcDbCircle
 10
146.429508107
 20
268.8140958974
 30
0.0
 40
9.662381841330074
  0
CIRCLE
  5
1B9
330
1F
100
AcDbEntity
  8
0
  6
Continuous
 62
     7
370
    30
100
AcDbCircle
 10
146.429508107
 20
268.8140958974
 30
0.0
 40
9.735000000000014
  0
ARC
  5
1BA
330
1F
100
AcDbEntity
  8
0
  6
Continuous
 62
     7
370
    30
100
AcDbCircle
 10
146.429508107
 20
268.8140958974
 30
0.0
 40
10.3
100
AcDbArc
 50
6.9705537036
 51
173.0294462964
  0
ARC
  5
1BB
330
1F
100
AcDbEntity
  8
0
  6
Continuous
 62
     7
370
    30
100
AcDbCircle
 10
146.429508107
 20
268.8140958974
 30
0.0
 40
10.30000000000001
100
AcDbArc
 50
353.0294462964
 51
6.9705537036
  0
ARC
  5
1BC
330
1F
100
AcDbEntity
  8
0
  6
Continuous
 62
     7
370
    30
100
AcDbCircle
 10
146.429508107
 20
268.8140958974
 30
0.0
 40
10.30000000000001
100
AcDbArc
 50
186.9705537036
 51
353.0294462964
  0
ARC
  5
1BD
330
1F
100
AcDbEntity
  8
0
  6
Continuous
 62
     7
370
    30
100
AcDbCircle
 10
146.429508107
 20
268.8140958974
 30
0.0
 40
10.30000000000001
100
AcDbArc
 50
173.0294462964
 51
186.9705537036
  0
CIRCLE
  5
1BE
330
1F
100
AcDbEntity
  8
0
  6
Continuous
 62
     7
370
    30
100
AcDbCircle
 10
146.429508107
 20
268.8140958974
 30
0.0
 40
10.22738184133004
  0
LINE
  5
1BF
330
1F
100
AcDbEntity
  8
0
  6
Continuous
 62
     7
370
    30
100
AcDbLine
 10
136.0795079938
 20
270.0283130592
 30
0.0
 11
136.1152912697
 21
270.0640958695
 31
0.0
  0
LINE
  5
1C0
330
1F
100
AcDbEntity
  8
0
  6
Continuous
 62
     7
370
    30
100
AcDbLine
 10
136.1152912697
 20
270.0640958695
 30
0.0
 11
136.1152912697
 21
267.5640959254
 31
0.0
  0
LINE
  5
1C1
330
1F
100
AcDbEntity
  8
0
  6
Continuous
 62
     7
370
    30
100
AcDbLine
 10
136.1152912697
 20
267.5640959254
 30
0.0
 11
136.0795079938
 21
267.5998787357
 31
0.0
  0
LINE
  5
1C2
330
1F
100
AcDbEntity
  8
0
  6
Continuous
 62
     7
370
    30
100
AcDbLine
 10
156.7795082203
 20
267.5998787357
 30
0.0
 11
156.7437249443
 21
267.5640959254
 31
0.0
  0
LINE
  5
1C3
330
1F
100
AcDbEntity
  8
0
  6
Continuous
 62
     7
370
    30
100
AcDbLine
 10
156.7437249443
 20
270.0640958695
 30
0.0
 11
156.7437249443
 21
267.5640959254
 31
0.0
  0
LINE
  5
1C4
330
1F
100
AcDbEntity
  8
0
  6
Continuous
 62
     7
370
    30
100
AcDbLine
 10
156.7437249443
 20
270.0640958695
 30
0.0
 11
156.7795082203
 21
270.0283130592
 31
0.0
  0
LINE
  5
1C5
330
1F
100
AcDbEntity
  8
0
  6
Continuous
 62
     7
370
    30
100
AcDbLine
 10
156.6533773413
 20
267.5640959254
 30
0.0
 11
156.7437249443
 21
267.5640959254
 31
0.0
  0
LINE
  5
1C6
330
1F
100
AcDbEntity
  8
0
  6
Continuous
 62
     7
370
    30
100
AcDbLine
 10
156.7437249443
 20
270.0640958695
 30
0.0
 11
156.6533773413
 21
270.0640958695
 31
0.0
  0
LINE
  5
1C7
330
1F
100
AcDbEntity
  8
0
  6
Continuous
 62
     7
370
    30
100
AcDbLine
 10
136.2056388727
 20
267.5640959254
 30
0.0
 11
136.1152912697
 21
267.5640959254
 31
0.0
  0
LINE
  5
1C8
330
1F
100
AcDbEntity
  8
0
  6
Continuous
 62
     7
370
    30
100
AcDbLine
 10
136.1152912697
 20
270.0640958695
 30
0.0
 11
136.2056388727
 21
270.0640958695
 31
0.0
  0
LINE
  5
1C9
330
1F
100
AcDbEntity
  8
0
  6
Continuous
 62
     7
370
    30
100
AcDbLine
 10
135.5795079118
 20
266.8140958024
 30
0.0
 11
135.5795079118
 21
270.8140959924
 31
0.0
  0
LINE
  5
1CA
330
1F
100
AcDbEntity
  8
0
  6
Continuous
 62
     7
370
    30
100
AcDbLine
 10
157.2795083022
 20
270.8140959924
 30
0.0
 11
157.2795083022
 21
266.8140958024
 31
0.0
  0
ARC
  5
1CB
330
1F
100
AcDbEntity
  8
0
  6
Continuous
 62
     7
370
    30
100
AcDbCircle
 10
156.5764288222
 20
271.5140958974
 30
0.0
 40
0.2000000000000337
100
AcDbArc
 50
194.9005966878
 51
270.0
  0
LINE
  5
1CC
330
1F
100
AcDbEntity
  8
0
  6
Continuous
 62
     7
370
    30
100
AcDbLine
 10
156.9295079655
 20
271.3140958415
 30
0.0
 11
156.5764286763
 21
271.3140958415
 31
0.0
  0
ARC
  5
1CD
330
1F
100
AcDbEntity
  8
0
  6
Continuous
 62
     7
370
    30
100
AcDbCircle
 10
156.929508107
 20
270.8140958974
 30
0.0
 40
0.5
100
AcDbArc
 50
0.0
 51
90.0
  0
LINE
  5
1CE
330
1F
100
AcDbEntity
  8
0
  6
Continuous
 62
     7
370
    30
100
AcDbLine
 10
157.4295080474
 20
266.8140958024
 30
0.0
 11
157.4295080474
 21
270.8140959924
 31
0.0
  0
ARC
  5
1CF
330
1F
100
AcDbEntity
  8
0
  6
Continuous
 62
     7
370
    30
100
AcDbCircle
 10
156.929508107
 20
266.8140958974
 30
0.0
 40
0.5
100
AcDbArc
 50
270.0
 51
0.0
  0
LINE
  5
1D0
330
1F
100
AcDbEntity
  8
0
  6
Continuous
 62
     7
370
    30
100
AcDbLine
 10
156.5764286763
 20
266.3140959533
 30
0.0
 11
156.9295079655
 21
266.3140959533
 31
0.0
  0
ARC
  5
1D1
330
1F
100
AcDbEntity
  8
0
  6
Continuous
 62
     7
370
    30
100
AcDbCircle
 10
156.5764288222
 20
266.1140958974
 30
0.0
 40
0.2000000000000455
100
AcDbArc
 50
90.0
 51
165.0994033122
  0
ARC
  5
1D2
330
1F
100
AcDbEntity
  8
0
  6
Continuous
 62
     7
370
    30
100
AcDbCircle
 10
146.429508107
 20
268.8140958974
 30
0.0
 40
10.30000000000003
100
AcDbArc
 50
194.9005966878
 51
345.0994033122
  0
ARC
  5
1D3
330
1F
100
AcDbEntity
  8
0
  6
Continuous
 62
     7
370
    30
100
AcDbCircle
 10
136.2825873919
 20
266.1140958974
 30
0.0
 40
0.1999999999999886
100
AcDbArc
 50
14.9005966878
 51
90.0
  0
LINE
  5
1D4
330
1F
100
AcDbEntity
  8
0
  6
Continuous
 62
     7
370
    30
100
AcDbLine
 10
136.2825875378
 20
266.3140959533
 30
0.0
 11
135.9295082486
 21
266.3140959533
 31
0.0
  0
ARC
  5
1D5
330
1F
100
AcDbEntity
  8
0
  6
Continuous
 62
     7
370
    30
100
AcDbCircle
 10
135.929508107
 20
266.8140958974
 30
0.0
 40
0.5
100
AcDbArc
 50
180.0
 51
270.0
  0
LINE
  5
1D6
330
1F
100
AcDbEntity
  8
0
  6
Continuous
 62
     7
370
    30
100
AcDbLine
 10
135.4295081666
 20
266.8140958024
 30
0.0
 11
135.4295081666
 21
270.8140959924
 31
0.0
  0
ARC
  5
1D7
330
1F
100
AcDbEntity
  8
0
  6
Continuous
 62
     7
370
    30
100
AcDbCircle
 10
135.929508107
 20
270.8140958974
 30
0.0
 40
0.5
100
AcDbArc
 50
90.0
 51
180.0
  0
LINE
  5
1D8
330
1F
100
AcDbEntity
  8
0
  6
Continuous
 62
     7
370
    30
100
AcDbLine
 10
135.9295082486
 20
271.3140958415
 30
0.0
 11
136.2825875378
 21
271.3140958415
 31
0.0
  0
ARC
  5
1D9
330
1F
100
AcDbEntity
  8
0
  6
Continuous
 62
     7
370
    30
100
AcDbCircle
 10
136.2825873919
 20
271.5140958974
 30
0.0
 40
0.2000000000000455
100
AcDbArc
 50
270.0
 51
345.0994033122
  0
ARC
  5
1DA
330
1F
100
AcDbEntity
  8
0
  6
Continuous
 62
     7
370
    30
100
AcDbCircle
 10
146.429508107
 20
268.8140958974
 30
0.0
 40
10.3
100
AcDbArc
 50
91.256137072
 51
165.0994033122
  0
ARC
  5
1DB
330
1F
100
AcDbEntity
  8
0
  6
Continuous
 62
     7
370
    30
100
AcDbCircle
 10
146.429508107
 20
278.9140958974
 30
0.0
 40
0.3000000000000222
100
AcDbArc
 50
41.1791674876
 51
138.8208325124
  0
ARC
  5
1DC
330
1F
100
AcDbEntity
  8
0
  6
Continuous
 62
     7
370
    30
100
AcDbCircle
 10
146.429508107
 20
268.8140958974
 30
0.0
 40
10.29999999999998
100
AcDbArc
 50
14.9005966878
 51
88.743862928
  0
LWPOLYLINE
  5
1DD
330
1F
100
AcDbEntity
  8
0
  6
Continuous
 62
     7
370
    30
100
AcDbPolyline
 90
        9
 70
   128
 43
0.0
 10
157.2795083022
 20
270.8140959924
 10
157.1819625071
 20
270.6775326708
 10
157.0881662166
 20
270.5462174684
 10
157.0017227179
 20
270.4251967564
 10
156.9259549698
 20
270.3191210942
 10
156.8637733555
 20
270.2320671136
 10
156.8175685799
 20
270.1673802415
 10
156.789115744
 20
270.127546178
 10
156.7795082203
 20
270.114095901
  0
LWPOLYLINE
  5
1DE
330
1F
100
AcDbEntity
  8
0
  6
Continuous
 62
     7
370
    30
100
AcDbPolyline
 90
       10
 70
   128
 43
0.0
 10
156.7795082203
 20
267.5140958939
 10
156.7871040872
 20
267.5034613542
 10
156.8096616513
 20
267.4718807878
 10
156.8464954591
 20
267.4203136897
 10
156.8964860609
 20
267.3503270101
 10
156.9581144697
 20
267.2640471913
 10
157.0295077956
 20
267.1640959064
 10
157.1084979198
 20
267.0535099654
 10
157.1926838926
 20
266.9356495801
 10
157.2795083022
 20
266.8140958024
  0
LINE
  5
1DF
330
1F
100
AcDbEntity
  8
0
  6
Continuous
 62
     7
370
    30
100
AcDbLine
 10
156.7795082203
 20
267.5140958939
 30
0.0
 11
156.7795082203
 21
270.114095901
 31
0.0
  0
ARC
  5
1E0
330
1F
100
AcDbEntity
  8
0
  6
Continuous
 62
     7
370
    30
100
AcDbCircle
 10
156.579508107
 20
270.1140958974
 30
0.0
 40
0.2000000000000419
100
AcDbArc
 50
0.0
 51
78.2261435767
  0
LWPOLYLINE
  5
1E1
330
1F
100
AcDbEntity
  8
0
  6
Continuous
 62
     7
370
    30
100
AcDbPolyline
 90
        9
 70
   128
 43
0.0
 10
136.0795079938
 20
270.114095901
 10
136.0699004701
 20
270.127546178
 10
136.0414476341
 20
270.1673802415
 10
135.9952428585
 20
270.2320671136
 10
135.9330612442
 20
270.3191210942
 10
135.8572934961
 20
270.4251967564
 10
135.7708499974
 20
270.5462174684
 10
135.677053707
 20
270.6775326708
 10
135.5795079118
 20
270.8140959924
  0
LINE
  5
1E2
330
1F
100
AcDbEntity
  8
0
  6
Continuous
 62
     7
370
    30
100
AcDbLine
 10
136.0795079938
 20
270.114095901
 30
0.0
 11
136.0795079938
 21
267.5140958939
 31
0.0
  0
LWPOLYLINE
  5
1E3
330
1F
100
AcDbEntity
  8
0
  6
Continuous
 62
     7
370
    30
100
AcDbPolyline
 90
       10
 70
   128
 43
0.0
 10
135.5795079118
 20
266.8140958024
 10
135.6663323215
 20
266.9356495801
 10
135.7505182943
 20
267.0535099654
 10
135.8295084185
 20
267.1640959064
 10
135.9009017444
 20
267.2640471913
 10
135.9625301531
 20
267.3503270101
 10
136.012520755
 20
267.4203136897
 10
136.0493545628
 20
267.4718807878
 10
136.0719121269
 20
267.5034613542
 10
136.0795079938
 20
267.5140958939
  0
ARC
  5
1E4
330
1F
100
AcDbEntity
  8
0
  6
Continuous
 62
     7
370
    30
100
AcDbCircle
 10
136.279508107
 20
270.1140958974
 30
0.0
 40
0.2000000000000171
100
AcDbArc
 50
101.7738564233
 51
180.0
  0
ARC
  5
1E5
330
1F
100
AcDbEntity
  8
0
  6
Continuous
 62
     7
370
    30
100
AcDbCircle
 10
156.579508107
 20
267.5140958974
 30
0.0
 40
0.1999999999999886
100
AcDbArc
 50
281.7738564233
 51
0.0
  0
ARC
  5
1E6
330
1F
100
AcDbEntity
  8
0
  6
Continuous
 62
     7
370
    30
100
AcDbCircle
 10
136.279508107
 20
267.5140958974
 30
0.0
 40
0.2000000000000171
100
AcDbArc
 50
180.0
 51
258.2261435767
  0
LINE
  5
1E7
330
1F
100
AcDbEntity
  8
0
  6
Continuous
 62
     7
370
    30
100
AcDbLine
 10
135.5795079118
 20
270.8140959924
 30
0.0
 11
136.3255485168
 21
270.8140959924
 31
0.0
  0
LINE
  5
1E8
330
1F
100
AcDbEntity
  8
0
  6
Continuous
 62
     7
370
    30
100
AcDbLine
 10
136.3255485168
 20
266.8140958024
 30
0.0
 11
135.5795079118
 21
266.8140958024
 31
0.0
  0
LINE
  5
1E9
330
1F
100
AcDbEntity
  8
0
  6
Continuous
 62
     7
370
    30
100
AcDbLine
 10
157.2795083022
 20
266.8140958024
 30
0.0
 11
156.5334676972
 21
266.8140958024
 31
0.0
  0
LINE
  5
1EA
330
1F
100
AcDbEntity
  8
0
  6
Continuous
 62
     7
370
    30
100
AcDbLine
 10
156.5334676972
 20
270.8140959924
 30
0.0
 11
157.2795083022
 21
270.8140959924
 31
0.0
  0
LWPOLYLINE
  5
1EB
330
1F
100
AcDbEntity
  8
0
  6
Continuous
 62
     7
370
    30
100
AcDbPolyline
 90
        8
 70
   128
 43
0.0
 10
156.6158450416
 20
270.3400509393
 10
156.6327923185
 20
270.3521561537
 10
156.6974791905
 20
270.3983610457
 10
156.7845336369
 20
270.4605425436
 10
156.8906084842
 20
270.5363107573
 10
157.0116301274
 20
270.6227541396
 10
157.1429447478
 20
270.7165507794
 10
157.2795083022
 20
270.8140959924
  0
LWPOLYLINE
  5
1EC
330
1F
100
AcDbEntity
  8
0
  6
Continuous
 62
     7
370
    30
100
AcDbPolyline
 90
        9
 70
   128
 43
0.0
 10
135.5795079118
 20
270.8140959924
 10
135.7010622716
 20
270.7272718156
 10
135.8189220748
 20
270.6430858428
 10
135.9295082486
 20
270.5640959514
 10
136.0294596499
 20
270.4927020434
 10
136.1157392359
 20
270.4310736347
 10
136.1857262647
 20
270.3810831493
 10
136.2372926644
 20
270.3442495743
 10
136.2431711725
 20
270.3400509393
  0
LWPOLYLINE
  5
1ED
330
1F
100
AcDbEntity
  8
0
  6
Continuous
 62
     7
370
    30
100
AcDbPolyline
 90
        8
 70
   128
 43
0.0
 10
157.2795083022
 20
266.8140958024
 10
157.1429447478
 20
266.9116410155
 10
157.0116301274
 20
267.0054376552
 10
156.8906084842
 20
267.0918810375
 10
156.7845336369
 20
267.1676492512
 10
156.6974791905
 20
267.2298307492
 10
156.6327923185
 20
267.2760356411
 10
156.6158450416
 20
267.2881408556
  0
LWPOLYLINE
  5
1EE
330
1F
100
AcDbEntity
  8
0
  6
Continuous
 62
     7
370
    30
100
AcDbPolyline
 90
        9
 70
   128
 43
0.0
 10
136.2431711725
 20
267.2881408556
 10
136.2372926644
 20
267.2839422206
 10
136.1857262647
 20
267.2471086456
 10
136.1157392359
 20
267.1971181601
 10
136.0294596499
 20
267.1354897514
 10
135.9295082486
 20
267.0640958434
 10
135.8189220748
 20
266.9851059521
 10
135.7010622716
 20
266.9009199793
 10
135.5795079118
 20
266.8140958024
  0
LINE
  5
1EF
330
1F
100
AcDbEntity
  8
0
  6
CENTERX2
 62
     7
370
     0
100
AcDbLine
 10
132.7600470937
 20
268.8140958974
 30
0.0
 11
159.8731558247
 21
268.8140958974
 31
0.0
  0
LINE
  5
1F0
330
1F
100
AcDbEntity
  8
0
  6
CENTERX2
 62
     7
370
     0
100
AcDbLine
 10
146.429508107
 20
256.2692105373
 30
0.0
 11
146.429508107
 21
281.3282958796
 31
0.0
  0
ARC
  5
1F1
330
1F
100
AcDbEntity
  8
0
  6
Continuous
 62
     7
370
    30
100
AcDbCircle
 10
150.9735046632
 20
154.7817480639
 30
0.0
 40
0.2
100
AcDbArc
 50
105.0
 51
192.5451104446
  0
ARC
  5
1F2
330
1F
100
AcDbEntity
  8
0
  6
Continuous
 62
     7
370
    30
100
AcDbCircle
 10
141.8855115509
 20
152.7607381208
 30
0.0
 40
0.2000000000000061
100
AcDbArc
 50
285.0
 51
12.5451104446
  0
ARC
  5
1F3
330
1F
100
AcDbEntity
  8
0
  6
Continuous
 62
     7
370
    30
100
AcDbCircle
 10
141.8855115509
 20
154.7817480639
 30
0.0
 40
0.2000000000000198
100
AcDbArc
 50
347.4342153281
 51
75.0
  0
ARC
  5
1F4
330
1F
100
AcDbEntity
  8
0
  6
Continuous
 62
     7
370
    30
100
AcDbCircle
 10
150.9735046632
 20
152.7607381208
 30
0.0
 40
0.2000000000000198
100
AcDbArc
 50
167.4342153281
 51
255.0
  0
ARC
  5
1F5
330
1F
100
AcDbEntity
  8
0
  6
Continuous
 62
     7
370
    30
100
AcDbCircle
 10
146.429508107
 20
153.7712430924
 30
0.0
 40
4.454999999999966
100
AcDbArc
 50
167.4625979333
 51
192.5361616963
  0
ARC
  5
1F6
330
1F
100
AcDbEntity
  8
0
  6
Continuous
 62
     7
370
    30
100
AcDbCircle
 10
146.429508107
 20
153.7712430924
 30
0.0
 40
4.455000000000015
100
AcDbArc
 50
347.461292596
 51
12.5360708538
  0
LINE
  5
1F7
330
1F
100
AcDbEntity
  8
0
  6
Continuous
 62
     7
370
    30
100
AcDbLine
 10
136.4045079073
 20
152.5736082455
 30
0.0
 11
136.829507651
 21
152.5736082455
 31
0.0
  0
LINE
  5
1F8
330
1F
100
AcDbEntity
  8
0
  6
Continuous
 62
     7
370
    30
100
AcDbLine
 10
136.4045079073
 20
154.9688779393
 30
0.0
 11
136.4045079073
 21
152.5736082455
 31
0.0
  0
LINE
  5
1F9
330
1F
100
AcDbEntity
  8
0
  6
Continuous
 62
     7
370
    30
100
AcDbLine
 10
136.829507651
 20
154.9688779393
 30
0.0
 11
136.4045079073
 21
154.9688779393
 31
0.0
  0
LINE
  5
1FA
330
1F
100
AcDbEntity
  8
0
  6
Continuous
 62
     7
370
    30
100
AcDbLine
 10
136.829507651
 20
152.5736082455
 30
0.0
 11
136.829507651
 21
154.9688779393
 31
0.0
  0
LINE
  5
1FB
330
1F
100
AcDbEntity
  8
0
  6
Continuous
 62
     7
370
    30
100
AcDbLine
 10
136.1152912697
 20
152.5212431203
 30
0.0
 11
136.2056388727
 21
152.5212431203
 31
0.0
  0
LINE
  5
1FC
330
1F
100
AcDbEntity
  8
0
  6
Continuous
 62
     7
370
    30
100
AcDbLine
 10
136.0795079938
 20
152.5570259306
 30
0.0
 11
136.1152912697
 21
152.5212431203
 31
0.0
  0
LINE
  5
1FD
330
1F
100
AcDbEntity
  8
0
  6
Continuous
 62
     7
370
    30
100
AcDbLine
 10
135.8045079953
 20
152.5566060206
 30
0.0
 11
136.0795079938
 21
152.5570259306
 31
0.0
  0
LINE
  5
1FE
330
1F
100
AcDbEntity
  8
0
  6
Continuous
 62
     7
370
    30
100
AcDbLine
 10
135.7545080802
 20
152.5566060206
 30
0.0
 11
135.8045079953
 21
152.5566060206
 31
0.0
  0
LINE
  5
1FF
330
1F
100
AcDbEntity
  8
0
  6
Continuous
 62
     7
370
    30
100
AcDbLine
 10
135.7545080802
 20
152.5566060206
 30
0.0
 11
135.7545080802
 21
152.5622625246
 31
0.0
  0
LINE
  5
200
330
1F
100
AcDbEntity
  8
0
  6
Continuous
 62
     7
370
    30
100
AcDbLine
 10
136.4045079073
 20
152.5736082455
 30
0.0
 11
135.7545080802
 21
152.5622625246
 31
0.0
  0
LINE
  5
201
330
1F
100
AcDbEntity
  8
0
  6
Continuous
 62
     7
370
    30
100
AcDbLine
 10
136.829507651
 20
152.5736082455
 30
0.0
 11
136.8795084974
 21
152.5212431203
 31
0.0
  0
LINE
  5
202
330
1F
100
AcDbEntity
  8
0
  6
Continuous
 62
     7
370
    30
100
AcDbLine
 10
136.2056388727
 20
152.5212431203
 30
0.0
 11
136.8795084974
 21
152.5212431203
 31
0.0
  0
LINE
  5
203
330
1F
100
AcDbEntity
  8
0
  6
Continuous
 62
     7
370
    30
100
AcDbLine
 10
156.4545083067
 20
152.5736082455
 30
0.0
 11
156.4545083067
 21
154.9688779393
 31
0.0
  0
LINE
  5
204
330
1F
100
AcDbEntity
  8
0
  6
Continuous
 62
     7
370
    30
100
AcDbLine
 10
156.4545083067
 20
154.9688779393
 30
0.0
 11
157.1045081338
 21
154.9802236601
 31
0.0
  0
LINE
  5
205
330
1F
100
AcDbEntity
  8
0
  6
Continuous
 62
     7
370
    30
100
AcDbLine
 10
157.1045081338
 20
154.9802236601
 30
0.0
 11
157.1045081338
 21
152.5622625246
 31
0.0
  0
LINE
  5
206
330
1F
100
AcDbEntity
  8
0
  6
Continuous
 62
     7
370
    30
100
AcDbLine
 10
157.1045081338
 20
152.5622625246
 30
0.0
 11
156.4545083067
 21
152.5736082455
 31
0.0
  0
LINE
  5
207
330
1F
100
AcDbEntity
  8
0
  6
Continuous
 62
     7
370
    30
100
AcDbLine
 10
135.7545080802
 20
152.5622625246
 30
0.0
 11
135.7545080802
 21
154.9802236601
 31
0.0
  0
LINE
  5
208
330
1F
100
AcDbEntity
  8
0
  6
Continuous
 62
     7
370
    30
100
AcDbLine
 10
135.7545080802
 20
154.9802236601
 30
0.0
 11
136.4045079073
 21
154.9688779393
 31
0.0
  0
LINE
  5
209
330
1F
100
AcDbEntity
  8
0
  6
Continuous
 62
     7
370
    30
100
AcDbLine
 10
156.4545083067
 20
152.5736082455
 30
0.0
 11
156.029508563
 21
152.5736082455
 31
0.0
  0
LINE
  5
20A
330
1F
100
AcDbEntity
  8
0
  6
Continuous
 62
     7
370
    30
100
AcDbLine
 10
156.029508563
 20
152.5736082455
 30
0.0
 11
156.029508563
 21
154.9688779393
 31
0.0
  0
LINE
  5
20B
330
1F
100
AcDbEntity
  8
0
  6
Continuous
 62
     7
370
    30
100
AcDbLine
 10
156.029508563
 20
154.9688779393
 30
0.0
 11
156.4545083067
 21
154.9688779393
 31
0.0
  0
LINE
  5
20C
330
1F
100
AcDbEntity
  8
0
  6
Continuous
 62
     7
370
    30
100
AcDbLine
 10
135.7545080802
 20
154.9802236601
 30
0.0
 11
135.7545080802
 21
154.9858801642
 31
0.0
  0
LINE
  5
20D
330
1F
100
AcDbEntity
  8
0
  6
Continuous
 62
     7
370
    30
100
AcDbLine
 10
135.7545080802
 20
154.9858801642
 30
0.0
 11
135.8045079953
 21
154.9858801642
 31
0.0
  0
LINE
  5
20E
330
1F
100
AcDbEntity
  8
0
  6
Continuous
 62
     7
370
    30
100
AcDbLine
 10
135.8045079953
 20
154.9858801642
 30
0.0
 11
136.0795079938
 21
154.9854602541
 31
0.0
  0
LINE
  5
20F
330
1F
100
AcDbEntity
  8
0
  6
Continuous
 62
     7
370
    30
100
AcDbLine
 10
136.1152912697
 20
155.0212430644
 30
0.0
 11
136.0795079938
 21
154.9854602541
 31
0.0
  0
LINE
  5
210
330
1F
100
AcDbEntity
  8
0
  6
Continuous
 62
     7
370
    30
100
AcDbLine
 10
136.2056388727
 20
155.0212430644
 30
0.0
 11
136.1152912697
 21
155.0212430644
 31
0.0
  0
LINE
  5
211
330
1F
100
AcDbEntity
  8
0
  6
Continuous
 62
     7
370
    30
100
AcDbLine
 10
136.8795084974
 20
155.0212430644
 30
0.0
 11
136.2056388727
 21
155.0212430644
 31
0.0
  0
LINE
  5
212
330
1F
100
AcDbEntity
  8
0
  6
Continuous
 62
     7
370
    30
100
AcDbLine
 10
136.829507651
 20
154.9688779393
 30
0.0
 11
136.8795084974
 21
155.0212430644
 31
0.0
  0
LINE
  5
213
330
1F
100
AcDbEntity
  8
0
  6
Continuous
 62
     7
370
    30
100
AcDbLine
 10
136.8795084974
 20
152.5212431203
 30
0.0
 11
136.8795084974
 21
155.0212430644
 31
0.0
  0
LINE
  5
214
330
1F
100
AcDbEntity
  8
0
  6
Continuous
 62
     7
370
    30
100
AcDbLine
 10
156.029508563
 20
152.5736082455
 30
0.0
 11
155.9795077166
 21
152.5212431203
 31
0.0
  0
LINE
  5
215
330
1F
100
AcDbEntity
  8
0
  6
Continuous
 62
     7
370
    30
100
AcDbLine
 10
155.9795077166
 20
152.5212431203
 30
0.0
 11
155.9795077166
 21
155.0212430644
 31
0.0
  0
LINE
  5
216
330
1F
100
AcDbEntity
  8
0
  6
Continuous
 62
     7
370
    30
100
AcDbLine
 10
156.029508563
 20
154.9688779393
 30
0.0
 11
155.9795077166
 21
155.0212430644
 31
0.0
  0
LINE
  5
217
330
1F
100
AcDbEntity
  8
0
  6
Continuous
 62
     7
370
    30
100
AcDbLine
 10
157.1045081338
 20
152.5566060206
 30
0.0
 11
157.1045081338
 21
152.5622625246
 31
0.0
  0
LINE
  5
218
330
1F
100
AcDbEntity
  8
0
  6
Continuous
 62
     7
370
    30
100
AcDbLine
 10
157.1045081338
 20
152.5566060206
 30
0.0
 11
157.0545082188
 21
152.5566060206
 31
0.0
  0
LINE
  5
219
330
1F
100
AcDbEntity
  8
0
  6
Continuous
 62
     7
370
    30
100
AcDbLine
 10
157.0545082188
 20
152.5566060206
 30
0.0
 11
156.7795082203
 21
152.5570259306
 31
0.0
  0
LINE
  5
21A
330
1F
100
AcDbEntity
  8
0
  6
Continuous
 62
     7
370
    30
100
AcDbLine
 10
156.7437249443
 20
152.5212431203
 30
0.0
 11
156.7795082203
 21
152.5570259306
 31
0.0
  0
LINE
  5
21B
330
1F
100
AcDbEntity
  8
0
  6
Continuous
 62
     7
370
    30
100
AcDbLine
 10
156.7437249443
 20
152.5212431203
 30
0.0
 11
156.6533773413
 21
152.5212431203
 31
0.0
  0
LINE
  5
21C
330
1F
100
AcDbEntity
  8
0
  6
Continuous
 62
     7
370
    30
100
AcDbLine
 10
155.9795077166
 20
152.5212431203
 30
0.0
 11
156.6533773413
 21
152.5212431203
 31
0.0
  0
LINE
  5
21D
330
1F
100
AcDbEntity
  8
0
  6
Continuous
 62
     7
370
    30
100
AcDbLine
 10
156.6533773413
 20
155.0212430644
 30
0.0
 11
156.7437249443
 21
155.0212430644
 31
0.0
  0
LINE
  5
21E
330
1F
100
AcDbEntity
  8
0
  6
Continuous
 62
     7
370
    30
100
AcDbLine
 10
156.7795082203
 20
154.9854602541
 30
0.0
 11
156.7437249443
 21
155.0212430644
 31
0.0
  0
LINE
  5
21F
330
1F
100
AcDbEntity
  8
0
  6
Continuous
 62
     7
370
    30
100
AcDbLine
 10
157.0545082188
 20
154.9858801642
 30
0.0
 11
156.7795082203
 21
154.9854602541
 31
0.0
  0
LINE
  5
220
330
1F
100
AcDbEntity
  8
0
  6
Continuous
 62
     7
370
    30
100
AcDbLine
 10
157.1045081338
 20
154.9858801642
 30
0.0
 11
157.0545082188
 21
154.9858801642
 31
0.0
  0
LINE
  5
221
330
1F
100
AcDbEntity
  8
0
  6
Continuous
 62
     7
370
    30
100
AcDbLine
 10
157.1045081338
 20
154.9802236601
 30
0.0
 11
157.1045081338
 21
154.9858801642
 31
0.0
  0
LINE
  5
222
330
1F
100
AcDbEntity
  8
0
  6
Continuous
 62
     7
370
    30
100
AcDbLine
 10
155.9795077166
 20
155.0212430644
 30
0.0
 11
156.6533773413
 21
155.0212430644
 31
0.0
  0
LWPOLYLINE
  5
223
330
1F
100
AcDbEntity
  8
0
  6
Continuous
 62
     7
370
    30
100
AcDbPolyline
 90
        3
 70
   128
 43
0.0
 10
155.9295078015
 20
153.7712430924
 10
155.9158127031
 20
154.281171073
 10
155.8795078865
 20
154.7446392121
  0
ARC
  5
224
330
1F
100
AcDbEntity
  8
0
  6
Continuous
 62
     7
370
    30
100
AcDbCircle
 10
146.429508107
 20
153.7712430924
 30
0.0
 40
9.500000000000028
100
AcDbArc
 50
174.1189957417
 51
185.8810042583
  0
LWPOLYLINE
  5
225
330
1F
100
AcDbEntity
  8
0
  6
Continuous
 62
     7
370
    30
100
AcDbPolyline
 90
        3
 70
   128
 43
0.0
 10
155.8795078865
 20
152.7978469727
 10
155.9158127031
 20
153.2613151118
 10
155.9295078015
 20
153.7712430924
  0
LINE
  5
226
330
1F
100
AcDbEntity
  8
0
  6
Continuous
 62
     7
370
    30
100
AcDbLine
 10
136.2056388727
 20
152.5212431203
 30
0.0
 11
136.2386980301
 21
152.2754510276
 31
0.0
  0
LINE
  5
227
330
1F
100
AcDbEntity
  8
0
  6
Continuous
 62
     7
370
    30
100
AcDbLine
 10
156.6203181839
 20
152.2754510276
 30
0.0
 11
156.6533773413
 21
152.5212431203
 31
0.0
  0
LINE
  5
228
330
1F
100
AcDbEntity
  8
0
  6
Continuous
 62
     7
370
    30
100
AcDbLine
 10
156.6533773413
 20
155.0212430644
 30
0.0
 11
156.6203181839
 21
155.2670351572
 31
0.0
  0
LINE
  5
229
330
1F
100
AcDbEntity
  8
0
  6
Continuous
 62
     7
370
    30
100
AcDbLine
 10
136.2386980301
 20
155.2670351572
 30
0.0
 11
136.2056388727
 21
155.0212430644
 31
0.0
  0
ARC
  5
22A
330
1F
100
AcDbEntity
  8
0
  6
Continuous
 62
     7
370
    30
100
AcDbCircle
 10
146.429508107
 20
153.7712430924
 30
0.0
 40
9.456362337679467
100
AcDbArc
 50
177.8981182059
 51
182.1018817941
  0
ARC
  5
22B
330
1F
100
AcDbEntity
  8
0
  6
Continuous
 62
     7
370
    30
100
AcDbCircle
 10
146.429508107
 20
153.7712430924
 30
0.0
 40
9.456362337679437
100
AcDbArc
 50
357.8981182059
 51
2.1018817941
  0
ARC
  5
22C
330
1F
100
AcDbEntity
  8
0
  6
Continuous
 62
     7
370
    30
100
AcDbCircle
 10
145.779508107
 20
158.5270290422
 30
0.0
 40
0.2500000000000305
100
AcDbArc
 50
277.7827143854
 51
0.0
  0
LINE
  5
22D
330
1F
100
AcDbEntity
  8
0
  6
Continuous
 62
     7
370
    30
100
AcDbLine
 10
146.0295081171
 20
158.8712432764
 30
0.0
 11
146.0295081171
 21
158.5270292468
 31
0.0
  0
ARC
  5
22E
330
1F
100
AcDbEntity
  8
0
  6
Continuous
 62
     7
370
    30
100
AcDbCircle
 10
146.279508107
 20
158.8712430924
 30
0.0
 40
0.25
100
AcDbArc
 50
90.0
 51
180.0
  0
LINE
  5
22F
330
1F
100
AcDbEntity
  8
0
  6
Continuous
 62
     7
370
    30
100
AcDbLine
 10
146.5795081141
 20
159.1212433174
 30
0.0
 11
146.2795080999
 21
159.1212433174
 31
0.0
  0
ARC
  5
230
330
1F
100
AcDbEntity
  8
0
  6
Continuous
 62
     7
370
    30
100
AcDbCircle
 10
146.579508107
 20
158.8712430924
 30
0.0
 40
0.25
100
AcDbArc
 50
0.0
 51
90.0
  0
LINE
  5
231
330
1F
100
AcDbEntity
  8
0
  6
Continuous
 62
     7
370
    30
100
AcDbLine
 10
146.8295080969
 20
158.5270292468
 30
0.0
 11
146.8295080969
 21
158.8712432764
 31
0.0
  0
ARC
  5
232
330
1F
100
AcDbEntity
  8
0
  6
Continuous
 62
     7
370
    30
100
AcDbCircle
 10
147.079508107
 20
158.5270290422
 30
0.0
 40
0.2500000000000023
100
AcDbArc
 50
180.0
 51
262.2172856146
  0
ARC
  5
233
330
1F
100
AcDbEntity
  8
0
  6
Continuous
 62
     7
370
    30
100
AcDbCircle
 10
146.429508107
 20
153.7712430924
 30
0.0
 40
4.550000000000032
100
AcDbArc
 50
14.6568599166
 51
82.2172856146
  0
ARC
  5
234
330
1F
100
AcDbEntity
  8
0
  6
Continuous
 62
     7
370
    30
100
AcDbCircle
 10
146.429508107
 20
153.7712430924
 30
0.0
 40
4.550000000000007
100
AcDbArc
 50
194.6568599166
 51
345.3431400834
  0
ARC
  5
235
330
1F
100
AcDbEntity
  8
0
  6
Continuous
 62
     7
370
    30
100
AcDbCircle
 10
146.429508107
 20
153.7712430924
 30
0.0
 40
4.55
100
AcDbArc
 50
97.7827143854
 51
165.3431400834
  0
CIRCLE
  5
236
330
1F
100
AcDbEntity
  8
0
  6
Continuous
 62
     7
370
    30
100
AcDbCircle
 10
148.2255593312
 20
151.9751918682
 30
0.0
 40
0.7500000000000262
  0
CIRCLE
  5
237
330
1F
100
AcDbEntity
  8
0
  6
Continuous
 62
     7
370
    30
100
AcDbCircle
 10
144.6334568828
 20
151.9751918682
 30
0.0
 40
0.7500000000000262
  0
CIRCLE
  5
238
330
1F
100
AcDbEntity
  8
0
  6
Continuous
 62
     7
370
    30
100
AcDbCircle
 10
148.2255593312
 20
155.5672943166
 30
0.0
 40
0.7500000000000262
  0
CIRCLE
  5
239
330
1F
100
AcDbEntity
  8
0
  6
Continuous
 62
     7
370
    30
100
AcDbCircle
 10
148.2255593312
 20
151.9751918682
 30
0.0
 40
0.2250000000000058
  0
CIRCLE
  5
23A
330
1F
100
AcDbEntity
  8
0
  6
Continuous
 62
     7
370
    30
100
AcDbCircle
 10
148.2255593312
 20
155.5672943166
 30
0.0
 40
0.225000000000026
  0
CIRCLE
  5
23B
330
1F
100
AcDbEntity
  8
0
  6
Continuous
 62
     7
370
    30
100
AcDbCircle
 10
144.6334568828
 20
151.9751918682
 30
0.0
 40
0.2249999999999857
  0
LINE
  5
23C
330
1F
100
AcDbEntity
  8
0
  6
Continuous
 62
     7
370
    30
100
AcDbLine
 10
146.9745081242
 20
159.2592480935
 30
0.0
 11
146.9745081242
 21
158.3891944371
 31
0.0
  0
LINE
  5
23D
330
1F
100
AcDbEntity
  8
0
  6
Continuous
 62
     7
370
    30
100
AcDbLine
 10
145.8845080899
 20
159.2592480935
 30
0.0
 11
145.8845080899
 21
158.3891944371
 31
0.0
  0
ARC
  5
23E
330
1F
100
AcDbEntity
  8
0
  6
Continuous
 62
     7
370
    30
100
AcDbCircle
 10
146.429508107
 20
153.7712430924
 30
0.0
 40
4.650000000000027
100
AcDbArc
 50
96.7307821522
 51
83.2692178478
  0
ARC
  5
23F
330
1F
100
AcDbEntity
  8
0
  6
Continuous
 62
     7
370
    30
100
AcDbCircle
 10
146.429508107
 20
153.7712430924
 30
0.0
 40
5.515000000000028
100
AcDbArc
 50
95.6713052782
 51
84.3286947218
  0
ARC
  5
240
330
1F
100
AcDbEntity
  8
0
  6
Continuous
 62
     7
370
    30
100
AcDbCircle
 10
146.429508107
 20
153.7712430924
 30
0.0
 40
4.65000000000003
100
AcDbArc
 50
95.5534441957
 51
96.7307821522
  0
LINE
  5
241
330
1F
100
AcDbEntity
  8
0
  6
Continuous
 62
     7
370
    30
100
AcDbLine
 10
145.9795081148
 20
159.1383414685
 30
0.0
 11
145.9795081148
 21
158.399417565
 31
0.0
  0
LINE
  5
242
330
1F
100
AcDbEntity
  8
0
  6
Continuous
 62
     7
370
    30
100
AcDbLine
 10
145.8845080899
 20
159.2592480935
 30
0.0
 11
145.9795081148
 21
159.1383414685
 31
0.0
  0
ARC
  5
243
330
1F
100
AcDbEntity
  8
0
  6
Continuous
 62
     7
370
    30
100
AcDbCircle
 10
146.429508107
 20
153.7712430924
 30
0.0
 40
4.650000000000035
100
AcDbArc
 50
83.2692178478
 51
84.4465558043
  0
LINE
  5
244
330
1F
100
AcDbEntity
  8
0
  6
Continuous
 62
     7
370
    30
100
AcDbLine
 10
146.8795080993
 20
159.1383414685
 30
0.0
 11
146.8795080993
 21
158.399417565
 31
0.0
  0
LINE
  5
245
330
1F
100
AcDbEntity
  8
0
  6
Continuous
 62
     7
370
    30
100
AcDbLine
 10
146.8795080993
 20
159.1383414685
 30
0.0
 11
146.9745081242
 21
159.2592480935
 31
0.0
  0
ARC
  5
246
330
1F
100
AcDbEntity
  8
0
  6
Continuous
 62
     7
370
    30
100
AcDbCircle
 10
146.429508107
 20
153.7712430924
 30
0.0
 40
5.38593023255816
100
AcDbArc
 50
85.2072915987
 51
94.7927084013
  0
ARC
  5
247
330
1F
100
AcDbEntity
  8
0
  6
Continuous
 62
     7
370
    30
100
AcDbCircle
 10
156.579508107
 20
155.0712430924
 30
0.0
 40
0.2000000000000171
100
AcDbArc
 50
0.0
 51
90.0
  0
LINE
  5
248
330
1F
100
AcDbEntity
  8
0
  6
Continuous
 62
     7
370
    30
100
AcDbLine
 10
155.8795078865
 20
155.2712431054
 30
0.0
 11
156.57950856
 21
155.2712431054
 31
0.0
  0
LINE
  5
249
330
1F
100
AcDbEntity
  8
0
  6
Continuous
 62
     7
370
    30
100
AcDbLine
 10
155.8795078865
 20
152.2712430794
 30
0.0
 11
155.8795078865
 21
155.2712431054
 31
0.0
  0
LINE
  5
24A
330
1F
100
AcDbEntity
  8
0
  6
Continuous
 62
     7
370
    30
100
AcDbLine
 10
156.57950856
 20
152.2712430794
 30
0.0
 11
155.8795078865
 21
152.2712430794
 31
0.0
  0
ARC
  5
24B
330
1F
100
AcDbEntity
  8
0
  6
Continuous
 62
     7
370
    30
100
AcDbCircle
 10
156.579508107
 20
152.4712430924
 30
0.0
 40
0.2000000000000171
100
AcDbArc
 50
270.0
 51
0.0
  0
LINE
  5
24C
330
1F
100
AcDbEntity
  8
0
  6
Continuous
 62
     7
370
    30
100
AcDbLine
 10
156.7795082203
 20
151.2712431483
 30
0.0
 11
156.7795082203
 21
152.4712430889
 31
0.0
  0
LINE
  5
24D
330
1F
100
AcDbEntity
  8
0
  6
Continuous
 62
     7
370
    30
100
AcDbLine
 10
156.7795082203
 20
151.2712431483
 30
0.0
 11
155.490964765
 21
151.2712431483
 31
0.0
  0
ARC
  5
24E
330
1F
100
AcDbEntity
  8
0
  6
Continuous
 62
     7
370
    30
100
AcDbCircle
 10
146.429508107
 20
153.7712430924
 30
0.0
 40
9.399999999999999
100
AcDbArc
 50
195.423852199
 51
344.576147801
  0
LINE
  5
24F
330
1F
100
AcDbEntity
  8
0
  6
Continuous
 62
     7
370
    30
100
AcDbLine
 10
136.0795079938
 20
151.2712431483
 30
0.0
 11
137.3680514491
 21
151.2712431483
 31
0.0
  0
LINE
  5
250
330
1F
100
AcDbEntity
  8
0
  6
Continuous
 62
     7
370
    30
100
AcDbLine
 10
136.0795079938
 20
151.2712431483
 30
0.0
 11
136.0795079938
 21
152.4712430889
 31
0.0
  0
ARC
  5
251
330
1F
100
AcDbEntity
  8
0
  6
Continuous
 62
     7
370
    30
100
AcDbCircle
 10
136.279508107
 20
152.4712430924
 30
0.0
 40
0.2000000000000171
100
AcDbArc
 50
180.0
 51
270.0
  0
LINE
  5
252
330
1F
100
AcDbEntity
  8
0
  6
Continuous
 62
     7
370
    30
100
AcDbLine
 10
136.279507654
 20
152.2712430794
 30
0.0
 11
136.9795083276
 21
152.2712430794
 31
0.0
  0
LINE
  5
253
330
1F
100
AcDbEntity
  8
0
  6
Continuous
 62
     7
370
    30
100
AcDbLine
 10
136.9795083276
 20
152.2712430794
 30
0.0
 11
136.9795083276
 21
155.2712431054
 31
0.0
  0
LINE
  5
254
330
1F
100
AcDbEntity
  8
0
  6
Continuous
 62
     7
370
    30
100
AcDbLine
 10
136.9795083276
 20
155.2712431054
 30
0.0
 11
136.279507654
 21
155.2712431054
 31
0.0
  0
ARC
  5
255
330
1F
100
AcDbEntity
  8
0
  6
Continuous
 62
     7
370
    30
100
AcDbCircle
 10
136.279508107
 20
155.0712430924
 30
0.0
 40
0.2000000000000171
100
AcDbArc
 50
90.0
 51
180.0
  0
LINE
  5
256
330
1F
100
AcDbEntity
  8
0
  6
Continuous
 62
     7
370
    30
100
AcDbLine
 10
136.0795079938
 20
155.0712430959
 30
0.0
 11
136.0795079938
 21
156.2712430365
 31
0.0
  0
LINE
  5
257
330
1F
100
AcDbEntity
  8
0
  6
Continuous
 62
     7
370
    30
100
AcDbLine
 10
137.3680514491
 20
156.2712430365
 30
0.0
 11
136.0795079938
 21
156.2712430365
 31
0.0
  0
ARC
  5
258
330
1F
100
AcDbEntity
  8
0
  6
Continuous
 62
     7
370
    30
100
AcDbCircle
 10
146.429508107
 20
153.7712430924
 30
0.0
 40
9.400000000000036
100
AcDbArc
 50
15.423852199
 51
164.576147801
  0
LINE
  5
259
330
1F
100
AcDbEntity
  8
0
  6
Continuous
 62
     7
370
    30
100
AcDbLine
 10
155.490964765
 20
156.2712430365
 30
0.0
 11
156.7795082203
 21
156.2712430365
 31
0.0
  0
LINE
  5
25A
330
1F
100
AcDbEntity
  8
0
  6
Continuous
 62
     7
370
    30
100
AcDbLine
 10
156.7795082203
 20
155.0712430959
 30
0.0
 11
156.7795082203
 21
156.2712430365
 31
0.0
  0
ARC
  5
25B
330
1F
100
AcDbEntity
  8
0
  6
Continuous
 62
     7
370
    30
100
AcDbCircle
 10
135.929508107
 20
155.7712430924
 30
0.0
 40
0.5
100
AcDbArc
 50
90.0
 51
180.0
  0
LINE
  5
25C
330
1F
100
AcDbEntity
  8
0
  6
Continuous
 62
     7
370
    30
100
AcDbLine
 10
135.9295082486
 20
156.2712430365
 30
0.0
 11
136.0795079938
 21
156.2712430365
 31
0.0
  0
LINE
  5
25D
330
1F
100
AcDbEntity
  8
0
  6
Continuous
 62
     7
370
    30
100
AcDbLine
 10
136.0795079938
 20
155.0712430959
 30
0.0
 11
136.0795079938
 21
154.9854602541
 31
0.0
  0
LINE
  5
25E
330
1F
100
AcDbEntity
  8
0
  6
Continuous
 62
     7
370
    30
100
AcDbLine
 10
136.0795079938
 20
152.5570259306
 30
0.0
 11
136.0795079938
 21
152.4712430889
 31
0.0
  0
LINE
  5
25F
330
1F
100
AcDbEntity
  8
0
  6
Continuous
 62
     7
370
    30
100
AcDbLine
 10
136.0795079938
 20
151.2712431483
 30
0.0
 11
135.9295082486
 21
151.2712431483
 31
0.0
  0
ARC
  5
260
330
1F
100
AcDbEntity
  8
0
  6
Continuous
 62
     7
370
    30
100
AcDbCircle
 10
135.929508107
 20
151.7712430924
 30
0.0
 40
0.5
100
AcDbArc
 50
180.0
 51
270.0
  0
LINE
  5
261
330
1F
100
AcDbEntity
  8
0
  6
Continuous
 62
     7
370
    30
100
AcDbLine
 10
135.4295081666
 20
151.7712429974
 30
0.0
 11
135.4295081666
 21
155.7712431874
 31
0.0
  0
LINE
  5
262
330
1F
100
AcDbEntity
  8
0
  6
Continuous
 62
     7
370
    30
100
AcDbLine
 10
156.7795082203
 20
155.0712430959
 30
0.0
 11
156.7795082203
 21
154.9854602541
 31
0.0
  0
LINE
  5
263
330
1F
100
AcDbEntity
  8
0
  6
Continuous
 62
     7
370
    30
100
AcDbLine
 10
156.7795082203
 20
152.5570259306
 30
0.0
 11
156.7795082203
 21
152.4712430889
 31
0.0
  0
LINE
  5
264
330
1F
100
AcDbEntity
  8
0
  6
Continuous
 62
     7
370
    30
100
AcDbLine
 10
156.9295079655
 20
156.2712430365
 30
0.0
 11
156.7795082203
 21
156.2712430365
 31
0.0
  0
ARC
  5
265
330
1F
100
AcDbEntity
  8
0
  6
Continuous
 62
     7
370
    30
100
AcDbCircle
 10
156.929508107
 20
155.7712430924
 30
0.0
 40
0.5
100
AcDbArc
 50
0.0
 51
90.0
  0
LINE
  5
266
330
1F
100
AcDbEntity
  8
0
  6
Continuous
 62
     7
370
    30
100
AcDbLine
 10
157.4295080474
 20
151.7712429974
 30
0.0
 11
157.4295080474
 21
155.7712431874
 31
0.0
  0
ARC
  5
267
330
1F
100
AcDbEntity
  8
0
  6
Continuous
 62
     7
370
    30
100
AcDbCircle
 10
156.929508107
 20
151.7712430924
 30
0.0
 40
0.5
100
AcDbArc
 50
270.0
 51
0.0
  0
LINE
  5
268
330
1F
100
AcDbEntity
  8
0
  6
Continuous
 62
     7
370
    30
100
AcDbLine
 10
156.7795082203
 20
151.2712431483
 30
0.0
 11
156.9295079655
 21
151.2712431483
 31
0.0
  0
ARC
  5
269
330
1F
100
AcDbEntity
  8
0
  6
Continuous
 62
     7
370
    30
100
AcDbCircle
 10
136.2825873919
 20
156.4712430924
 30
0.0
 40
0.1999999999999886
100
AcDbArc
 50
270.0
 51
345.0994033122
  0
ARC
  5
26A
330
1F
100
AcDbEntity
  8
0
  6
Continuous
 62
     7
370
    30
100
AcDbCircle
 10
146.429508107
 20
153.7712430924
 30
0.0
 40
10.30000000000003
100
AcDbArc
 50
14.9005966878
 51
165.0994033122
  0
ARC
  5
26B
330
1F
100
AcDbEntity
  8
0
  6
Continuous
 62
     7
370
    30
100
AcDbCircle
 10
156.5764288222
 20
156.4712430924
 30
0.0
 40
0.2000000000000117
100
AcDbArc
 50
194.9005966878
 51
270.0
  0
ARC
  5
26C
330
1F
100
AcDbEntity
  8
0
  6
Continuous
 62
     7
370
    30
100
AcDbCircle
 10
136.2825873919
 20
151.0712430924
 30
0.0
 40
0.2000000000000171
100
AcDbArc
 50
14.9005966878
 51
90.0
  0
ARC
  5
26D
330
1F
100
AcDbEntity
  8
0
  6
Continuous
 62
     7
370
    30
100
AcDbCircle
 10
156.5764288222
 20
151.0712430924
 30
0.0
 40
0.2000000000000117
100
AcDbArc
 50
90.0
 51
165.0994033122
  0
ARC
  5
26E
330
1F
100
AcDbEntity
  8
0
  6
Continuous
 62
     7
370
    30
100
AcDbCircle
 10
146.429508107
 20
153.7712430924
 30
0.0
 40
10.29999999999998
100
AcDbArc
 50
271.256137072
 51
345.0994033122
  0
ARC
  5
26F
330
1F
100
AcDbEntity
  8
0
  6
Continuous
 62
     7
370
    30
100
AcDbCircle
 10
146.429508107
 20
143.6712430924
 30
0.0
 40
0.2999999999999821
100
AcDbArc
 50
221.1791674876
 51
318.8208325124
  0
ARC
  5
270
330
1F
100
AcDbEntity
  8
0
  6
Continuous
 62
     7
370
    30
100
AcDbCircle
 10
146.429508107
 20
153.7712430924
 30
0.0
 40
10.3
100
AcDbArc
 50
194.9005966878
 51
268.743862928
  0
SPLINE
  5
271
330
1F
100
AcDbEntity
  8
0
  6
Continuous
 62
     7
370
    30
100
AcDbSpline
210
0.0
220
0.0
230
1.0
 70
     8
 71
     3
 72
    11
 73
     7
 74
     0
 42
0.000000001
 43
0.00000001
 40
0.0
 40
0.0
 40
0.0
 40
0.0
 40
0.1548916455866413
 40
0.4769772531695327
 40
0.7988587959840329
 40
1.0
 40
1.0
 40
1.0
 40
1.0
 10
150.9677540718188
 20
154.784566291393
 30
0.0
 10
150.9505583186607
 20
154.7803636579502
 30
0.0
 10
150.897605281223
 20
154.7674219621729
 30
0.0
 10
150.828085873832
 20
154.7504652976165
 30
0.0
 10
150.784250387548
 20
154.7397875123482
 30
0.0
 10
150.779937126723
 20
154.7387372060936
 30
0.0
 10
150.7782783566584
 20
154.7383332851056
 30
0.0
  0
SPLINE
  5
272
330
1F
100
AcDbEntity
  8
0
  6
Continuous
 62
     7
370
    30
100
AcDbSpline
210
0.0
220
0.0
230
1.0
 70
     8
 71
     3
 72
    12
 73
     8
 74
     0
 42
0.000000001
 43
0.00000001
 40
0.0
 40
0.0
 40
0.0
 40
0.0
 40
0.0344397953221255
 40
0.3562839050786704
 40
0.678060935846657
 40
0.9998917068348516
 40
1.0
 40
1.0
 40
1.0
 40
1.0
 10
141.8912621422281
 20
152.7579198933851
 30
0.0
 10
141.895161127462
 20
152.7588730767145
 30
0.0
 10
141.9354966077392
 20
152.7687338751208
 30
0.0
 10
142.0041023270702
 20
152.7854767418399
 30
0.0
 10
142.0640940461926
 20
152.8001138149858
 30
0.0
 10
142.0853555866757
 20
152.8052496152133
 30
0.0
 10
142.0807394101679
 20
152.8041532684593
 30
0.0
 10
142.0807378573884
 20
152.8041528996725
 30
0.0
  0
SPLINE
  5
273
330
1F
100
AcDbEntity
  8
0
  6
Continuous
 62
     7
370
    30
100
AcDbSpline
210
0.0
220
0.0
230
1.0
 70
     8
 71
     3
 72
    11
 73
     7
 74
     0
 42
0.000000001
 43
0.00000001
 40
0.0
 40
0.0
 40
0.0
 40
0.0
 40
0.2007309801152189
 40
0.5227778130945593
 40
0.8450288156320807
 40
1.0
 40
1.0
 40
1.0
 40
1.0
 10
142.0807164369692
 20
154.7383384655874
 30
0.0
 10
142.0790602820764
 20
154.7387417645854
 30
0.0
 10
142.0747470413773
 20
154.7397921045383
 30
0.0
 10
142.0309277914705
 20
154.7504659131368
 30
0.0
 10
141.961411203521
 20
154.7674218967996
 30
0.0
 10
141.9084579617429
 20
154.7803636419251
 30
0.0
 10
141.8912621422281
 20
154.784566291393
 30
0.0
  0
SPLINE
  5
274
330
1F
100
AcDbEntity
  8
0
  6
Continuous
 62
     7
370
    30
100
AcDbSpline
210
0.0
220
0.0
230
1.0
 70
     8
 71
     3
 72
    11
 73
     7
 74
     0
 42
0.000000001
 43
0.00000001
 40
0.0
 40
0.0
 40
0.0
 40
0.0
 40
0.0006196725481113
 40
0.322459541591517
 40
0.6442456688954955
 40
1.0
 40
1.0
 40
1.0
 40
1.0
 10
150.7782997770776
 20
152.8041477191907
 30
0.0
 10
150.7782910659811
 20
152.8041498192096
 30
0.0
 10
150.773758065127
 20
152.805242607854
 30
0.0
 10
150.7951371656503
 20
152.8000523958208
 30
0.0
 10
150.8560563859846
 20
152.7852047233012
 30
0.0
 10
150.9292975384914
 20
152.7673138209599
 30
0.0
 10
150.9677540718188
 20
152.7579198933851
 30
0.0
  0
LINE
  5
275
330
1F
100
AcDbEntity
  8
0
  6
CENTERX2
 62
     7
370
     0
100
AcDbLine
 10
146.429508107
 20
140.7778001657
 30
0.0
 11
146.429508107
 21
166.6104398226
 31
0.0
  0
LINE
  5
276
330
1F
100
AcDbEntity
  8
0
  6
CENTERX2
 62
     7
370
     0
100
AcDbLine
 10
132.7567596844
 20
153.7712430924
 30
0.0
 11
160.0102252437
 21
153.7712430924
 31
0.0
  0
LINE
  5
277
330
1F
100
AcDbEntity
  8
0
  6
CENTER
 62
     7
370
     0
100
AcDbLine
 10
146.429508107
 20
153.7712430924
 30
0.0
 11
144.6334568828
 21
151.9751918682
 31
0.0
  0
LINE
  5
278
330
1F
100
AcDbEntity
  8
0
  6
CENTERX2
 62
     7
370
     0
100
AcDbLine
 10
146.429508107
 20
153.7712430924
 30
0.0
 11
148.2255593312
 21
151.9751918682
 31
0.0
  0
CIRCLE
  5
279
330
1F
100
AcDbEntity
  8
0
  6
Continuous
 62
     7
370
     0
100
AcDbCircle
 10
146.429508107
 20
153.7712430924
 30
0.0
 40
2.539999999999983
  0
DIMENSION
  5
27A
330
1F
100
AcDbEntity
  8
0
  6
Continuous
 62
     7
370
     0
100
AcDbDimension
  2
_D_12
 10
147.8748769655
 20
151.6825811133
 30
0.0
 11
120.6838256019
 21
168.5634945629
 31
0.0
 70
   163
  1
P.C.D.<>
 71
     1
 42
-1.0
  3
SLDDIMSTYLE10
100
AcDbDiametricDimension
 15
144.9841392486
 25
155.8599050715
 35
0.0
 40
0.0
  0
DIMENSION
  5
287
330
1F
100
AcDbEntity
  8
0
  6
Continuous
 62
     7
370
     0
100
AcDbDimension
  2
_D_13
 10
146.429508107
 20
166.6104398226
 30
0.0
 11
134.2710272896
 21
134.2272047145
 31
0.0
 70
   162
  1
<>
 71
     1
 42
-1.0
  3
SLDDIMSTYLE11
100
AcDb2LineAngularDimension
 13
146.429508107
 23
153.7712430924
 33
0.0
 14
144.6334568828
 24
151.9751918682
 34
0.0
 15
146.429508107
 25
140.7778001657
 35
0.0
 16
137.6211521747
 26
132.5059907385
 36
0.0
  0
DIMENSION
  5
292
330
1F
100
AcDbEntity
  8
0
  6
Continuous
 62
     7
370
     0
100
AcDbDimension
  2
_D_14
 10
148.2255593312
 20
151.9751918682
 30
0.0
 11
151.595932015
 21
131.2685830967
 31
0.0
 70
   162
  1
<>
 71
     1
 42
-1.0
  3
SLDDIMSTYLE11
100
AcDb2LineAngularDimension
 13
146.429508107
 23
140.7778001657
 33
0.0
 14
146.429508107
 24
166.6104398226
 34
0.0
 15
146.429508107
 25
153.7712430924
 35
0.0
 16
155.2649520803
 26
132.4405944226
 36
0.0
  0
DIMENSION
  5
29C
330
1F
100
AcDbEntity
  8
0
  6
Continuous
 62
     7
370
     0
100
AcDbDimension
  2
_D_15
 10
170.8284645085
 20
151.2712430924
 30
0.0
 11
170.8284645085
 21
162.3190399648
 31
0.0
 70
   160
  1
<>
 71
     2
 42
-1.0
  3
SLDDIMSTYLE8
100
AcDbAlignedDimension
 13
156.929508107
 23
156.2712430924
 33
0.0
 14
156.929508107
 24
151.2712430924
 34
0.0
 50
90.0
100
AcDbRotatedDimension
  0
DIMENSION
  5
2A7
330
1F
100
AcDbEntity
  8
0
  6
Continuous
 62
     7
370
     0
100
AcDbDimension
  2
_D_16
 10
162.2950772123
 20
152.5212430924
 30
0.0
 11
162.2950772123
 21
162.3190399648
 31
0.0
 70
   160
  1
<>
 71
     2
 42
-1.0
  3
SLDDIMSTYLE7
100
AcDbAlignedDimension
 13
156.7437252239
 23
155.0212430924
 33
0.0
 14
156.7437252239
 24
152.5212430924
 34
0.0
 50
90.0
100
AcDbRotatedDimension
  0
MTEXT
  5
2B3
330
1F
100
AcDbEntity
  8
0
  6
Continuous
 62
     7
370
     0
100
AcDbMText
 10
153.7945561696
 20
135.5377883414
 30
0.0
 40
2.38125
 41
0.0
 71
     1
 72
     1
  1
±4°
  7
SLDTEXTSTYLE0
 11
0.8660254037844382
 21
0.5000000000000009
 31
0.0
 73
     1
 44
1.0
  0
MTEXT
  5
2B4
330
1F
100
AcDbEntity
  8
0
  6
Continuous
 62
     7
370
     0
100
AcDbMText
 10
139.2051871268
 20
135.4696437937
 30
0.0
 40
2.38125
 41
0.0
 71
     1
 72
     1
  1
±4°
  7
SLDTEXTSTYLE0
 11
0.9659258262890681
 21
-0.2588190451025214
 31
0.0
 73
     1
 44
1.0
  0
MTEXT
  5
2B5
330
1F
100
AcDbEntity
  8
0
  6
Continuous
 62
     7
370
     0
100
AcDbMText
 10
157.9096249293
 20
173.4296706237
 30
0.0
 40
3.5
 41
0.0
 71
     1
 72
     1
  1
VDD
  7
SLDTEXTSTYLE0
 73
     1
 44
1.0
  0
LEADER
  5
2B7
330
1F
100
AcDbEntity
  8
0
  6
Continuous
 62
     7
370
     0
100
AcDbLeader
  3
SLDDIMSTYLE12
 76
     3
 10
148.2822889117
 20
155.7850252393
 30
0.0
 10
157.3708375378
 20
168.8193743693
 30
0.0
 10
165.7416750757
 20
168.8193743693
 30
0.0
  0
MTEXT
  5
2B8
330
1F
100
AcDbEntity
  8
0
  6
Continuous
 62
     7
370
     0
100
AcDbMText
 10
157.8755962651
 20
148.5753355505
 30
0.0
 40
3.5
 41
0.0
 71
     1
 72
     1
  1
OUT
  7
SLDTEXTSTYLE0
 73
     1
 44
1.0
  0
LEADER
  5
2B9
330
1F
100
AcDbEntity
  8
0
  6
Continuous
 62
     7
370
     0
100
AcDbLeader
  3
SLDDIMSTYLE12
 76
     3
 10
148.4373012802
 20
151.8990975383
 30
0.0
 10
157.3708375378
 20
143.9959636731
 30
0.0
 10
165.7416750757
 20
143.9959636731
 30
0.0
  0
MTEXT
  5
2BA
330
1F
100
AcDbEntity
  8
0
  6
Continuous
 62
     7
370
     0
100
AcDbMText
 10
126.2501941549
 20
148.5753355505
 30
0.0
 40
3.5
 41
0.0
 71
     1
 72
     1
  1
GND
  7
SLDTEXTSTYLE0
 73
     1
 44
1.0
  0
LEADER
  5
2BB
330
1F
100
AcDbEntity
  8
0
  6
Continuous
 62
     7
370
     0
100
AcDbLeader
  3
SLDDIMSTYLE12
 76
     3
 10
144.4165522333
 20
151.9153807236
 30
0.0
 10
134.7583249243
 20
143.9959636731
 30
0.0
 10
126.1856710394
 20
143.9959636731
 30
0.0
  0
LINE
  5
2BC
330
1F
100
AcDbEntity
  8
0
  6
Continuous
 62
     7
370
    30
100
AcDbLine
 10
146.8657474881
 20
120.4835293642
 30
0.0
 11
146.8761065891
 21
120.4731702632
 31
0.0
  0
SPLINE
  5
2BD
330
1F
100
AcDbEntity
  8
0
  6
Continuous
 62
     7
370
    30
100
AcDbSpline
210
0.0
220
0.0
230
1.0
 70
     8
 71
     3
 72
    10
 73
     6
 74
     0
 42
0.000000001
 43
0.00000001
 40
0.0
 40
0.0
 40
0.0
 40
0.0
 40
0.5
 40
0.5
 40
1.0
 40
1.0
 40
1.0
 40
1.0
 10
146.8761065757583
 20
120.4731698924658
 30
0.0
 10
146.8763240511119
 20
120.4211313187861
 30
0.0
 10
146.8558116182404
 20
120.369813395071
 30
0.0
 10
146.7827175802545
 20
120.2949360806464
 30
0.0
 10
146.7304486110679
 20
120.2724235900391
 30
0.0
 10
146.6768971839221
 20
120.2724402062372
 30
0.0
  0
LINE
  5
2BE
330
1F
100
AcDbEntity
  8
0
  6
Continuous
 62
     7
370
    30
100
AcDbLine
 10
146.6768971852
 20
120.2724404461
 30
0.0
 11
146.6657779503
 21
120.2835595063
 31
0.0
  0
ELLIPSE
  5
2BF
330
1F
100
AcDbEntity
  8
0
  6
Continuous
 62
     7
370
    30
100
AcDbEllipse
 10
146.665717018
 20
120.4835899112
 30
0.0
 11
-0.1414644378339176
 21
0.1414644378339176
 31
0.0
210
0.0
220
0.0
230
1.0
 40
0.9996954599
 41
2.356346783439807
 42
3.926838523739652
  0
LINE
  5
2C0
330
1F
100
AcDbEntity
  8
0
  6
Continuous
 62
     7
370
    30
100
AcDbLine
 10
146.875139236
 20
102.5933265514
 30
0.0
 11
146.8657474881
 21
102.5834619827
 31
0.0
  0
ARC
  5
2C1
330
1F
100
AcDbEntity
  8
0
  6
Continuous
 62
     7
370
    30
100
AcDbCircle
 10
146.429508107
 20
111.5647988222
 30
0.0
 40
8.9825334805791
100
AcDbArc
 50
272.8436597623
 51
87.1563402377
  0
LINE
  5
2C2
330
1F
100
AcDbEntity
  8
0
  6
Continuous
 62
     7
370
    30
100
AcDbLine
 10
146.875139236
 20
120.536271093
 30
0.0
 11
146.8657474881
 21
120.5461356617
 31
0.0
  0
ARC
  5
2C3
330
1F
100
AcDbEntity
  8
0
  6
Continuous
 62
     7
370
    30
100
AcDbCircle
 10
146.429508107
 20
111.5647988222
 30
0.0
 40
8.991925246779974
100
AcDbArc
 50
272.7807716024
 51
87.2192283976
  0
LINE
  5
2C4
330
1F
100
AcDbEntity
  8
0
  6
Continuous
 62
     7
370
    30
100
AcDbLine
 10
145.9932687259
 20
120.5461356617
 30
0.0
 11
145.9838769781
 21
120.536271093
 31
0.0
  0
ARC
  5
2C5
330
1F
100
AcDbEntity
  8
0
  6
Continuous
 62
     7
370
    30
100
AcDbCircle
 10
146.429508107
 20
111.5647988222
 30
0.0
 40
8.982533480579098
100
AcDbArc
 50
92.8436597623
 51
267.1563402377
  0
LINE
  5
2C6
330
1F
100
AcDbEntity
  8
0
  6
Continuous
 62
     7
370
    30
100
AcDbLine
 10
145.9932687259
 20
102.5834619827
 30
0.0
 11
145.9838769781
 21
102.5933265514
 31
0.0
  0
ARC
  5
2C7
330
1F
100
AcDbEntity
  8
0
  6
Continuous
 62
     7
370
    30
100
AcDbCircle
 10
146.429508107
 20
111.5647988222
 30
0.0
 40
8.991925246779974
100
AcDbArc
 50
92.7807716024
 51
267.2192283976
  0
LWPOLYLINE
  5
2C8
330
1F
100
AcDbEntity
  8
0
  6
Continuous
 62
     7
370
    30
100
AcDbPolyline
 90
        9
 70
   128
 43
0.0
 10
146.875139236
 20
120.536271093
 10
146.8752475604
 20
120.5314636058
 10
146.8753558267
 20
120.5266514621
 10
146.8754640347
 20
120.5218346617
 10
146.8755721846
 20
120.5170141361
 10
146.8756802762
 20
120.5121889538
 10
146.8757882805
 20
120.5073600463
 10
146.8758962557
 20
120.5025264821
 10
146.8760041727
 20
120.4976882613
  0
SPLINE
  5
2C9
330
1F
100
AcDbEntity
  8
0
  6
Continuous
 62
     7
370
    30
100
AcDbSpline
210
0.0
220
0.0
230
1.0
 70
     8
 71
     3
 72
     8
 73
     4
 74
     0
 42
0.000000001
 43
0.00000001
 40
0.0000004991931835
 40
0.0000004991931835
 40
0.0000004991931835
 40
0.0000004991931835
 40
0.0000257152220778
 40
0.0000257152220778
 40
0.0000257152220778
 40
0.0000257152220778
 10
146.8760042102941
 20
120.4976942704869
 30
0.0
 10
146.8760382931684
 20
120.4895189444125
 30
0.0
 10
146.8760724145878
 20
120.4813441455839
 30
0.0
 10
146.8761065757583
 20
120.4731698924791
 30
0.0
  0
LINE
  5
2CA
330
1F
100
AcDbEntity
  8
0
  6
Continuous
 62
     7
370
    30
100
AcDbLine
 10
146.8657474881
 20
120.4835293642
 30
0.0
 11
146.8657474881
 21
120.5461356617
 31
0.0
  0
SPLINE
  5
2CB
330
1F
100
AcDbEntity
  8
0
  6
Continuous
 62
     7
370
    30
100
AcDbSpline
210
0.0
220
0.0
230
1.0
 70
     8
 71
     3
 72
     8
 73
     4
 74
     0
 42
0.000000001
 43
0.00000001
 40
0.0000072751545696
 40
0.0000072751545696
 40
0.0000072751545696
 40
0.0000072751545696
 40
0.0005020533082679
 40
0.0005020533082679
 40
0.0005020533082679
 40
0.0005020533082679
 10
146.6768971839216
 20
120.27244020624
 30
0.0
 10
146.5119971922392
 20
120.2724913722146
 30
0.0
 10
146.347019021958
 20
120.2724913722611
 30
0.0
 10
146.1821190302233
 20
120.2724402063381
 30
0.0
  0
LINE
  5
2CC
330
1F
100
AcDbEntity
  8
0
  6
Continuous
 62
     7
370
    30
100
AcDbLine
 10
146.1932382637
 20
120.2835595063
 30
0.0
 11
146.1821190289
 21
120.2724404461
 31
0.0
  0
LINE
  5
2CD
330
1F
100
AcDbEntity
  8
0
  6
Continuous
 62
     7
370
    30
100
AcDbLine
 10
146.1932382637
 20
120.2835595063
 30
0.0
 11
146.6657779503
 21
120.2835595063
 31
0.0
  0
LINE
  5
2CE
330
1F
100
AcDbEntity
  8
0
  6
Continuous
 62
     7
370
    30
100
AcDbLine
 10
145.9829096249
 20
120.4731702632
 30
0.0
 11
145.9932687259
 21
120.4835293642
 31
0.0
  0
SPLINE
  5
2CF
330
1F
100
AcDbEntity
  8
0
  6
Continuous
 62
     7
370
    30
100
AcDbSpline
210
0.0
220
0.0
230
1.0
 70
     8
 71
     3
 72
     8
 73
     4
 74
     0
 42
0.000000001
 43
0.00000001
 40
0.0000040167736621
 40
0.0000040167736621
 40
0.0000040167736621
 40
0.0000040167736621
 40
0.0000292221041771
 40
0.0000292221041771
 40
0.0000292221041771
 40
0.0000292221041771
 10
145.9829096384307
 20
120.473169892608
 30
0.0
 10
145.9829437851078
 20
120.4813406776269
 30
0.0
 10
145.9829778920677
 20
120.4895120079067
 30
0.0
 10
145.9830119605147
 20
120.4976838649925
 30
0.0
  0
LWPOLYLINE
  5
2D0
330
1F
100
AcDbEntity
  8
0
  6
Continuous
 62
     7
370
    30
100
AcDbPolyline
 90
        9
 70
   128
 43
0.0
 10
145.983011954
 20
120.497684536
 10
145.983119871
 20
120.5025227568
 10
145.9832278462
 20
120.507356321
 10
145.9833358796
 20
120.5121861599
 10
145.9834440004
 20
120.5170122734
 10
145.9835521502
 20
120.5218337304
 10
145.9836603582
 20
120.5266505308
 10
145.9837686245
 20
120.5314626745
 10
145.9838769781
 20
120.536271093
  0
LINE
  5
2D1
330
1F
100
AcDbEntity
  8
0
  6
Continuous
 62
     7
370
    30
100
AcDbLine
 10
145.9932687259
 20
120.5461356617
 30
0.0
 11
145.9932687259
 21
120.4835293642
 31
0.0
  0
SPLINE
  5
2D2
330
1F
100
AcDbEntity
  8
0
  6
Continuous
 62
     7
370
    30
100
AcDbSpline
210
0.0
220
0.0
230
1.0
 70
     8
 71
     3
 72
    10
 73
     6
 74
     0
 42
0.000000001
 43
0.00000001
 40
0.0
 40
0.0
 40
0.0
 40
0.0
 40
0.5
 40
0.5
 40
1.0
 40
1.0
 40
1.0
 40
1.0
 10
146.1821190302233
 20
120.2724402063381
 30
0.0
 10
146.1285978577736
 20
120.2724235995441
 30
0.0
 10
146.0763458253715
 20
120.2949448821188
 30
0.0
 10
146.003369865138
 20
120.3695871159999
 30
0.0
 10
145.9826922547075
 20
120.4211532451248
 30
0.0
 10
145.9829096384307
 20
120.473169892608
 30
0.0
  0
ELLIPSE
  5
2D3
330
1F
100
AcDbEntity
  8
0
  6
Continuous
 62
     7
370
    30
100
AcDbEllipse
 10
146.193299196
 20
120.4835899112
 30
0.0
 11
0.1414644378339176
 21
0.1414644378339176
 31
0.0
210
0.0
220
0.0
230
1.0
 40
0.9996954599
 41
2.356346783439923
 42
3.926838523739677
  0
LWPOLYLINE
  5
2D4
330
1F
100
AcDbEntity
  8
0
  6
Continuous
 62
     7
370
    30
100
AcDbPolyline
 90
        9
 70
   128
 43
0.0
 10
145.9830120413
 20
102.631909383
 10
145.9831199583
 20
102.6270711622
 10
145.9832279335
 20
102.6222375981
 10
145.9833359378
 20
102.6174086905
 10
145.9834440295
 20
102.6125835083
 10
145.9835521793
 20
102.6077629826
 10
145.9836603873
 20
102.6029461823
 10
145.9837686536
 20
102.5981340385
 10
145.9838769781
 20
102.5933265514
  0
SPLINE
  5
2D5
330
1F
100
AcDbEntity
  8
0
  6
Continuous
 62
     7
370
    30
100
AcDbSpline
210
0.0
220
0.0
230
1.0
 70
     8
 71
     3
 72
     8
 73
     4
 74
     0
 42
0.000000001
 43
0.00000001
 40
0.000004016773514
 40
0.000004016773514
 40
0.000004016773514
 40
0.000004016773514
 40
0.000029232802422
 40
0.000029232802422
 40
0.000029232802422
 40
0.000029232802422
 10
145.9829096382885
 20
102.6564277518731
 30
0.0
 10
145.9829437994589
 20
102.6482534987639
 30
0.0
 10
145.9829779208784
 20
102.6400786999308
 30
0.0
 10
145.9830120037527
 20
102.6319033738521
 30
0.0
  0
LINE
  5
2D6
330
1F
100
AcDbEntity
  8
0
  6
Continuous
 62
     7
370
    30
100
AcDbLine
 10
145.9932687259
 20
102.6460682801
 30
0.0
 11
145.9829096249
 21
102.6564273811
 31
0.0
  0
LINE
  5
2D7
330
1F
100
AcDbEntity
  8
0
  6
Continuous
 62
     7
370
    30
100
AcDbLine
 10
145.9932687259
 20
102.5834619827
 30
0.0
 11
145.9932687259
 21
102.6460682801
 31
0.0
  0
SPLINE
  5
2D8
330
1F
100
AcDbEntity
  8
0
  6
Continuous
 62
     7
370
    30
100
AcDbSpline
210
0.0
220
0.0
230
1.0
 70
     8
 71
     3
 72
     8
 73
     4
 74
     0
 42
0.000000001
 43
0.00000001
 40
0.0000005099157839
 40
0.0000005099157839
 40
0.0000005099157839
 40
0.0000005099157839
 40
0.0000257152462853
 40
0.0000257152462853
 40
0.0000257152462853
 40
0.0000257152462853
 10
146.8760042535321
 20
102.6319137793464
 30
0.0
 10
146.8760383219791
 20
102.6400856364279
 30
0.0
 10
146.8760724289389
 20
102.6482569667032
 30
0.0
 10
146.8761065756161
 20
102.6564277517176
 30
0.0
  0
LWPOLYLINE
  5
2D9
330
1F
100
AcDbEntity
  8
0
  6
Continuous
 62
     7
370
    30
100
AcDbPolyline
 90
        9
 70
   128
 43
0.0
 10
146.875139236
 20
102.5933265514
 10
146.8752475896
 20
102.5981349698
 10
146.8753558558
 20
102.6029471136
 10
146.8754640638
 20
102.6077639139
 10
146.8755722137
 20
102.6125853709
 10
146.8756803344
 20
102.6174114845
 10
146.8757883678
 20
102.6222413234
 10
146.875896343
 20
102.6270748875
 10
146.87600426
 20
102.6319131083
  0
LINE
  5
2DA
330
1F
100
AcDbEntity
  8
0
  6
Continuous
 62
     7
370
    30
100
AcDbLine
 10
146.8657474881
 20
102.6460682801
 30
0.0
 11
146.8657474881
 21
102.5834619827
 31
0.0
  0
LINE
  5
2DB
330
1F
100
AcDbEntity
  8
0
  6
Continuous
 62
     7
370
    30
100
AcDbLine
 10
146.8761065891
 20
102.6564273811
 30
0.0
 11
146.8657474881
 21
102.6460682801
 31
0.0
  0
SPLINE
  5
2DC
330
1F
100
AcDbEntity
  8
0
  6
Continuous
 62
     7
370
    30
100
AcDbSpline
210
0.0
220
0.0
230
1.0
 70
     8
 71
     3
 72
     8
 73
     4
 74
     0
 42
0.000000001
 43
0.00000001
 40
0.0000072751546646
 40
0.0000072751546646
 40
0.0000072751546646
 40
0.0000072751546646
 40
0.0005020533083629
 40
0.0005020533083629
 40
0.0005020533083629
 40
0.0005020533083629
 10
146.6768971838235
 20
102.8571574380009
 30
0.0
 10
146.5119971920888
 20
102.8571062720779
 30
0.0
 10
146.3470190218076
 20
102.8571062721244
 30
0.0
 10
146.1821190301252
 20
102.8571574380989
 30
0.0
  0
LINE
  5
2DD
330
1F
100
AcDbEntity
  8
0
  6
Continuous
 62
     7
370
    30
100
AcDbLine
 10
146.6657779503
 20
102.846038138
 30
0.0
 11
146.6768971852
 21
102.8571571983
 31
0.0
  0
LINE
  5
2DE
330
1F
100
AcDbEntity
  8
0
  6
Continuous
 62
     7
370
    30
100
AcDbLine
 10
146.1932382637
 20
102.846038138
 30
0.0
 11
146.6657779503
 21
102.846038138
 31
0.0
  0
LINE
  5
2DF
330
1F
100
AcDbEntity
  8
0
  6
Continuous
 62
     7
370
    30
100
AcDbLine
 10
146.1821190289
 20
102.8571571983
 30
0.0
 11
146.1932382637
 21
102.846038138
 31
0.0
  0
SPLINE
  5
2E0
330
1F
100
AcDbEntity
  8
0
  6
Continuous
 62
     7
370
    30
100
AcDbSpline
210
0.0
220
0.0
230
1.0
 70
     8
 71
     3
 72
    10
 73
     6
 74
     0
 42
0.000000001
 43
0.00000001
 40
0.0
 40
0.0
 40
0.0
 40
0.0
 40
0.5
 40
0.5
 40
1.0
 40
1.0
 40
1.0
 40
1.0
 10
145.9829096382885
 20
102.6564277518731
 30
0.0
 10
145.982692162935
 20
102.7084663255528
 30
0.0
 10
146.0032045958064
 20
102.759784249268
 30
0.0
 10
146.0762986337923
 20
102.8346615636925
 30
0.0
 10
146.1285676029789
 20
102.8571740542999
 30
0.0
 10
146.1821190301247
 20
102.8571574381017
 30
0.0
  0
ELLIPSE
  5
2E1
330
1F
100
AcDbEntity
  8
0
  6
Continuous
 62
     7
370
    30
100
AcDbEllipse
 10
146.193299196
 20
102.6460077331
 30
0.0
 11
0.1414644378339176
 21
-0.1414644378339176
 31
0.0
210
0.0
220
0.0
230
1.0
 40
0.9996954599
 41
2.356346783439899
 42
3.926838523739702
  0
SPLINE
  5
2E2
330
1F
100
AcDbEntity
  8
0
  6
Continuous
 62
     7
370
    30
100
AcDbSpline
210
0.0
220
0.0
230
1.0
 70
     8
 71
     3
 72
    10
 73
     6
 74
     0
 42
0.000000001
 43
0.00000001
 40
0.0
 40
0.0
 40
0.0
 40
0.0
 40
0.5
 40
0.5
 40
1.0
 40
1.0
 40
1.0
 40
1.0
 10
146.6768971838235
 20
102.8571574380009
 30
0.0
 10
146.7304183562732
 20
102.8571740447949
 30
0.0
 10
146.7826703886753
 20
102.8346527622202
 30
0.0
 10
146.8556463489088
 20
102.7600105283391
 30
0.0
 10
146.8763239593393
 20
102.7084443992141
 30
0.0
 10
146.8761065756161
 20
102.6564277517309
 30
0.0
  0
ELLIPSE
  5
2E3
330
1F
100
AcDbEntity
  8
0
  6
Continuous
 62
     7
370
    30
100
AcDbEllipse
 10
146.665717018
 20
102.6460077331
 30
0.0
 11
-0.1414644378339176
 21
-0.1414644378339176
 31
0.0
210
0.0
220
0.0
230
1.0
 40
0.9996954599
 41
2.356346783439873
 42
3.926838523739869
  0
CIRCLE
  5
2E4
330
1F
100
AcDbEntity
  8
0
  6
Continuous
 62
     7
370
    30
100
AcDbCircle
 10
146.429508107
 20
111.5647988222
 30
0.0
 40
9.554580053565957
  0
SPLINE
  5
2E5
330
1F
100
AcDbEntity
  8
0
  6
Continuous
 62
     7
370
    30
100
AcDbSpline
210
0.0
220
0.0
230
1.0
 70
     8
 71
     3
 72
    10
 73
     6
 74
     0
 42
0.000000001
 43
0.00000001
 40
0.0
 40
0.0
 40
0.0
 40
0.0
 40
0.5
 40
0.5
 40
1.0
 40
1.0
 40
1.0
 40
1.0
 10
141.5349829896081
 20
118.8899736090242
 30
0.0
 10
141.955769232263
 20
119.2869222109586
 30
0.0
 10
142.4579119922937
 20
119.6104758286269
 30
0.0
 10
143.5481220030621
 20
120.0621541171696
 30
0.0
 10
144.1326887085513
 20
120.1885877896458
 30
0.0
 10
144.7107792448877
 20
120.205432468911
 30
0.0
  0
SPLINE
  5
2E6
330
1F
100
AcDbEntity
  8
0
  6
Continuous
 62
     7
370
    30
100
AcDbSpline
210
0.0
220
0.0
230
1.0
 70
     8
 71
     3
 72
    10
 73
     6
 74
     0
 42
0.000000001
 43
0.00000001
 40
0.0
 40
0.0
 40
0.0
 40
0.0
 40
0.5
 40
0.5
 40
1.0
 40
1.0
 40
1.0
 40
1.0
 10
139.1043334354931
 20
116.4593242113054
 30
0.0
 10
139.341212619074
 20
116.9871489040939
 30
0.0
 10
139.681246115843
 20
117.4781300708114
 30
0.0
 10
140.5156729303096
 20
118.3126907157419
 30
0.0
 10
141.0073218330573
 20
118.653176910425
 30
0.0
 10
141.5349823439368
 20
118.8899743354534
 30
0.0
  0
SPLINE
  5
2E7
330
1F
100
AcDbEntity
  8
0
  6
Continuous
 62
     7
370
    30
100
AcDbSpline
210
0.0
220
0.0
230
1.0
 70
     8
 71
     3
 72
    10
 73
     6
 74
     0
 42
0.000000001
 43
0.00000001
 40
0.0
 40
0.0
 40
0.0
 40
0.0
 40
0.5
 40
0.5
 40
1.0
 40
1.0
 40
1.0
 40
1.0
 10
137.7888753802001
 20
113.283527664573
 30
0.0
 10
137.8057332912076
 20
113.8618185805396
 30
0.0
 10
137.9319893979784
 20
114.4455429912186
 30
0.0
 10
138.3835223159558
 20
115.5358963483619
 30
0.0
 10
138.7074475355472
 20
116.0386153466352
 30
0.0
 10
139.104332689221
 20
116.459324584255
 30
0.0
  0
SPLINE
  5
2E8
330
1F
100
AcDbEntity
  8
0
  6
Continuous
 62
     7
370
    30
100
AcDbSpline
210
0.0
220
0.0
230
1.0
 70
     8
 71
     3
 72
    10
 73
     6
 74
     0
 42
0.000000001
 43
0.00000001
 40
0.0
 40
0.0
 40
0.0
 40
0.0
 40
0.5000000000000001
 40
0.5000000000000001
 40
1.0
 40
1.0
 40
1.0
 40
1.0
 10
137.7888753300483
 20
109.8460702318961
 30
0.0
 10
137.5831476563614
 20
110.3867926162417
 30
0.0
 10
137.4764114282275
 20
110.9743997721915
 30
0.0
 10
137.4763132841996
 20
112.1545490889386
 30
0.0
 10
137.5831989328701
 20
112.7429616969107
 30
0.0
 10
137.7888745480267
 20
113.2835277235485
 30
0.0
  0
SPLINE
  5
2E9
330
1F
100
AcDbEntity
  8
0
  6
Continuous
 62
     7
370
    30
100
AcDbSpline
210
0.0
220
0.0
230
1.0
 70
     8
 71
     3
 72
    10
 73
     6
 74
     0
 42
0.000000001
 43
0.00000001
 40
0.0
 40
0.0
 40
0.0
 40
0.0
 40
0.4999999999999998
 40
0.4999999999999998
 40
1.0
 40
1.0
 40
1.0
 40
1.0
 10
139.1043332926598
 20
106.6702736467748
 30
0.0
 10
138.7073402076712
 20
107.0911074181434
 30
0.0
 10
138.3838612677998
 20
107.5931394565424
 30
0.0
 10
137.9321470033052
 20
108.6834176974988
 30
0.0
 10
137.8057207099652
 20
109.2679434295797
 30
0.0
 10
137.7888745386514
 20
109.8460699679233
 30
0.0
  0
SPLINE
  5
2EA
330
1F
100
AcDbEntity
  8
0
  6
Continuous
 62
     7
370
    30
100
AcDbSpline
210
0.0
220
0.0
230
1.0
 70
     8
 71
     3
 72
    10
 73
     6
 74
     0
 42
0.000000001
 43
0.00000001
 40
0.0
 40
0.0
 40
0.0
 40
0.0
 40
0.5
 40
0.5
 40
1.0
 40
1.0
 40
1.0
 40
1.0
 10
141.5349827178831
 20
104.2396241506261
 30
0.0
 10
141.0071628200313
 20
104.4765011821944
 30
0.0
 10
140.5161879046739
 20
104.8165282761284
 30
0.0
 10
139.6816269216816
 20
105.6509504625053
 30
0.0
 10
139.3411359434351
 20
106.1426005747245
 30
0.0
 10
139.1043326625224
 20
106.6702731000412
 30
0.0
  0
SPLINE
  5
2EB
330
1F
100
AcDbEntity
  8
0
  6
Continuous
 62
     7
370
    30
100
AcDbSpline
210
0.0
220
0.0
230
1.0
 70
     8
 71
     3
 72
    10
 73
     6
 74
     0
 42
0.000000001
 43
0.00000001
 40
0.0
 40
0.0
 40
0.0
 40
0.0
 40
0.5
 40
0.5
 40
1.0
 40
1.0
 40
1.0
 40
1.0
 10
144.7107792430758
 20
102.9241661557698
 30
0.0
 10
144.1325590418745
 20
102.9410217482051
 30
0.0
 10
143.5487125159418
 20
103.0672994754904
 30
0.0
 10
142.4584339571562
 20
103.5188050827939
 30
0.0
 10
141.9556758868468
 20
103.8427530467624
 30
0.0
 10
141.5349823438637
 20
104.2396234072046
 30
0.0
  0
SPLINE
  5
2EC
330
1F
100
AcDbEntity
  8
0
  6
Continuous
 62
     7
370
    30
100
AcDbSpline
210
0.0
220
0.0
230
1.0
 70
     8
 71
     3
 72
    14
 73
    10
 74
     0
 42
0.000000001
 43
0.00000001
 40
0.0
 40
0.0
 40
0.0
 40
0.0
 40
0.1433239298149665
 40
0.2863907340433992
 40
0.429261450928478
 40
0.5719970575352509
 40
0.7146583726137528
 40
0.8573059551776262
 40
1.0
 40
1.0
 40
1.0
 40
1.0
 10
144.7107069861314
 20
102.9241930995989
 30
0.0
 10
144.7688383246425
 20
102.9028381829461
 30
0.0
 10
144.8849967130469
 20
102.8601666607268
 30
0.0
 10
145.0630281144146
 20
102.8047500767677
 30
0.0
 10
145.2432454886452
 20
102.7558017331111
 30
0.0
 10
145.4256654925869
 20
102.7139308007504
 30
0.0
 10
145.6099439305173
 20
102.6791978589409
 30
0.0
 10
145.7957401103968
 20
102.6510376859246
 30
0.0
 10
145.9205812368959
 20
102.6382885101934
 30
0.0
 10
145.9830119641035
 20
102.6319128843519
 30
0.0
  0
SPLINE
  5
2ED
330
1F
100
AcDbEntity
  8
0
  6
Continuous
 62
     7
370
    30
100
AcDbSpline
210
0.0
220
0.0
230
1.0
 70
     8
 71
     3
 72
    14
 73
    10
 74
     0
 42
0.000000001
 43
0.00000001
 40
0.0
 40
0.0
 40
0.0
 40
0.0
 40
0.1426938553540819
 40
0.2853413245385019
 40
0.4280025948623509
 40
0.5707382175641244
 40
0.7136090033334187
 40
0.8566759209154868
 40
1.0
 40
1.0
 40
1.0
 40
1.0
 10
145.9830119642833
 20
120.4976847678488
 30
0.0
 10
145.9205850442989
 20
120.4913095724578
 30
0.0
 10
145.7957514977456
 20
120.4785612540908
 30
0.0
 10
145.6099664440241
 20
120.4504034473295
 30
0.0
 10
145.4256988163422
 20
120.4156736416419
 30
0.0
 10
145.243289251572
 20
120.3738066735313
 30
0.0
 10
145.0630818855283
 20
120.3248631041072
 30
0.0
 10
144.8850600624122
 20
120.2694520254136
 30
0.0
 10
144.7689076218172
 20
120.2267848164531
 30
0.0
 10
144.7107792526455
 20
120.2054320557081
 30
0.0
  0
SPLINE
  5
2EE
330
1F
100
AcDbEntity
  8
0
  6
Continuous
 62
     7
370
    30
100
AcDbSpline
210
0.0
220
0.0
230
1.0
 70
     8
 71
     3
 72
    14
 73
    10
 74
     0
 42
0.000000001
 43
0.00000001
 40
0.0
 40
0.0
 40
0.0
 40
0.0
 40
0.1426938553540002
 40
0.2853413245383601
 40
0.4280025948621791
 40
0.5707382175639512
 40
0.7136090033332801
 40
0.8566759209154015
 40
1.0
 40
1.0
 40
1.0
 40
1.0
 10
146.8760042497636
 20
102.6319128764901
 30
0.0
 10
146.9384311697479
 20
102.6382880718811
 30
0.0
 10
147.063264716301
 20
102.6510363902481
 30
0.0
 10
147.2490497700226
 20
102.6791941970095
 30
0.0
 10
147.4333173977044
 20
102.713924002697
 30
0.0
 10
147.6157269624746
 20
102.7557909708076
 30
0.0
 10
147.7959343285183
 20
102.8047345402317
 30
0.0
 10
147.9739561516345
 20
102.8601456189254
 30
0.0
 10
148.0901085922295
 20
102.9028128278858
 30
0.0
 10
148.1482369614013
 20
102.9241655886309
 30
0.0
  0
SPLINE
  5
2EF
330
1F
100
AcDbEntity
  8
0
  6
Continuous
 62
     7
370
    30
100
AcDbSpline
210
0.0
220
0.0
230
1.0
 70
     8
 71
     3
 72
    10
 73
     6
 74
     0
 42
0.000000001
 43
0.00000001
 40
0.0
 40
0.0
 40
0.0
 40
0.0
 40
0.4999999999999998
 40
0.4999999999999998
 40
1.0
 40
1.0
 40
1.0
 40
1.0
 10
151.3240332824077
 20
104.2396240078149
 30
0.0
 10
150.9031956878958
 20
103.8426273164221
 30
0.0
 10
150.4011553417567
 20
103.5191450513059
 30
0.0
 10
149.3108729543737
 20
103.0674328702328
 30
0.0
 10
148.7263501702893
 20
102.9410105334845
 30
0.0
 10
148.1482369727881
 20
102.9241651745762
 30
0.0
  0
SPLINE
  5
2F0
330
1F
100
AcDbEntity
  8
0
  6
Continuous
 62
     7
370
    30
100
AcDbSpline
210
0.0
220
0.0
230
1.0
 70
     8
 71
     3
 72
    10
 73
     6
 74
     0
 42
0.000000001
 43
0.00000001
 40
0.0
 40
0.0
 40
0.0
 40
0.0
 40
0.5
 40
0.5
 40
1.0
 40
1.0
 40
1.0
 40
1.0
 10
153.7546827144981
 20
106.6702734362482
 30
0.0
 10
153.5178348863802
 20
106.1425179830415
 30
0.0
 10
153.1777410862112
 20
105.6514385217135
 30
0.0
 10
152.3433727556991
 20
104.8169361920503
 30
0.0
 10
151.8516866781946
 20
104.4764178198458
 30
0.0
 10
151.3240338261189
 20
104.2396233777619
 30
0.0
  0
SPLINE
  5
2F1
330
1F
100
AcDbEntity
  8
0
  6
Continuous
 62
     7
370
    30
100
AcDbSpline
210
0.0
220
0.0
230
1.0
 70
     8
 71
     3
 72
    10
 73
     6
 74
     0
 42
0.000000001
 43
0.00000001
 40
0.0
 40
0.0
 40
0.0
 40
0.0
 40
0.5
 40
0.5
 40
1.0
 40
1.0
 40
1.0
 40
1.0
 10
155.0701407733973
 20
109.8460699582201
 30
0.0
 10
155.0532850159964
 20
109.2678441043983
 30
0.0
 10
154.9270034223855
 20
108.6839885965259
 30
0.0
 10
154.475493311597
 20
107.5937089242511
 30
0.0
 10
154.1515443372678
 20
107.0909557355654
 30
0.0
 10
153.7546835858201
 20
106.6702730102471
 30
0.0
  0
SPLINE
  5
2F2
330
1F
100
AcDbEntity
  8
0
  6
Continuous
 62
     7
370
    30
100
AcDbSpline
210
0.0
220
0.0
230
1.0
 70
     8
 71
     3
 72
    10
 73
     6
 74
     0
 42
0.000000001
 43
0.00000001
 40
0.0
 40
0.0
 40
0.0
 40
0.0
 40
0.5
 40
0.5
 40
1.0
 40
1.0
 40
1.0
 40
1.0
 10
155.0701408363958
 20
113.2835273694041
 30
0.0
 10
155.275845601551
 20
112.7428659187918
 30
0.0
 10
155.3826084516387
 20
112.1551278914374
 30
0.0
 10
155.3826994687834
 20
110.9750553785652
 30
0.0
 10
155.2758049577014
 20
110.3866020922266
 30
0.0
 10
155.0701417414432
 20
109.8460698980887
 30
0.0
  0
SPLINE
  5
2F3
330
1F
100
AcDbEntity
  8
0
  6
Continuous
 62
     7
370
    30
100
AcDbSpline
210
0.0
220
0.0
230
1.0
 70
     8
 71
     3
 72
    10
 73
     6
 74
     0
 42
0.000000001
 43
0.00000001
 40
0.0
 40
0.0
 40
0.0
 40
0.0
 40
0.5
 40
0.5
 40
1.0
 40
1.0
 40
1.0
 40
1.0
 10
153.7546828938781
 20
116.4593239395848
 30
0.0
 10
154.1516314958126
 20
116.0385376969299
 30
0.0
 10
154.4751851134807
 20
115.5363949368993
 30
0.0
 10
154.9268634020235
 20
114.4461849261309
 30
0.0
 10
155.0532970744997
 20
113.8616182206414
 30
0.0
 10
155.0701417537649
 20
113.2835276843051
 30
0.0
  0
SPLINE
  5
2F4
330
1F
100
AcDbEntity
  8
0
  6
Continuous
 62
     7
370
    30
100
AcDbSpline
210
0.0
220
0.0
230
1.0
 70
     8
 71
     3
 72
    10
 73
     6
 74
     0
 42
0.000000001
 43
0.00000001
 40
0.0
 40
0.0
 40
0.0
 40
0.0
 40
0.5
 40
0.5
 40
1.0
 40
1.0
 40
1.0
 40
1.0
 10
151.3240334929365
 20
118.8899734296196
 30
0.0
 10
151.8517941053539
 20
118.6531232859293
 30
0.0
 10
152.3428803853332
 20
118.3130224765017
 30
0.0
 10
153.1773820203173
 20
117.4786495591983
 30
0.0
 10
153.5178954958414
 20
116.9869644163586
 30
0.0
 10
153.7546836209092
 20
116.4593245815773
 30
0.0
  0
SPLINE
  5
2F5
330
1F
100
AcDbEntity
  8
0
  6
Continuous
 62
     7
370
    30
100
AcDbSpline
210
0.0
220
0.0
230
1.0
 70
     8
 71
     3
 72
    10
 73
     6
 74
     0
 42
0.000000001
 43
0.00000001
 40
0.0
 40
0.0
 40
0.0
 40
0.0
 40
0.4999999999999998
 40
0.4999999999999998
 40
1.0
 40
1.0
 40
1.0
 40
1.0
 10
148.1482369709728
 20
120.2054314885434
 30
0.0
 10
148.7264628247945
 20
120.1885757311425
 30
0.0
 10
149.3103183326666
 20
120.0622941375317
 30
0.0
 10
150.4005980049417
 20
119.6107840267432
 30
0.0
 10
150.9033511936273
 20
119.286835052414
 30
0.0
 10
151.3240339189458
 20
118.8899743009662
 30
0.0
  0
SPLINE
  5
2F6
330
1F
100
AcDbEntity
  8
0
  6
Continuous
 62
     7
370
    30
100
AcDbSpline
210
0.0
220
0.0
230
1.0
 70
     8
 71
     3
 72
    14
 73
    10
 74
     0
 42
0.000000001
 43
0.00000001
 40
0.0
 40
0.0
 40
0.0
 40
0.0
 40
0.1433239298148449
 40
0.2863907340431968
 40
0.4292614509282368
 40
0.5719970575350103
 40
0.7146583726135515
 40
0.8573059551775064
 40
1.0
 40
1.0
 40
1.0
 40
1.0
 10
148.1483092279154
 20
120.20540454474
 30
0.0
 10
148.0901778894044
 20
120.2267594613929
 30
0.0
 10
147.9740195010001
 20
120.2694309836121
 30
0.0
 10
147.7959880996325
 20
120.3248475675711
 30
0.0
 10
147.6157707254019
 20
120.3737959112278
 30
0.0
 10
147.4333507214602
 20
120.4156668435885
 30
0.0
 10
147.2490722835297
 20
120.450399785398
 30
0.0
 10
147.0632761036502
 20
120.4785599584143
 30
0.0
 10
146.938434977151
 20
120.4913091341455
 30
0.0
 10
146.8760042499433
 20
120.497684759987
 30
0.0
  0
SPLINE
  5
2F7
330
1F
100
AcDbEntity
  8
0
  6
Continuous
 62
     7
370
    30
100
AcDbSpline
210
0.0
220
0.0
230
1.0
 70
     8
 71
     3
 72
     9
 73
     5
 74
     0
 42
0.000000001
 43
0.00000001
 40
0.0
 40
0.0
 40
0.0
 40
0.0
 40
0.5170290105580677
 40
1.0
 40
1.0
 40
1.0
 40
1.0
 10
139.1043309173003
 20
116.4593215745028
 30
0.0
 10
139.1846664767033
 20
116.4056376241578
 30
0.0
 10
139.3400456870815
 20
116.3018060223544
 30
0.0
 10
139.4950242820698
 20
116.1982533500527
 30
0.0
 10
139.5698744474336
 20
116.1482404134518
 30
0.0
  0
SPLINE
  5
2F8
330
1F
100
AcDbEntity
  8
0
  6
Continuous
 62
     7
370
    30
100
AcDbSpline
210
0.0
220
0.0
230
1.0
 70
     8
 71
     3
 72
     9
 73
     5
 74
     0
 42
0.000000001
 43
0.00000001
 40
0.0
 40
0.0
 40
0.0
 40
0.0
 40
0.4829410148809284
 40
1.0
 40
1.0
 40
1.0
 40
1.0
 10
141.8460770360088
 20
118.4244400219057
 30
0.0
 10
141.7960759023342
 20
118.4992918270166
 30
0.0
 10
141.6925412425437
 20
118.654283436353
 30
0.0
 10
141.5887240986742
 20
118.809672992206
 30
0.0
 10
141.535044511627
 20
118.8900185582535
 30
0.0
  0
SPLINE
  5
2F9
330
1F
100
AcDbEntity
  8
0
  6
Continuous
 62
     7
370
    30
100
AcDbSpline
210
0.0
220
0.0
230
1.0
 70
     8
 71
     3
 72
    10
 73
     6
 74
     0
 42
0.000000001
 43
0.00000001
 40
0.0
 40
0.0
 40
0.0
 40
0.0
 40
0.5
 40
0.5
 40
1.0
 40
1.0
 40
1.0
 40
1.0
 10
139.5698837605044
 20
116.148253146352
 30
0.0
 10
139.8669900290604
 20
116.5929051668303
 30
0.0
 10
140.2118539251267
 20
117.0143988753101
 30
0.0
 10
140.9797924773066
 20
117.7823527293107
 30
0.0
 10
141.4011642962472
 20
118.1271571850883
 30
0.0
 10
141.8460535992329
 20
118.4244230693436
 30
0.0
  0
SPLINE
  5
2FA
330
1F
100
AcDbEntity
  8
0
  6
Continuous
 62
     7
370
    30
100
AcDbSpline
210
0.0
220
0.0
230
1.0
 70
     8
 71
     3
 72
     9
 73
     5
 74
     0
 42
0.000000001
 43
0.00000001
 40
0.0
 40
0.0
 40
0.0
 40
0.0
 40
0.4829410148809892
 40
1.0
 40
1.0
 40
1.0
 40
1.0
 10
144.8200409909447
 20
119.6562840612419
 30
0.0
 10
144.8024905126389
 20
119.7445727174121
 30
0.0
 10
144.7661496806016
 20
119.9273872919662
 30
0.0
 10
144.7297001548443
 20
120.1106776231391
 30
0.0
 10
144.7108536000482
 20
120.2054495357575
 30
0.0
  0
SPLINE
  5
2FB
330
1F
100
AcDbEntity
  8
0
  6
Continuous
 62
     7
370
    30
100
AcDbSpline
210
0.0
220
0.0
230
1.0
 70
     8
 71
     3
 72
    10
 73
     6
 74
     0
 42
0.000000001
 43
0.00000001
 40
0.0
 40
0.0
 40
0.0
 40
0.0
 40
0.5
 40
0.5
 40
1.0
 40
1.0
 40
1.0
 40
1.0
 10
141.8460536049249
 20
118.4244230510831
 30
0.0
 10
142.2907125867476
 20
118.7215353660858
 30
0.0
 10
142.7706235403637
 20
118.9789695851327
 30
0.0
 10
143.7739889590484
 20
119.3945877026458
 30
0.0
 10
144.2952505768943
 20
119.5518953121914
 30
0.0
 10
144.8200128509568
 20
119.656277369003
 30
0.0
  0
SPLINE
  5
2FC
330
1F
100
AcDbEntity
  8
0
  6
Continuous
 62
     7
370
    30
100
AcDbSpline
210
0.0
220
0.0
230
1.0
 70
     8
 71
     3
 72
     9
 73
     5
 74
     0
 42
0.000000001
 43
0.00000001
 40
0.0
 40
0.0
 40
0.0
 40
0.0
 40
0.4829410148808985
 40
1.0
 40
1.0
 40
1.0
 40
1.0
 10
148.0390317244481
 20
119.6562728224256
 30
0.0
 10
148.0566038027378
 20
119.7445571820919
 30
0.0
 10
148.0929893607007
 20
119.9273628601061
 30
0.0
 10
148.1294565629364
 20
120.1106496752088
 30
0.0
 10
148.1483122575145
 20
120.2054197698115
 30
0.0
  0
SPLINE
  5
2FD
330
1F
100
AcDbEntity
  8
0
  6
Continuous
 62
     7
370
    30
100
AcDbSpline
210
0.0
220
0.0
230
1.0
 70
     8
 71
     3
 72
    10
 73
     6
 74
     0
 42
0.000000001
 43
0.00000001
 40
0.0
 40
0.0
 40
0.0
 40
0.0
 40
0.5
 40
0.5
 40
1.0
 40
1.0
 40
1.0
 40
1.0
 10
144.8200128489932
 20
119.6562773489338
 30
0.0
 10
145.344524141751
 20
119.7606097102262
 30
0.0
 10
145.8864198597781
 20
119.8147939452121
 30
0.0
 10
146.9724588014926
 20
119.8148036949845
 30
0.0
 10
147.5142407572618
 20
119.7606587906746
 30
0.0
 10
148.0390031654803
 20
119.6562774083103
 30
0.0
  0
SPLINE
  5
2FE
330
1F
100
AcDbEntity
  8
0
  6
Continuous
 62
     7
370
    30
100
AcDbSpline
210
0.0
220
0.0
230
1.0
 70
     8
 71
     3
 72
     9
 73
     5
 74
     0
 42
0.000000001
 43
0.00000001
 40
0.0
 40
0.0
 40
0.0
 40
0.0
 40
0.5170290105586434
 40
1.0
 40
1.0
 40
1.0
 40
1.0
 10
151.3240366179754
 20
104.2396254802323
 30
0.0
 10
151.270360197291
 20
104.3199660707938
 30
0.0
 10
151.1665431588111
 20
104.4753550120732
 30
0.0
 10
151.0629894989912
 20
104.6303329472225
 30
0.0
 10
151.0129760854477
 20
104.7051827939032
 30
0.0
  0
SPLINE
  5
2FF
330
1F
100
AcDbEntity
  8
0
  6
Continuous
 62
     7
370
    30
100
AcDbSpline
210
0.0
220
0.0
230
1.0
 70
     8
 71
     3
 72
     9
 73
     5
 74
     0
 42
0.000000001
 43
0.00000001
 40
0.0
 40
0.0
 40
0.0
 40
0.0
 40
0.4829410148809916
 40
0.9999999999999999
 40
0.9999999999999999
 40
0.9999999999999999
 40
0.9999999999999999
 10
148.0389752231021
 20
103.4733135830968
 30
0.0
 10
148.0565257014078
 20
103.3850249269266
 30
0.0
 10
148.0928665334452
 20
103.2022103523726
 30
0.0
 10
148.1293160592024
 20
103.0189200211998
 30
0.0
 10
148.1481626139986
 20
102.9241481085814
 30
0.0
  0
SPLINE
  5
300
330
1F
100
AcDbEntity
  8
0
  6
Continuous
 62
     7
370
    30
100
AcDbSpline
210
0.0
220
0.0
230
1.0
 70
     8
 71
     3
 72
    10
 73
     6
 74
     0
 42
0.000000001
 43
0.00000001
 40
0.0
 40
0.0
 40
0.0
 40
0.0
 40
0.5
 40
0.5
 40
1.0
 40
1.0
 40
1.0
 40
1.0
 10
151.0129626086222
 20
104.7051745941951
 30
0.0
 10
150.5683112467238
 20
104.4080673400178
 30
0.0
 10
150.0883998925698
 20
104.150631629118
 30
0.0
 10
149.0850339652387
 20
103.7350121424862
 30
0.0
 10
148.5637862135066
 20
103.577706377046
 30
0.0
 10
148.0390033633244
 20
103.4733202763562
 30
0.0
  0
SPLINE
  5
301
330
1F
100
AcDbEntity
  8
0
  6
Continuous
 62
     7
370
    30
100
AcDbSpline
210
0.0
220
0.0
230
1.0
 70
     8
 71
     3
 72
     9
 73
     5
 74
     0
 42
0.000000001
 43
0.00000001
 40
0.0
 40
0.0
 40
0.0
 40
0.0
 40
0.482941014881125
 40
1.0
 40
1.0
 40
1.0
 40
1.0
 10
154.52098210728
 20
109.9552752047446
 30
0.0
 10
154.6092664669462
 20
109.937703126455
 30
0.0
 10
154.7920721449603
 20
109.901317568492
 30
0.0
 10
154.9753589600628
 20
109.8648503662564
 30
0.0
 10
155.0701290546654
 20
109.8459946716783
 30
0.0
  0
SPLINE
  5
302
330
1F
100
AcDbEntity
  8
0
  6
Continuous
 62
     7
370
    30
100
AcDbSpline
210
0.0
220
0.0
230
1.0
 70
     8
 71
     3
 72
     9
 73
     5
 74
     0
 42
0.000000001
 43
0.00000001
 40
0.0
 40
0.0
 40
0.0
 40
0.0
 40
0.4829410148812487
 40
1.0
 40
1.0
 40
1.0
 40
1.0
 10
153.2891173013189
 20
106.9813198516262
 30
0.0
 10
153.3639568710217
 20
106.9313004063695
 30
0.0
 10
153.5189231451561
 20
106.8277278297703
 30
0.0
 10
153.6743026880882
 20
106.7238957005061
 30
0.0
 10
153.7546430768649
 20
106.670208365126
 30
0.0
  0
SPLINE
  5
303
330
1F
100
AcDbEntity
  8
0
  6
Continuous
 62
     7
370
    30
100
AcDbSpline
210
0.0
220
0.0
230
1.0
 70
     8
 71
     3
 72
    10
 73
     6
 74
     0
 42
0.000000001
 43
0.00000001
 40
0.0
 40
0.0
 40
0.0
 40
0.0
 40
0.5000000000000001
 40
0.5000000000000001
 40
1.0
 40
1.0
 40
1.0
 40
1.0
 10
154.5209866753746
 20
109.9553037732068
 30
0.0
 10
154.4166554267256
 20
109.4307922591371
 30
0.0
 10
154.2593406190575
 20
108.9094104874757
 30
0.0
 10
153.8437405167766
 20
107.906037606639
 30
0.0
 10
153.5863861694671
 20
107.4262167044426
 30
0.0
 10
153.2891324671677
 20
106.9813444817299
 30
0.0
  0
SPLINE
  5
304
330
1F
100
AcDbEntity
  8
0
  6
Continuous
 62
     7
370
    30
100
AcDbSpline
210
0.0
220
0.0
230
1.0
 70
     8
 71
     3
 72
     9
 73
     5
 74
     0
 42
0.000000001
 43
0.00000001
 40
0.0
 40
0.0
 40
0.0
 40
0.0
 40
0.4829410148810411
 40
1.0
 40
1.0
 40
1.0
 40
1.0
 10
154.5209933460966
 20
113.1742659382483
 30
0.0
 10
154.6092820022666
 20
113.191816416554
 30
0.0
 10
154.7920965768205
 20
113.2281572485913
 30
0.0
 10
154.9753869079931
 20
113.2646067743486
 30
0.0
 10
155.0701588206114
 20
113.2834533291446
 30
0.0
  0
SPLINE
  5
305
330
1F
100
AcDbEntity
  8
0
  6
Continuous
 62
     7
370
    30
100
AcDbSpline
210
0.0
220
0.0
230
1.0
 70
     8
 71
     3
 72
    10
 73
     6
 74
     0
 42
0.000000001
 43
0.00000001
 40
0.0
 40
0.0
 40
0.0
 40
0.0
 40
0.5
 40
0.5
 40
1.0
 40
1.0
 40
1.0
 40
1.0
 10
154.5209866337885
 20
113.1742940801998
 30
0.0
 10
154.62531899508
 20
112.6497827874462
 30
0.0
 10
154.6795032300662
 20
112.1078870694222
 30
0.0
 10
154.6795129798395
 20
111.0218481277083
 30
0.0
 10
154.6253680755302
 20
110.4800661719364
 30
0.0
 10
154.5209866931647
 20
109.9553037637125
 30
0.0
  0
SPLINE
  5
306
330
1F
100
AcDbEntity
  8
0
  6
Continuous
 62
     7
370
    30
100
AcDbSpline
210
0.0
220
0.0
230
1.0
 70
     8
 71
     3
 72
     9
 73
     5
 74
     0
 42
0.000000001
 43
0.00000001
 40
0.0
 40
0.0
 40
0.0
 40
0.0
 40
0.482941014880994
 40
0.9999999999999999
 40
0.9999999999999999
 40
0.9999999999999999
 40
0.9999999999999999
 10
144.8199844895988
 20
103.4733248219135
 30
0.0
 10
144.8024124113091
 20
103.3850404622473
 30
0.0
 10
144.7660268533461
 20
103.2022347842329
 30
0.0
 10
144.7295596511104
 20
103.0189479691302
 30
0.0
 10
144.7107039565323
 20
102.9241778745274
 30
0.0
  0
SPLINE
  5
307
330
1F
100
AcDbEntity
  8
0
  6
Continuous
 62
     7
370
    30
100
AcDbSpline
210
0.0
220
0.0
230
1.0
 70
     8
 71
     3
 72
    10
 73
     6
 74
     0
 42
0.000000001
 43
0.00000001
 40
0.0
 40
0.0
 40
0.0
 40
0.0
 40
0.5
 40
0.5
 40
1.0
 40
1.0
 40
1.0
 40
1.0
 10
148.0390033650536
 20
103.4733202954048
 30
0.0
 10
147.5144920723063
 20
103.3689879341147
 30
0.0
 10
146.9725963542852
 20
103.3148036991278
 30
0.0
 10
145.8865574125704
 20
103.3147939493535
 30
0.0
 10
145.3447754567953
 20
103.3689388536624
 30
0.0
 10
144.8200130485666
 20
103.4733202360289
 30
0.0
  0
SPLINE
  5
308
330
1F
100
AcDbEntity
  8
0
  6
Continuous
 62
     7
370
    30
100
AcDbSpline
210
0.0
220
0.0
230
1.0
 70
     8
 71
     3
 72
     9
 73
     5
 74
     0
 42
0.000000001
 43
0.00000001
 40
0.0
 40
0.0
 40
0.0
 40
0.0
 40
0.4829410148807345
 40
1.0
 40
1.0
 40
1.0
 40
1.0
 10
151.0129870775666
 20
118.4244080164648
 30
0.0
 10
151.0630065228233
 20
118.4992475861676
 30
0.0
 10
151.1665790994226
 20
118.654213860302
 30
0.0
 10
151.2704112286868
 20
118.8095934032341
 30
0.0
 10
151.3240985640669
 20
118.8899337920109
 30
0.0
  0
SPLINE
  5
309
330
1F
100
AcDbEntity
  8
0
  6
Continuous
 62
     7
370
    30
100
AcDbSpline
210
0.0
220
0.0
230
1.0
 70
     8
 71
     3
 72
    10
 73
     6
 74
     0
 42
0.000000001
 43
0.00000001
 40
0.0
 40
0.0
 40
0.0
 40
0.0
 40
0.5000000000000001
 40
0.5000000000000001
 40
1.0
 40
1.0
 40
1.0
 40
1.0
 10
148.039003155986
 20
119.6562773905202
 30
0.0
 10
148.5635146700617
 20
119.5519461418701
 30
0.0
 10
149.0848964417266
 20
119.3946313341999
 30
0.0
 10
150.0882693225633
 20
118.9790312319177
 30
0.0
 10
150.5680902247561
 20
118.7216768846088
 30
0.0
 10
151.0129624474629
 20
118.4244231823136
 30
0.0
  0
SPLINE
  5
30A
330
1F
100
AcDbEntity
  8
0
  6
Continuous
 62
     7
370
    30
100
AcDbSpline
210
0.0
220
0.0
230
1.0
 70
     8
 71
     3
 72
     9
 73
     5
 74
     0
 42
0.000000001
 43
0.00000001
 40
0.0
 40
0.0
 40
0.0
 40
0.0
 40
0.4829410148809085
 40
1.0
 40
1.0
 40
1.0
 40
1.0
 10
153.2891493067604
 20
116.1482298931846
 30
0.0
 10
153.3640011118712
 20
116.1982310268591
 30
0.0
 10
153.5189927212072
 20
116.3017656866495
 30
0.0
 10
153.67438227706
 20
116.4055828305188
 30
0.0
 10
153.7547278431074
 20
116.4592624175658
 30
0.0
  0
SPLINE
  5
30B
330
1F
100
AcDbEntity
  8
0
  6
Continuous
 62
     7
370
    30
100
AcDbSpline
210
0.0
220
0.0
230
1.0
 70
     8
 71
     3
 72
    10
 73
     6
 74
     0
 42
0.000000001
 43
0.00000001
 40
0.0
 40
0.0
 40
0.0
 40
0.0
 40
0.5
 40
0.5
 40
1.0
 40
1.0
 40
1.0
 40
1.0
 10
151.0129624318834
 20
118.424423169511
 30
0.0
 10
151.4576220439675
 20
118.1273117977607
 30
0.0
 10
151.8791142208715
 20
117.7824477008405
 30
0.0
 10
152.6470666153209
 20
117.014509094652
 30
0.0
 10
152.9918780811661
 20
116.5931251707987
 30
0.0
 10
153.2891323552307
 20
116.1482533301345
 30
0.0
  0
SPLINE
  5
30C
330
1F
100
AcDbEntity
  8
0
  6
Continuous
 62
     7
370
    30
100
AcDbSpline
210
0.0
220
0.0
230
1.0
 70
     8
 71
     3
 72
    10
 73
     6
 74
     0
 42
0.000000001
 43
0.00000001
 40
0.0
 40
0.0
 40
0.0
 40
0.0
 40
0.5000000000000002
 40
0.5000000000000002
 40
1.0
 40
1.0
 40
1.0
 40
1.0
 10
153.2891323359378
 20
116.1482533242685
 30
0.0
 10
153.5862446509397
 20
115.7035943424469
 30
0.0
 10
153.843678869986
 20
115.2236833888324
 30
0.0
 10
154.259296987499
 20
114.220317970149
 30
0.0
 10
154.4166045970454
 20
113.6990563523025
 30
0.0
 10
154.5209866538576
 20
113.1742940782362
 30
0.0
  0
SPLINE
  5
30D
330
1F
100
AcDbEntity
  8
0
  6
Continuous
 62
     7
370
    30
100
AcDbSpline
210
0.0
220
0.0
230
1.0
 70
     8
 71
     3
 72
     9
 73
     5
 74
     0
 42
0.000000001
 43
0.00000001
 40
0.0
 40
0.0
 40
0.0
 40
0.0
 40
0.5170290105579475
 40
1.0
 40
1.0
 40
1.0
 40
1.0
 10
141.5349853546901
 20
104.2396216324463
 30
0.0
 10
141.5886693050351
 20
104.3199571918493
 30
0.0
 10
141.6925009068385
 20
104.4753364022275
 30
0.0
 10
141.7960535791401
 20
104.6303149972157
 30
0.0
 10
141.846066515741
 20
104.7051651625795
 30
0.0
  0
SPLINE
  5
30E
330
1F
100
AcDbEntity
  8
0
  6
Continuous
 62
     7
370
    30
100
AcDbSpline
210
0.0
220
0.0
230
1.0
 70
     8
 71
     3
 72
    10
 73
     6
 74
     0
 42
0.000000001
 43
0.00000001
 40
0.0
 40
0.0
 40
0.0
 40
0.0
 40
0.5
 40
0.5
 40
1.0
 40
1.0
 40
1.0
 40
1.0
 10
144.8200130583697
 20
103.4733202548373
 30
0.0
 10
144.2955105084984
 20
103.5776496944238
 30
0.0
 10
143.7741273990767
 20
103.7349637306273
 30
0.0
 10
142.7707531908216
 20
104.150563224629
 30
0.0
 10
142.2909433943831
 20
104.4079090734251
 30
0.0
 10
141.8460537674698
 20
104.7051744625828
 30
0.0
  0
SPLINE
  5
30F
330
1F
100
AcDbEntity
  8
0
  6
Continuous
 62
     7
370
    30
100
AcDbSpline
210
0.0
220
0.0
230
1.0
 70
     8
 71
     3
 72
    10
 73
     6
 74
     0
 42
0.000000001
 43
0.00000001
 40
0.0
 40
0.0
 40
0.0
 40
0.0
 40
0.5
 40
0.5
 40
1.0
 40
1.0
 40
1.0
 40
1.0
 10
153.2891324535424
 20
106.9813444979845
 30
0.0
 10
152.9920261836
 20
106.5366924754443
 30
0.0
 10
152.6471622874836
 20
106.1151987673858
 30
0.0
 10
151.8792237352924
 20
105.3472449137841
 30
0.0
 10
151.45785191303
 20
105.0024404560788
 30
0.0
 10
151.0129626148127
 20
104.7051745749934
 30
0.0
  0
SPLINE
  5
310
330
1F
100
AcDbEntity
  8
0
  6
Continuous
 62
     7
370
    30
100
AcDbSpline
210
0.0
220
0.0
230
1.0
 70
     8
 71
     3
 72
     9
 73
     5
 74
     0
 42
0.000000001
 43
0.00000001
 40
0.0
 40
0.0
 40
0.0
 40
0.0
 40
0.517029010558273
 40
1.0
 40
1.0
 40
1.0
 40
1.0
 10
137.7888740627677
 20
113.2835242648153
 30
0.0
 10
137.8836384002141
 20
113.2646698494805
 30
0.0
 10
138.0669247062263
 20
113.2282030072922
 30
0.0
 10
138.2497341501804
 20
113.1918405534891
 30
0.0
 10
138.3380258082061
 20
113.1742785431972
 30
0.0
  0
SPLINE
  5
311
330
1F
100
AcDbEntity
  8
0
  6
Continuous
 62
     7
370
    30
100
AcDbSpline
210
0.0
220
0.0
230
1.0
 70
     8
 71
     3
 72
    10
 73
     6
 74
     0
 42
0.000000001
 43
0.00000001
 40
0.0
 40
0.0
 40
0.0
 40
0.0
 40
0.5
 40
0.5
 40
1.0
 40
1.0
 40
1.0
 40
1.0
 10
138.3380295396917
 20
113.174293870821
 30
0.0
 10
138.4423589787864
 20
113.6987964182574
 30
0.0
 10
138.5996730147825
 20
114.2201795280491
 30
0.0
 10
139.015272508621
 20
115.2235537366679
 30
0.0
 10
139.272618355086
 20
115.7033635300549
 30
0.0
 10
139.5698837474371
 20
116.1482531617228
 30
0.0
  0
SPLINE
  5
312
330
1F
100
AcDbEntity
  8
0
  6
Continuous
 62
     7
370
    30
100
AcDbSpline
210
0.0
220
0.0
230
1.0
 70
     8
 71
     3
 72
     9
 73
     5
 74
     0
 42
0.000000001
 43
0.00000001
 40
0.0
 40
0.0
 40
0.0
 40
0.0
 40
0.5170290105581996
 40
1.0
 40
1.0
 40
1.0
 40
1.0
 10
139.1043347650861
 20
106.6702703112176
 30
0.0
 10
139.1846753556476
 20
106.723946731902
 30
0.0
 10
139.3400642969273
 20
106.8277637703821
 30
0.0
 10
139.4950422320769
 20
106.9313174302021
 30
0.0
 10
139.5698920787578
 20
106.9813308437457
 30
0.0
  0
SPLINE
  5
313
330
1F
100
AcDbEntity
  8
0
  6
Continuous
 62
     7
370
    30
100
AcDbSpline
210
0.0
220
0.0
230
1.0
 70
     8
 71
     3
 72
     9
 73
     5
 74
     0
 42
0.000000001
 43
0.00000001
 40
0.0
 40
0.0
 40
0.0
 40
0.0
 40
0.5170290105583017
 40
0.9999999999999999
 40
0.9999999999999999
 40
0.9999999999999999
 40
0.9999999999999999
 10
137.7888754139304
 20
109.8460665867698
 30
0.0
 10
137.8836415180847
 20
109.8649121202643
 30
0.0
 10
138.0669312411351
 20
109.9013617838415
 30
0.0
 10
138.2497404533846
 20
109.937725402502
 30
0.0
 10
138.3380319995038
 20
109.9552879753861
 30
0.0
  0
SPLINE
  5
314
330
1F
100
AcDbEntity
  8
0
  6
Continuous
 62
     7
370
    30
100
AcDbSpline
210
0.0
220
0.0
230
1.0
 70
     8
 71
     3
 72
    10
 73
     6
 74
     0
 42
0.000000001
 43
0.00000001
 40
0.0
 40
0.0
 40
0.0
 40
0.0
 40
0.5
 40
0.5
 40
1.0
 40
1.0
 40
1.0
 40
1.0
 10
139.5698838790498
 20
106.9813443205712
 30
0.0
 10
139.2727766248713
 20
107.4259956824713
 30
0.0
 10
139.0153409139706
 20
107.9059070366275
 30
0.0
 10
138.5997214273388
 20
108.9092729639604
 30
0.0
 10
138.4424156618996
 20
109.4305207156917
 30
0.0
 10
138.3380295612105
 20
109.9553035658706
 30
0.0
  0
SPLINE
  5
315
330
1F
100
AcDbEntity
  8
0
  6
Continuous
 62
     7
370
    30
100
AcDbSpline
210
0.0
220
0.0
230
1.0
 70
     8
 71
     3
 72
    10
 73
     6
 74
     0
 42
0.000000001
 43
0.00000001
 40
0.0
 40
0.0
 40
0.0
 40
0.0
 40
0.5
 40
0.5
 40
1.0
 40
1.0
 40
1.0
 40
1.0
 10
138.3380295813193
 20
109.9553035642418
 30
0.0
 10
138.2336989796005
 20
110.4798058804162
 30
0.0
 10
138.1795135196015
 20
111.0217025394028
 30
0.0
 10
138.1795026995798
 20
112.1077424749868
 30
0.0
 10
138.2336440012898
 20
112.649510914427
 30
0.0
 10
138.3380295217369
 20
113.1742938800211
 30
0.0
  0
SPLINE
  5
316
330
1F
100
AcDbEntity
  8
0
  6
Continuous
 62
     7
370
    30
100
AcDbSpline
210
0.0
220
0.0
230
1.0
 70
     8
 71
     3
 72
    10
 73
     6
 74
     0
 42
0.000000001
 43
0.00000001
 40
0.0
 40
0.0
 40
0.0
 40
0.0
 40
0.5
 40
0.5
 40
1.0
 40
1.0
 40
1.0
 40
1.0
 10
141.8460537828408
 20
104.7051744756503
 30
0.0
 10
141.4014017623682
 20
105.0022807442027
 30
0.0
 10
140.979908053891
 20
105.3471446402655
 30
0.0
 10
140.2119541998891
 20
106.1150831924449
 30
0.0
 10
139.8671497441078
 20
106.5364550113884
 30
0.0
 10
139.5698838598483
 20
106.9813443143807
 30
0.0
  0
SPLINE
  5
317
330
1F
100
AcDbEntity
  8
0
  6
Continuous
 62
     7
370
    30
100
AcDbSpline
210
0.0
220
0.0
230
1.0
 70
     8
 71
     3
 72
     9
 73
     5
 74
     0
 42
0.000000001
 43
0.00000001
 40
0.0
 40
0.0
 40
0.0
 40
0.0
 40
0.4715749412771716
 40
1.0
 40
1.0
 40
1.0
 40
1.0
 10
144.9663490615542
 20
104.208906579658
 30
0.0
 10
144.9434104505414
 20
104.0937321495623
 30
0.0
 10
144.8947678934313
 20
103.8494985823933
 30
0.0
 10
144.8458584192075
 20
103.6033769948191
 30
0.0
 10
144.8200134274187
 20
103.4733201804523
 30
0.0
  0
SPLINE
  5
318
330
1F
100
AcDbEntity
  8
0
  6
Continuous
 62
     7
370
    30
100
AcDbSpline
210
0.0
220
0.0
230
1.0
 70
     8
 71
     3
 72
    10
 73
     6
 74
     0
 42
0.000000001
 43
0.00000001
 40
0.0
 40
0.0
 40
0.0
 40
0.0
 40
0.5
 40
0.5
 40
1.0
 40
1.0
 40
1.0
 40
1.0
 10
147.8926863722704
 20
104.2089020495011
 30
0.0
 10
147.4179747980137
 20
104.1144691506907
 30
0.0
 10
146.925028154577
 20
104.064903284481
 30
0.0
 10
145.9371460396643
 20
104.0646948089506
 30
0.0
 10
145.4427810655419
 20
104.1141409445537
 30
0.0
 10
144.9663304493329
 20
104.2089087135327
 30
0.0
  0
SPLINE
  5
319
330
1F
100
AcDbEntity
  8
0
  6
Continuous
 62
     7
370
    30
100
AcDbSpline
210
0.0
220
0.0
230
1.0
 70
     8
 71
     3
 72
     9
 73
     5
 74
     0
 42
0.000000001
 43
0.00000001
 40
0.0
 40
0.0
 40
0.0
 40
0.0
 40
0.4715749412772835
 40
1.0
 40
1.0
 40
1.0
 40
1.0
 10
147.8927035035791
 20
104.2089138103314
 30
0.0
 10
147.9155863365896
 20
104.0937282853024
 30
0.0
 10
147.9641106134491
 20
103.8494711907311
 30
0.0
 10
148.0131108051794
 20
103.6033676479933
 30
0.0
 10
148.039003734372
 20
103.4733203689703
 30
0.0
  0
SPLINE
  5
31A
330
1F
100
AcDbEntity
  8
0
  6
Continuous
 62
     7
370
    30
100
AcDbSpline
210
0.0
220
0.0
230
1.0
 70
     8
 71
     3
 72
     9
 73
     5
 74
     0
 42
0.000000001
 43
0.00000001
 40
0.0
 40
0.0
 40
0.0
 40
0.0
 40
0.4715749412783342
 40
1.0
 40
1.0
 40
1.0
 40
1.0
 10
153.7853931188847
 20
113.0279942187298
 30
0.0
 10
153.9005786439104
 20
113.0508770517396
 30
0.0
 10
154.1448357384739
 20
113.0994013285976
 30
0.0
 10
154.3909392812039
 20
113.1484015203264
 30
0.0
 10
154.5209865602226
 20
113.174294449518
 30
0.0
  0
SPLINE
  5
31B
330
1F
100
AcDbEntity
  8
0
  6
Continuous
 62
     7
370
    30
100
AcDbSpline
210
0.0
220
0.0
230
1.0
 70
     8
 71
     3
 72
    10
 73
     6
 74
     0
 42
0.000000001
 43
0.00000001
 40
0.0
 40
0.0
 40
0.0
 40
0.0
 40
0.5
 40
0.5
 40
1.0
 40
1.0
 40
1.0
 40
1.0
 10
152.6655364978706
 20
115.7315790989477
 30
0.0
 10
152.9344453748987
 20
115.3291406974906
 30
0.0
 10
153.1688807776864
 20
114.8926854188072
 30
0.0
 10
153.5471195024724
 20
113.9800811324345
 30
0.0
 10
153.6906225149669
 20
113.504425234361
 30
0.0
 10
153.7853982700302
 20
113.027976206681
 30
0.0
  0
SPLINE
  5
31C
330
1F
100
AcDbEntity
  8
0
  6
Continuous
 62
     7
370
    30
100
AcDbSpline
210
0.0
220
0.0
230
1.0
 70
     8
 71
     3
 72
     9
 73
     5
 74
     0
 42
0.000000001
 43
0.00000001
 40
0.0
 40
0.0
 40
0.0
 40
0.0
 40
0.4715749412782866
 40
0.9999999999999999
 40
0.9999999999999999
 40
0.9999999999999999
 40
0.9999999999999999
 10
152.6655190764122
 20
115.7315904255383
 30
0.0
 10
152.7631797443465
 20
115.7968109986776
 30
0.0
 10
152.9702744378634
 20
115.9351147282237
 30
0.0
 10
153.1788929023128
 20
116.0745647509001
 30
0.0
 10
153.2891321266399
 20
116.1482536373216
 30
0.0
  0
SPLINE
  5
31D
330
1F
100
AcDbEntity
  8
0
  6
Continuous
 62
     7
370
    30
100
AcDbSpline
210
0.0
220
0.0
230
1.0
 70
     8
 71
     3
 72
    10
 73
     6
 74
     0
 42
0.000000001
 43
0.00000001
 40
0.0
 40
0.0
 40
0.0
 40
0.0
 40
0.5
 40
0.5
 40
1.0
 40
1.0
 40
1.0
 40
1.0
 10
150.5962893232561
 20
117.8008265852898
 30
0.0
 10
150.9987352396385
 20
117.531928955142
 30
0.0
 10
151.3823495140904
 20
117.2184114009173
 30
0.0
 10
152.0810350710243
 20
116.5200206729106
 30
0.0
 10
152.3956401988214
 20
116.1354881495388
 30
0.0
 10
152.6655307283628
 20
115.7315757558331
 30
0.0
  0
SPLINE
  5
31E
330
1F
100
AcDbEntity
  8
0
  6
Continuous
 62
     7
370
    30
100
AcDbSpline
210
0.0
220
0.0
230
1.0
 70
     8
 71
     3
 72
     9
 73
     5
 74
     0
 42
0.000000001
 43
0.00000001
 40
0.0
 40
0.0
 40
0.0
 40
0.0
 40
0.4715749412781164
 40
1.0
 40
1.0
 40
1.0
 40
1.0
 10
150.5962688934287
 20
117.8008303827915
 30
0.0
 10
150.6615367528751
 20
117.898459455026
 30
0.0
 10
150.799940755576
 20
118.105487148164
 30
0.0
 10
150.9393138716641
 20
118.3141569999541
 30
0.0
 10
151.0129621187171
 20
118.4244233786397
 30
0.0
  0
SPLINE
  5
31F
330
1F
100
AcDbEntity
  8
0
  6
Continuous
 62
     7
370
    30
100
AcDbSpline
210
0.0
220
0.0
230
1.0
 70
     8
 71
     3
 72
     9
 73
     5
 74
     0
 42
0.000000001
 43
0.00000001
 40
0.0
 40
0.0
 40
0.0
 40
0.0
 40
0.4715749412780922
 40
0.9999999999999999
 40
0.9999999999999999
 40
0.9999999999999999
 40
0.9999999999999999
 10
147.892667152497
 20
118.9206910647031
 30
0.0
 10
147.9156057635092
 20
119.0358654947955
 30
0.0
 10
147.9642483206179
 20
119.2800990619572
 30
0.0
 10
148.0131577948401
 20
119.526220649524
 30
0.0
 10
148.0390027866281
 20
119.6562774638867
 30
0.0
  0
SPLINE
  5
320
330
1F
100
AcDbEntity
  8
0
  6
Continuous
 62
     7
370
    30
100
AcDbSpline
210
0.0
220
0.0
230
1.0
 70
     8
 71
     3
 72
    10
 73
     6
 74
     0
 42
0.000000001
 43
0.00000001
 40
0.0
 40
0.0
 40
0.0
 40
0.0
 40
0.5
 40
0.5
 40
1.0
 40
1.0
 40
1.0
 40
1.0
 10
144.9663298417748
 20
118.920695594846
 30
0.0
 10
145.4410414160319
 20
119.0151284936589
 30
0.0
 10
145.9339880594698
 20
119.0646943598711
 30
0.0
 10
146.9218701743843
 20
119.0649028354061
 30
0.0
 10
147.416235148508
 20
119.0154566998053
 30
0.0
 10
147.8926857647183
 20
118.9206889308284
 30
0.0
  0
SPLINE
  5
321
330
1F
100
AcDbEntity
  8
0
  6
Continuous
 62
     7
370
    30
100
AcDbSpline
210
0.0
220
0.0
230
1.0
 70
     8
 71
     3
 72
     9
 73
     5
 74
     0
 42
0.000000001
 43
0.00000001
 40
0.0
 40
0.0
 40
0.0
 40
0.0
 40
0.4715749412777675
 40
1.0
 40
1.0
 40
1.0
 40
1.0
 10
144.9663127104661
 20
118.9206838340157
 30
0.0
 10
144.9434298774558
 20
119.0358693590436
 30
0.0
 10
144.8949056005969
 20
119.2801264536122
 30
0.0
 10
144.8459054088671
 20
119.5262299963472
 30
0.0
 10
144.8200124796748
 20
119.6562772753687
 30
0.0
  0
SPLINE
  5
322
330
1F
100
AcDbEntity
  8
0
  6
Continuous
 62
     7
370
    30
100
AcDbSpline
210
0.0
220
0.0
230
1.0
 70
     8
 71
     3
 72
     9
 73
     5
 74
     0
 42
0.000000001
 43
0.00000001
 40
0.0
 40
0.0
 40
0.0
 40
0.0
 40
0.4715749412779855
 40
1.0
 40
1.0
 40
1.0
 40
1.0
 10
152.6655396676405
 20
107.3980380357674
 30
0.0
 10
152.7631687398758
 20
107.3327701763205
 30
0.0
 10
152.9701964330154
 20
107.1943661736185
 30
0.0
 10
153.1788662848071
 20
107.0549930575294
 30
0.0
 10
153.2891326634937
 20
106.9813448104757
 30
0.0
  0
SPLINE
  5
323
330
1F
100
AcDbEntity
  8
0
  6
Continuous
 62
     7
370
    30
100
AcDbSpline
210
0.0
220
0.0
230
1.0
 70
     8
 71
     3
 72
    10
 73
     6
 74
     0
 42
0.000000001
 43
0.00000001
 40
0.0
 40
0.0
 40
0.0
 40
0.0
 40
0.5
 40
0.5
 40
1.0
 40
1.0
 40
1.0
 40
1.0
 10
153.7854046592844
 20
110.1016194487545
 30
0.0
 10
153.6909850270711
 20
109.6269052356063
 30
0.0
 10
153.54813540289
 20
109.1525138853041
 30
0.0
 10
153.1702818906581
 20
108.2397500386679
 30
0.0
 10
152.935414332874
 20
107.8019385743742
 30
0.0
 10
152.6655305736086
 20
107.3980216569156
 30
0.0
  0
SPLINE
  5
324
330
1F
100
AcDbEntity
  8
0
  6
Continuous
 62
     7
370
    30
100
AcDbSpline
210
0.0
220
0.0
230
1.0
 70
     8
 71
     3
 72
     9
 73
     5
 74
     0
 42
0.000000001
 43
0.00000001
 40
0.0
 40
0.0
 40
0.0
 40
0.0
 40
0.4715749412783364
 40
0.9999999999999999
 40
0.9999999999999999
 40
0.9999999999999999
 40
0.9999999999999999
 10
153.7854003495621
 20
110.1016397766949
 30
0.0
 10
153.9005747796538
 20
110.0787011656829
 30
0.0
 10
154.1448083468138
 20
110.0300586085745
 30
0.0
 10
154.3909299343788
 20
109.9811491343526
 30
0.0
 10
154.5209867487406
 20
109.9553041425648
 30
0.0
  0
SPLINE
  5
325
330
1F
100
AcDbEntity
  8
0
  6
Continuous
 62
     7
370
    30
100
AcDbSpline
210
0.0
220
0.0
230
1.0
 70
     8
 71
     3
 72
    10
 73
     6
 74
     0
 42
0.000000001
 43
0.00000001
 40
0.0
 40
0.0
 40
0.0
 40
0.0
 40
0.5
 40
0.5
 40
1.0
 40
1.0
 40
1.0
 40
1.0
 10
153.785404879715
 20
113.0279770874211
 30
0.0
 10
153.8798377785263
 20
112.5532655131632
 30
0.0
 10
153.9294036447369
 20
112.0603188697247
 30
0.0
 10
153.9296121202687
 20
111.0724367548092
 30
0.0
 10
153.8801659846662
 20
110.5780717806847
 30
0.0
 10
153.7853982156873
 20
110.1016211644736
 30
0.0
  0
SPLINE
  5
326
330
1F
100
AcDbEntity
  8
0
  6
Continuous
 62
     7
370
    30
100
AcDbSpline
210
0.0
220
0.0
230
1.0
 70
     8
 71
     3
 72
    10
 73
     6
 74
     0
 42
0.000000001
 43
0.00000001
 40
0.0
 40
0.0
 40
0.0
 40
0.0
 40
0.5
 40
0.5
 40
1.0
 40
1.0
 40
1.0
 40
1.0
 10
150.5962883837918
 20
105.3287704313355
 30
0.0
 10
150.1938499832268
 20
105.0598615548954
 30
0.0
 10
149.7573947074757
 20
104.8254261533416
 30
0.0
 10
148.8447904192471
 20
104.4471874273242
 30
0.0
 10
148.3691345070001
 20
104.3036844110269
 30
0.0
 10
147.8926854915235
 20
104.2089086592785
 30
0.0
  0
SPLINE
  5
327
330
1F
100
AcDbEntity
  8
0
  6
Continuous
 62
     7
370
    30
100
AcDbSpline
210
0.0
220
0.0
230
1.0
 70
     8
 71
     3
 72
     9
 73
     5
 74
     0
 42
0.000000001
 43
0.00000001
 40
0.0
 40
0.0
 40
0.0
 40
0.0
 40
0.5282993314382151
 40
1.0
 40
1.0
 40
1.0
 40
1.0
 10
151.0129404701647
 20
104.705161208169
 30
0.0
 10
150.9393115312452
 20
104.8154024979186
 30
0.0
 10
150.7999417941702
 20
105.024074519989
 30
0.0
 10
150.6615527419342
 20
105.231111263518
 30
0.0
 10
150.5962745334728
 20
105.3287706338575
 30
0.0
  0
SPLINE
  5
328
330
1F
100
AcDbEntity
  8
0
  6
Continuous
 62
     7
370
    30
100
AcDbSpline
210
0.0
220
0.0
230
1.0
 70
     8
 71
     3
 72
    10
 73
     6
 74
     0
 42
0.000000001
 43
0.00000001
 40
0.0
 40
0.0
 40
0.0
 40
0.0
 40
0.5
 40
0.5
 40
1.0
 40
1.0
 40
1.0
 40
1.0
 10
142.262727830259
 20
117.8008272129974
 30
0.0
 10
142.6651662308224
 20
118.0697360894394
 30
0.0
 10
143.1016215065719
 20
118.3041714909954
 30
0.0
 10
144.0142257947985
 20
118.6824102170176
 30
0.0
 10
144.489881707045
 20
118.8259132333175
 30
0.0
 10
144.9663307225217
 20
118.9206889850686
 30
0.0
  0
SPLINE
  5
329
330
1F
100
AcDbEntity
  8
0
  6
Continuous
 62
     7
370
    30
100
AcDbSpline
210
0.0
220
0.0
230
1.0
 70
     8
 71
     3
 72
     9
 73
     5
 74
     0
 42
0.000000001
 43
0.00000001
 40
0.0
 40
0.0
 40
0.0
 40
0.0
 40
0.5282993314383545
 40
1.0
 40
1.0
 40
1.0
 40
1.0
 10
141.8460757438821
 20
118.4244364361699
 30
0.0
 10
141.9197046828023
 20
118.3141951464192
 30
0.0
 10
142.0590744198787
 20
118.1055231243468
 30
0.0
 10
142.197463472116
 20
117.8984863808158
 30
0.0
 10
142.262741680578
 20
117.8008270104754
 30
0.0
  0
SPLINE
  5
32A
330
1F
100
AcDbEntity
  8
0
  6
Continuous
 62
     7
370
    30
100
AcDbSpline
210
0.0
220
0.0
230
1.0
 70
     8
 71
     3
 72
    10
 73
     6
 74
     0
 42
0.000000001
 43
0.00000001
 40
0.0
 40
0.0
 40
0.0
 40
0.0
 40
0.5
 40
0.5
 40
1.0
 40
1.0
 40
1.0
 40
1.0
 10
147.8926874804374
 20
118.9206953744255
 30
0.0
 10
148.3674016935855
 20
118.8262757422141
 30
0.0
 10
148.8417930438881
 20
118.6834261180348
 30
0.0
 10
149.7545568905259
 20
118.3055726058062
 30
0.0
 10
150.1923683548208
 20
118.0707050480234
 30
0.0
 10
150.5962852722805
 20
117.8008212887596
 30
0.0
  0
SPLINE
  5
32B
330
1F
100
AcDbEntity
  8
0
  6
Continuous
 62
     7
370
    30
100
AcDbSpline
210
0.0
220
0.0
230
1.0
 70
     8
 71
     3
 72
    10
 73
     6
 74
     0
 42
0.000000001
 43
0.00000001
 40
0.0
 40
0.0
 40
0.0
 40
0.0
 40
0.5
 40
0.5
 40
1.0
 40
1.0
 40
1.0
 40
1.0
 10
152.6655358701389
 20
107.39801760594
 30
0.0
 10
152.3966382399898
 20
106.9955716895589
 30
0.0
 10
152.0831206857637
 20
106.6119574151081
 30
0.0
 10
151.3847299577565
 20
105.9132718581784
 30
0.0
 10
151.0001974343848
 20
105.5986667303834
 30
0.0
 10
150.5962850406794
 20
105.3287762008442
 30
0.0
  0
SPLINE
  5
32C
330
1F
100
AcDbEntity
  8
0
  6
Continuous
 62
     7
370
    30
100
AcDbSpline
210
0.0
220
0.0
230
1.0
 70
     8
 71
     3
 72
     9
 73
     5
 74
     0
 42
0.000000001
 43
0.00000001
 40
0.0
 40
0.0
 40
0.0
 40
0.0
 40
0.5282993314388433
 40
1.0
 40
1.0
 40
1.0
 40
1.0
 10
141.846032943744
 20
104.705189806307
 30
0.0
 10
141.9197060399163
 20
104.8154015911281
 30
0.0
 10
142.059159360767
 20
105.0240177643133
 30
0.0
 10
142.1974771730835
 20
105.2311021088428
 30
0.0
 10
142.2627217776271
 20
105.3287839326059
 30
0.0
  0
SPLINE
  5
32D
330
1F
100
AcDbEntity
  8
0
  6
Continuous
 62
     7
370
    30
100
AcDbSpline
210
0.0
220
0.0
230
1.0
 70
     8
 71
     3
 72
    10
 73
     6
 74
     0
 42
0.000000001
 43
0.00000001
 40
0.0
 40
0.0
 40
0.0
 40
0.0
 40
0.5
 40
0.5
 40
1.0
 40
1.0
 40
1.0
 40
1.0
 10
144.9663287336138
 20
104.2089022699356
 30
0.0
 10
144.4916145204676
 20
104.3033219021485
 30
0.0
 10
144.0172231701675
 20
104.446171526329
 30
0.0
 10
143.1044593235349
 20
104.8240250385592
 30
0.0
 10
142.6666478592428
 20
105.0588925963424
 30
0.0
 10
142.262730941786
 20
105.3287763556064
 30
0.0
  0
SPLINE
  5
32E
330
1F
100
AcDbEntity
  8
0
  6
Continuous
 62
     7
370
    30
100
AcDbSpline
210
0.0
220
0.0
230
1.0
 70
     8
 71
     3
 72
     9
 73
     5
 74
     0
 42
0.000000001
 43
0.00000001
 40
0.0
 40
0.0
 40
0.0
 40
0.0
 40
0.5282993314389063
 40
1.0
 40
1.0
 40
1.0
 40
1.0
 10
138.3380357285943
 20
113.1743189904245
 30
0.0
 10
138.4680516141482
 20
113.1484301488766
 30
0.0
 10
138.7141543021826
 20
113.0994260332033
 30
0.0
 10
138.9584072247713
 20
113.0508847851759
 30
0.0
 10
139.0736214916544
 20
113.0279878460286
 30
0.0
  0
SPLINE
  5
32F
330
1F
100
AcDbEntity
  8
0
  6
Continuous
 62
     7
370
    30
100
AcDbSpline
210
0.0
220
0.0
230
1.0
 70
     8
 71
     3
 72
    10
 73
     6
 74
     0
 42
0.000000001
 43
0.00000001
 40
0.0
 40
0.0
 40
0.0
 40
0.0
 40
0.5
 40
0.5
 40
1.0
 40
1.0
 40
1.0
 40
1.0
 10
139.0736113344595
 20
110.1016205568487
 30
0.0
 10
138.9791784661034
 20
110.576331971743
 30
0.0
 10
138.9296126022385
 20
111.0692781327449
 30
0.0
 10
138.9294040615554
 20
112.0571605819942
 30
0.0
 10
138.9788504866852
 20
112.5515277646582
 30
0.0
 10
139.0736180119344
 20
113.0279764753689
 30
0.0
  0
SPLINE
  5
330
330
1F
100
AcDbEntity
  8
0
  6
Continuous
 62
     7
370
    30
100
AcDbSpline
210
0.0
220
0.0
230
1.0
 70
     8
 71
     3
 72
     9
 73
     5
 74
     0
 42
0.000000001
 43
0.00000001
 40
0.0
 40
0.0
 40
0.0
 40
0.0
 40
0.5282993314390101
 40
1.0
 40
1.0
 40
1.0
 40
1.0
 10
138.3380256862636
 20
109.9553291401199
 30
0.0
 10
138.4680519325723
 20
109.9811658946392
 30
0.0
 10
138.7141742321302
 20
110.0300714165314
 30
0.0
 10
138.9584104394733
 20
110.078696697778
 30
0.0
 10
139.0736168217639
 20
110.101633275451
 30
0.0
  0
SPLINE
  5
331
330
1F
100
AcDbEntity
  8
0
  6
Continuous
 62
     7
370
    30
100
AcDbSpline
210
0.0
220
0.0
230
1.0
 70
     8
 71
     3
 72
    10
 73
     6
 74
     0
 42
0.000000001
 43
0.00000001
 40
0.0
 40
0.0
 40
0.0
 40
0.0
 40
0.5
 40
0.5
 40
1.0
 40
1.0
 40
1.0
 40
1.0
 10
140.1934797163208
 20
107.3980185453763
 30
0.0
 10
139.9245709284164
 20
107.8004568112557
 30
0.0
 10
139.6901357124179
 20
108.2369116451225
 30
0.0
 10
139.3118967994976
 20
109.1495162154474
 30
0.0
 10
139.1683932093208
 20
109.6251742647432
 30
0.0
 10
139.0736179582849
 20
110.1016214386998
 30
0.0
  0
SPLINE
  5
332
330
1F
100
AcDbEntity
  8
0
  6
Continuous
 62
     7
370
    30
100
AcDbSpline
210
0.0
220
0.0
230
1.0
 70
     8
 71
     3
 72
     9
 73
     5
 74
     0
 42
0.000000001
 43
0.00000001
 40
0.0
 40
0.0
 40
0.0
 40
0.0
 40
0.5282993314390544
 40
1.0
 40
1.0
 40
1.0
 40
1.0
 10
139.5698704930229
 20
106.9813664590283
 30
0.0
 10
139.6801117827762
 20
107.0549953979501
 30
0.0
 10
139.888783804853
 20
107.1943651350295
 30
0.0
 10
140.0958205483884
 20
107.3327541872698
 30
0.0
 10
140.1934799187307
 20
107.398032395733
 30
0.0
  0
SPLINE
  5
333
330
1F
100
AcDbEntity
  8
0
  6
Continuous
 62
     7
370
    30
100
AcDbSpline
210
0.0
220
0.0
230
1.0
 70
     8
 71
     3
 72
    10
 73
     6
 74
     0
 42
0.000000001
 43
0.00000001
 40
0.0
 40
0.0
 40
0.0
 40
0.0
 40
0.5
 40
0.5
 40
1.0
 40
1.0
 40
1.0
 40
1.0
 10
140.193480343935
 20
115.7315800382694
 30
0.0
 10
140.4623778829313
 20
116.1340258204297
 30
0.0
 10
140.7758950976807
 20
116.5176397520887
 30
0.0
 10
141.4742860160292
 20
117.2163255915017
 30
0.0
 10
141.8588203058022
 20
117.530932076246
 30
0.0
 10
142.2627311797738
 20
117.8008214307384
 30
0.0
  0
SPLINE
  5
334
330
1F
100
AcDbEntity
  8
0
  6
Continuous
 62
     7
370
    30
100
AcDbSpline
210
0.0
220
0.0
230
1.0
 70
     8
 71
     3
 72
     9
 73
     5
 74
     0
 42
0.000000001
 43
0.00000001
 40
0.0
 40
0.0
 40
0.0
 40
0.0
 40
0.5282993314385684
 40
1.0
 40
1.0
 40
1.0
 40
1.0
 10
139.569899091161
 20
116.1482739854489
 30
0.0
 10
139.6801108759811
 20
116.0746008892772
 30
0.0
 10
139.8887270491647
 20
115.9351475684277
 30
0.0
 10
140.0958113936926
 20
115.7968297561122
 30
0.0
 10
140.193493217455
 20
115.731585151569
 30
0.0
  0
SPLINE
  5
335
330
1F
100
AcDbEntity
  8
0
  6
Continuous
 62
     7
370
    30
100
AcDbSpline
210
0.0
220
0.0
230
1.0
 70
     8
 71
     3
 72
    10
 73
     6
 74
     0
 42
0.000000001
 43
0.00000001
 40
0.0
 40
0.0
 40
0.0
 40
0.0
 40
0.5
 40
0.5
 40
1.0
 40
1.0
 40
1.0
 40
1.0
 10
142.2627268909268
 20
105.3287710590859
 30
0.0
 10
141.8602811087677
 20
105.5976685980835
 30
0.0
 10
141.4766671771103
 20
105.9111858128338
 30
0.0
 10
140.7779813377007
 20
106.6095767311836
 30
0.0
 10
140.4633748529582
 20
106.9941110209569
 30
0.0
 10
140.1934854984677
 20
107.3980218949287
 30
0.0
  0
SPLINE
  5
336
330
1F
100
AcDbEntity
  8
0
  6
Continuous
 62
     7
370
    30
100
AcDbSpline
210
0.0
220
0.0
230
1.0
 70
     8
 71
     3
 72
    10
 73
     6
 74
     0
 42
0.000000001
 43
0.00000001
 40
0.0
 40
0.0
 40
0.0
 40
0.0
 40
0.5
 40
0.5
 40
1.0
 40
1.0
 40
1.0
 40
1.0
 10
139.0736115548478
 20
113.0279781954729
 30
0.0
 10
139.1680311542114
 20
113.5026922497333
 30
0.0
 10
139.310880595938
 20
113.9770831534244
 30
0.0
 10
139.6887341759208
 20
114.8898473338792
 30
0.0
 10
139.9236028463646
 20
115.3276607278017
 30
0.0
 10
140.1934856512497
 20
115.7315759780804
 30
0.0
  0
SPLINE
  5
337
330
1F
100
AcDbEntity
  8
0
  6
Continuous
 62
     7
370
    30
100
AcDbSpline
210
0.0
220
0.0
230
1.0
 70
     8
 71
     3
 72
     8
 73
     4
 74
     0
 42
0.000000001
 43
0.00000001
 40
0.0
 40
0.0
 40
0.0
 40
0.0
 40
1.0
 40
1.0
 40
1.0
 40
1.0
 10
151.3429396322845
 20
105.8983898493841
 30
0.0
 10
151.0687519543711
 20
105.7185040961797
 30
0.0
 10
150.7653700502067
 20
105.5947059524871
 30
0.0
 10
150.457257658562
 20
105.5368458604395
 30
0.0
  0
SPLINE
  5
338
330
1F
100
AcDbEntity
  8
0
  6
Continuous
 62
     7
370
    30
100
AcDbSpline
210
0.0
220
0.0
230
1.0
 70
     8
 71
     3
 72
    13
 73
     9
 74
     0
 42
0.000000001
 43
0.00000001
 40
0.0
 40
0.0
 40
0.0
 40
0.0
 40
0.1837814245967112
 40
0.3507150044812421
 40
0.5011148190371142
 40
0.7492934436519161
 40
0.8780378057599512
 40
1.0
 40
1.0
 40
1.0
 40
1.0
 10
150.4572556177308
 20
105.5368439803884
 30
0.0
 10
150.4068963317125
 20
105.6123906678585
 30
0.0
 10
150.310794360252
 20
105.756558430693
 30
0.0
 10
150.1745676683665
 20
105.960493224621
 30
0.0
 10
150.0215082895521
 20
106.1887248448336
 30
0.0
 10
149.8808647535172
 20
106.3995007053403
 30
0.0
 10
149.7491594703979
 20
106.5966162466841
 30
0.0
 10
149.6836736147559
 20
106.6946061834171
 30
0.0
 10
149.6518164556848
 20
106.7422757293257
 30
0.0
  0
SPLINE
  5
339
330
1F
100
AcDbEntity
  8
0
  6
Continuous
 62
     7
370
    30
100
AcDbSpline
210
0.0
220
0.0
230
1.0
 70
     8
 71
     3
 72
    17
 73
    13
 74
     0
 42
0.000000001
 43
0.00000001
 40
0.0
 40
0.0
 40
0.0
 40
0.0
 40
0.0660153049947975
 40
0.1252764824709411
 40
0.2504828043049696
 40
0.3754212647440591
 40
0.5003973756239564
 40
0.6253744359408386
 40
0.7503026288902557
 40
0.8750019016271218
 40
0.9341361979421803
 40
0.9999999999999999
 40
0.9999999999999999
 40
0.9999999999999999
 40
0.9999999999999999
 10
151.2520481457908
 20
108.3424842087259
 30
0.0
 10
151.2242883693594
 20
108.3015754760921
 30
0.0
 10
151.1716089619739
 20
108.2239434462603
 30
0.0
 10
151.0607303564816
 20
108.0711279130114
 30
0.0
 10
150.9165550961002
 20
107.8859342328577
 30
0.0
 10
150.7296138903859
 20
107.6691149305443
 30
0.0
 10
150.5317598053635
 20
107.4612560894603
 30
0.0
 10
150.323847283829
 20
107.2634728552406
 30
0.0
 10
150.1072691349144
 20
107.0768704369987
 30
0.0
 10
149.9224575276565
 20
106.9330090262304
 30
0.0
 10
149.7700940776855
 20
106.8225266293743
 30
0.0
 10
149.6926324118576
 20
106.769969131118
 30
0.0
 10
149.6518164323222
 20
106.7422756165216
 30
0.0
  0
SPLINE
  5
33A
330
1F
100
AcDbEntity
  8
0
  6
Continuous
 62
     7
370
    30
100
AcDbSpline
210
0.0
220
0.0
230
1.0
 70
     8
 71
     3
 72
    12
 73
     8
 74
     0
 42
0.000000001
 43
0.00000001
 40
0.0
 40
0.0
 40
0.0
 40
0.0
 40
0.1223859347741756
 40
0.2516333406534421
 40
0.5013687584563358
 40
0.7321155282976084
 40
1.0
 40
1.0
 40
1.0
 40
1.0
 10
151.2520322486207
 20
108.3424919773395
 30
0.0
 10
151.2998673290196
 20
108.3105234483221
 30
0.0
 10
151.3982193259498
 20
108.2447940998697
 30
0.0
 10
151.5963203361949
 20
108.1124386647305
 30
0.0
 10
151.8400822312784
 20
107.9497292208034
 30
0.0
 10
152.1426197606027
 20
107.7468296988825
 30
0.0
 10
152.3474295801302
 20
107.6103637991977
 30
0.0
 10
152.4574615350748
 20
107.537048907557
 30
0.0
  0
SPLINE
  5
33B
330
1F
100
AcDbEntity
  8
0
  6
Continuous
 62
     7
370
    30
100
AcDbSpline
210
0.0
220
0.0
230
1.0
 70
     8
 71
     3
 72
    11
 73
     7
 74
     0
 42
0.000000001
 43
0.00000001
 40
0.0
 40
0.0
 40
0.0
 40
0.0
 40
0.2878521482535714
 40
0.5751820207740717
 40
0.800917787281366
 40
1.0
 40
1.0
 40
1.0
 40
1.0
 10
152.4574613405933
 20
107.5370489447464
 30
0.0
 10
152.4383194868996
 20
107.45091809952
 30
0.0
 10
152.4000705102784
 20
107.2788126839139
 30
0.0
 10
152.3107551554243
 20
107.0446119170651
 30
0.0
 10
152.2137962007073
 20
106.842077363713
 30
0.0
 10
152.1425456507482
 20
106.7273046228652
 30
0.0
 10
152.1091555452515
 20
106.6735187373211
 30
0.0
  0
SPLINE
  5
33C
330
1F
100
AcDbEntity
  8
0
  6
Continuous
 62
     7
370
    30
100
AcDbSpline
210
0.0
220
0.0
230
1.0
 70
     8
 71
     3
 72
     8
 73
     4
 74
     0
 42
0.000000001
 43
0.00000001
 40
0.0
 40
0.0
 40
0.0
 40
0.0
 40
1.0
 40
1.0
 40
1.0
 40
1.0
 10
148.8004860927178
 20
104.4494307085969
 30
0.0
 10
148.4783303939285
 20
104.3881650213647
 30
0.0
 10
148.150666269872
 20
104.3898897462835
 30
0.0
 10
147.8438657500389
 20
104.4543434350235
 30
0.0
  0
SPLINE
  5
33D
330
1F
100
AcDbEntity
  8
0
  6
Continuous
 62
     7
370
    30
100
AcDbSpline
210
0.0
220
0.0
230
1.0
 70
     8
 71
     3
 72
    12
 73
     8
 74
     0
 42
0.000000001
 43
0.00000001
 40
0.0
 40
0.0
 40
0.0
 40
0.0
 40
0.1223859347687122
 40
0.2516333406534465
 40
0.5013687584565089
 40
0.7321155282899457
 40
1.0
 40
1.0
 40
1.0
 40
1.0
 10
147.5610326089395
 20
105.8762442781671
 30
0.0
 10
147.5722519550142
 20
105.8198146047879
 30
0.0
 10
147.5953196509716
 20
105.7037915728013
 30
0.0
 10
147.6418087929657
 20
105.4701235793842
 30
0.0
 10
147.6991215308073
 20
105.1827049392122
 30
0.0
 10
147.7695762415108
 20
104.825306972815
 30
0.0
 10
147.8179026906822
 20
104.5839885975052
 30
0.0
 10
147.8438655751292
 20
104.4543427989714
 30
0.0
  0
SPLINE
  5
33E
330
1F
100
AcDbEntity
  8
0
  6
Continuous
 62
     7
370
    30
100
AcDbSpline
210
0.0
220
0.0
230
1.0
 70
     8
 71
     3
 72
    17
 73
    13
 74
     0
 42
0.000000001
 43
0.00000001
 40
0.0
 40
0.0
 40
0.0
 40
0.0
 40
0.0660153081038123
 40
0.125276489584885
 40
0.2504828135112571
 40
0.3754212643350081
 40
0.5003973674631191
 40
0.6253744190437311
 40
0.7503025917026043
 40
0.8750018689993388
 40
0.9341361793048413
 40
1.0
 40
1.0
 40
1.0
 40
1.0
 10
149.6518277267073
 20
106.7422621292421
 30
0.0
 10
149.6105259413695
 20
106.715090593587
 30
0.0
 10
149.5321480191977
 20
106.6635274834347
 30
0.0
 10
149.3712295664237
 20
106.5647757414595
 30
0.0
 10
149.1671584426105
 20
106.4488525766936
 30
0.0
 10
148.9114741442901
 20
106.3200769689542
 30
0.0
 10
148.6491366884799
 20
106.2037559280001
 30
0.0
 10
148.3813622250685
 20
106.1005927324559
 30
0.0
 10
148.1098604709339
 20
106.0110754488153
 30
0.0
 10
147.884063432309
 20
105.948889175685
 30
0.0
 10
147.7010181494582
 20
105.9051237095144
 30
0.0
 10
147.6093399941459
 20
105.8862102029528
 30
0.0
 10
147.561033083196
 20
105.876244327504
 30
0.0
  0
SPLINE
  5
33F
330
1F
100
AcDbEntity
  8
0
  6
Continuous
 62
     7
370
    30
100
AcDbSpline
210
0.0
220
0.0
230
1.0
 70
     8
 71
     3
 72
    11
 73
     7
 74
     0
 42
0.000000001
 43
0.00000001
 40
0.0
 40
0.0
 40
0.0
 40
0.0
 40
0.2878516328457706
 40
0.575182288437185
 40
0.8009178289836387
 40
1.0
 40
1.0
 40
1.0
 40
1.0
 10
150.4572575187852
 20
105.5368455885996
 30
0.0
 10
150.4066120611035
 20
105.4645963736323
 30
0.0
 10
150.3054128080012
 20
105.3202287061924
 30
0.0
 10
150.1332711559614
 20
105.1380348221148
 30
0.0
 10
149.9661860845252
 20
104.9880215473306
 30
0.0
 10
149.85643744967
 20
104.9092518833027
 30
0.0
 10
149.8050059864838
 20
104.872338084047
 30
0.0
  0
SPLINE
  5
340
330
1F
100
AcDbEntity
  8
0
  6
Continuous
 62
     7
370
    30
100
AcDbSpline
210
0.0
220
0.0
230
1.0
 70
     8
 71
     3
 72
     8
 73
     4
 74
     0
 42
0.000000001
 43
0.00000001
 40
0.0
 40
0.0
 40
0.0
 40
0.0
 40
1.0
 40
1.0
 40
1.0
 40
1.0
 10
145.8970726477981
 20
104.0837218621288
 30
0.0
 10
145.5759942304381
 20
104.1504033956972
 30
0.0
 10
145.2739321110206
 20
104.2773884406747
 30
0.0
 10
145.0151507118193
 20
104.4543433857033
 30
0.0
  0
SPLINE
  5
341
330
1F
100
AcDbEntity
  8
0
  6
Continuous
 62
     7
370
    30
100
AcDbSpline
210
0.0
220
0.0
230
1.0
 70
     8
 71
     3
 72
    12
 73
     8
 74
     0
 42
0.000000001
 43
0.00000001
 40
0.0
 40
0.0
 40
0.0
 40
0.0
 40
0.1223859347749261
 40
0.2516333406540265
 40
0.5013687584570128
 40
0.7321155282977655
 40
1.0
 40
1.0
 40
1.0
 40
1.0
 10
145.2979848567839
 20
105.8762440291931
 30
0.0
 10
145.2867554798947
 20
105.8198163510641
 30
0.0
 10
145.2636671599396
 20
105.7037974214456
 30
0.0
 10
145.217196656953
 20
105.4701257204987
 30
0.0
 10
145.1601563706531
 20
105.1826528863449
 30
0.0
 10
145.0884777553353
 20
104.8254983697119
 30
0.0
 10
145.0407770284495
 20
104.5840555305013
 30
0.0
 10
145.0151503068224
 20
104.4543428650292
 30
0.0
  0
SPLINE
  5
342
330
1F
100
AcDbEntity
  8
0
  6
Continuous
 62
     7
370
    30
100
AcDbSpline
210
0.0
220
0.0
230
1.0
 70
     8
 71
     3
 72
    17
 73
    13
 74
     0
 42
0.000000001
 43
0.00000001
 40
0.0
 40
0.0
 40
0.0
 40
0.0
 40
0.0660153043428621
 40
0.1252764809894065
 40
0.2504828023894985
 40
0.3754212648376746
 40
0.5003973773360592
 40
0.6253744394746229
 40
0.7503026366532224
 40
0.8750019084358294
 40
0.93413620183636
 40
1.0
 40
1.0
 40
1.0
 40
1.0
 10
147.5610383567375
 20
105.8762275438016
 30
0.0
 10
147.512482388794
 20
105.8669298278277
 30
0.0
 10
147.4203382889441
 20
105.8492856595542
 30
0.0
 10
147.2338783767014
 20
105.8196317738432
 30
0.0
 10
147.0009793648455
 20
105.7906273707309
 30
0.0
 10
146.7154775692132
 20
105.7695003657419
 30
0.0
 10
146.4285952037685
 20
105.7624259348991
 30
0.0
 10
146.1417249779055
 20
105.7695884230376
 30
0.0
 10
145.8566332610702
 20
105.7907844665992
 30
0.0
 10
145.6242263410445
 20
105.8197406283999
 30
0.0
 10
145.4383662662876
 20
105.849355004634
 30
0.0
 10
145.3464288387449
 20
105.8669649096162
 30
0.0
 10
145.2979853137631
 20
105.8762438931023
 30
0.0
  0
SPLINE
  5
343
330
1F
100
AcDbEntity
  8
0
  6
Continuous
 62
     7
370
    30
100
AcDbSpline
210
0.0
220
0.0
230
1.0
 70
     8
 71
     3
 72
    11
 73
     7
 74
     0
 42
0.000000001
 43
0.00000001
 40
0.0
 40
0.0
 40
0.0
 40
0.0
 40
0.2878519833650309
 40
0.575181973881738
 40
0.8009175911581975
 40
1.0
 40
1.0
 40
1.0
 40
1.0
 10
147.8438654423301
 20
104.454343283092
 30
0.0
 10
147.769426475732
 20
104.4069748244313
 30
0.0
 10
147.6206835306909
 20
104.3123238054123
 30
0.0
 10
147.3919229878994
 20
104.2098744351178
 30
0.0
 10
147.1801491127501
 20
104.1352207317975
 30
0.0
 10
147.048610626446
 20
104.1044461943442
 30
0.0
 10
146.9869677650352
 20
104.0900243274023
 30
0.0
  0
SPLINE
  5
344
330
1F
100
AcDbEntity
  8
0
  6
Continuous
 62
     7
370
    30
100
AcDbSpline
210
0.0
220
0.0
230
1.0
 70
     8
 71
     3
 72
     8
 73
     4
 74
     0
 42
0.000000001
 43
0.00000001
 40
0.0
 40
0.0
 40
0.0
 40
0.0
 40
1.0
 40
1.0
 40
1.0
 40
1.0
 10
139.3141399934507
 20
109.1938208364754
 30
0.0
 10
139.2528743066972
 20
109.5159765327475
 30
0.0
 10
139.2545990220219
 20
109.8436406151995
 30
0.0
 10
139.3190527198508
 20
110.1504411791486
 30
0.0
  0
SPLINE
  5
345
330
1F
100
AcDbEntity
  8
0
  6
Continuous
 62
     7
370
    30
100
AcDbSpline
210
0.0
220
0.0
230
1.0
 70
     8
 71
     3
 72
    12
 73
     8
 74
     0
 42
0.000000001
 43
0.00000001
 40
0.0
 40
0.0
 40
0.0
 40
0.0
 40
0.1223859347734377
 40
0.2516333406546074
 40
0.5013687584576253
 40
0.7321155282946954
 40
0.9999999999999999
 40
0.9999999999999999
 40
0.9999999999999999
 40
0.9999999999999999
 10
140.740953563021
 20
110.4332743202533
 30
0.0
 10
140.6845238896398
 20
110.4220549741777
 30
0.0
 10
140.568500857653
 20
110.398987278219
 30
0.0
 10
140.3348328642345
 20
110.3524981362276
 30
0.0
 10
140.0474142240629
 20
110.2951853983841
 30
0.0
 10
139.6900162576655
 20
110.2247306876833
 30
0.0
 10
139.4486978823565
 20
110.1764042385109
 30
0.0
 10
139.3190520838252
 20
110.1504413540636
 30
0.0
  0
SPLINE
  5
346
330
1F
100
AcDbEntity
  8
0
  6
Continuous
 62
     7
370
    30
100
AcDbSpline
210
0.0
220
0.0
230
1.0
 70
     8
 71
     3
 72
    17
 73
    13
 74
     0
 42
0.000000001
 43
0.00000001
 40
0.0
 40
0.0
 40
0.0
 40
0.0
 40
0.066015304346812
 40
0.1252764809885232
 40
0.2504828023875226
 40
0.375421264833798
 40
0.5003973773314847
 40
0.6253744394699587
 40
0.7503026366495904
 40
0.8750019084341043
 40
0.9341362018380931
 40
1.0
 40
1.0
 40
1.0
 40
1.0
 10
141.6069714134933
 20
108.3424792019819
 30
0.0
 10
141.5797998795302
 20
108.3837809850869
 30
0.0
 10
141.5282367731924
 20
108.4621589021037
 30
0.0
 10
141.4294850359083
 20
108.6230773478894
 30
0.0
 10
141.3135618682724
 20
108.8271484735438
 30
0.0
 10
141.1847862536815
 20
109.0828327842361
 30
0.0
 10
141.0684652035287
 20
109.3451702624298
 30
0.0
 10
140.9653019970446
 20
109.6129447581366
 30
0.0
 10
140.8757847111227
 20
109.8844465349139
 30
0.0
 10
140.8135984384886
 20
110.1102435749305
 30
0.0
 10
140.7698329832101
 20
110.2932888250564
 30
0.0
 10
140.7509194836579
 20
110.3849669515185
 30
0.0
 10
140.7409536121679
 20
110.4332738459799
 30
0.0
  0
SPLINE
  5
347
330
1F
100
AcDbEntity
  8
0
  6
Continuous
 62
     7
370
    30
100
AcDbSpline
210
0.0
220
0.0
230
1.0
 70
     8
 71
     3
 72
    12
 73
     8
 74
     0
 42
0.000000001
 43
0.00000001
 40
0.0
 40
0.0
 40
0.0
 40
0.0
 40
0.1223859347704685
 40
0.2516333406526784
 40
0.5013687584555843
 40
0.7321155282839046
 40
1.0
 40
1.0
 40
1.0
 40
1.0
 10
141.606984674444
 20
108.3424909162192
 30
0.0
 10
141.5591439120469
 20
108.310530890916
 30
0.0
 10
141.460780232561
 20
108.2448190266445
 30
0.0
 10
141.2626897804655
 20
108.1124477901188
 30
0.0
 10
141.0190822167868
 20
107.94950737293
 30
0.0
 10
140.715851401191
 20
107.7476454272385
 30
0.0
 10
140.511396024865
 20
107.6106490658147
 30
0.0
 10
140.4015544908549
 20
107.5370491890935
 30
0.0
  0
SPLINE
  5
348
330
1F
100
AcDbEntity
  8
0
  6
Continuous
 62
     7
370
    30
100
AcDbSpline
210
0.0
220
0.0
230
1.0
 70
     8
 71
     3
 72
    11
 73
     7
 74
     0
 42
0.000000001
 43
0.00000001
 40
0.0
 40
0.0
 40
0.0
 40
0.0
 40
0.2878517764551723
 40
0.5751817721897771
 40
0.8009176325873015
 40
1.0
 40
1.0
 40
1.0
 40
1.0
 10
140.4015548734535
 20
107.5370494104077
 30
0.0
 10
140.3293056514287
 20
107.5876949505241
 30
0.0
 10
140.1849381714869
 20
107.688894227028
 30
0.0
 10
140.0027444947619
 20
107.8610358562669
 30
0.0
 10
139.8527307449073
 20
108.0281204937635
 30
0.0
 10
139.7739611345584
 20
108.1378693755613
 30
0.0
 10
139.7370473689009
 20
108.189300942709
 30
0.0
  0
SPLINE
  5
349
330
1F
100
AcDbEntity
  8
0
  6
Continuous
 62
     7
370
    30
100
AcDbSpline
210
0.0
220
0.0
230
1.0
 70
     8
 71
     3
 72
     8
 73
     4
 74
     0
 42
0.000000001
 43
0.00000001
 40
0.0
 40
0.0
 40
0.0
 40
0.0
 40
1.0
 40
1.0
 40
1.0
 40
1.0
 10
138.9484311469827
 20
112.097234281395
 30
0.0
 10
139.0151126805512
 20
112.4183126987554
 30
0.0
 10
139.1420977254745
 20
112.7203748180918
 30
0.0
 10
139.319052670557
 20
112.9791562173737
 30
0.0
  0
SPLINE
  5
34A
330
1F
100
AcDbEntity
  8
0
  6
Continuous
 62
     7
370
    30
100
AcDbSpline
210
0.0
220
0.0
230
1.0
 70
     8
 71
     3
 72
    12
 73
     8
 74
     0
 42
0.000000001
 43
0.00000001
 40
0.0
 40
0.0
 40
0.0
 40
0.0
 40
0.1223859347705112
 40
0.2516333406550009
 40
0.5013687584579056
 40
0.7321155282951547
 40
1.0
 40
1.0
 40
1.0
 40
1.0
 10
140.740953314047
 20
112.6963220724089
 30
0.0
 10
140.6845256359202
 20
112.7075514492984
 30
0.0
 10
140.5685067063013
 20
112.730639769255
 30
0.0
 10
140.3348350053537
 20
112.7771102722384
 30
0.0
 10
140.0473621711992
 20
112.8341505585405
 30
0.0
 10
139.6902076545664
 20
112.905829173856
 30
0.0
 10
139.4487648153564
 20
112.9535299007426
 30
0.0
 10
139.319052149883
 20
112.9791566223705
 30
0.0
  0
SPLINE
  5
34B
330
1F
100
AcDbEntity
  8
0
  6
Continuous
 62
     7
370
    30
100
AcDbSpline
210
0.0
220
0.0
230
1.0
 70
     8
 71
     3
 72
    17
 73
    13
 74
     0
 42
0.000000001
 43
0.00000001
 40
0.0
 40
0.0
 40
0.0
 40
0.0
 40
0.0660153043439825
 40
0.125276480989291
 40
0.2504828023891047
 40
0.3754212648362519
 40
0.5003973773352723
 40
0.6253744394745885
 40
0.7503026366531599
 40
0.8750019084358991
 40
0.934136201834035
 40
1.0
 40
1.0
 40
1.0
 40
1.0
 10
140.7409368286555
 20
110.4332685724554
 30
0.0
 10
140.7316391126816
 20
110.4818245403997
 30
0.0
 10
140.7139949444083
 20
110.5739686402496
 30
0.0
 10
140.6843410586969
 20
110.7604285524919
 30
0.0
 10
140.6553366555851
 20
110.9933275643459
 30
0.0
 10
140.6342096505959
 20
111.2788293599777
 30
0.0
 10
140.627135219753
 20
111.5657117254226
 30
0.0
 10
140.6342977078914
 20
111.8525819512867
 30
0.0
 10
140.6554937514533
 20
112.1376736681226
 30
0.0
 10
140.6844499132532
 20
112.3700805881467
 30
0.0
 10
140.7140642894883
 20
112.5559406629034
 30
0.0
 10
140.73167419447
 20
112.6478780904462
 30
0.0
 10
140.7409531779562
 20
112.6963216154298
 30
0.0
  0
SPLINE
  5
34C
330
1F
100
AcDbEntity
  8
0
  6
Continuous
 62
     7
370
    30
100
AcDbSpline
210
0.0
220
0.0
230
1.0
 70
     8
 71
     3
 72
    11
 73
     7
 74
     0
 42
0.000000001
 43
0.00000001
 40
0.0
 40
0.0
 40
0.0
 40
0.0
 40
0.2878519679574091
 40
0.575181996620631
 40
0.8009176018143216
 40
0.9999999999999999
 40
0.9999999999999999
 40
0.9999999999999999
 40
0.9999999999999999
 10
139.3190525679459
 20
110.1504414868628
 30
0.0
 10
139.271684107022
 20
110.224880452096
 30
0.0
 10
139.1770330746722
 20
110.3736234082518
 30
0.0
 10
139.0745837317147
 20
110.6023839873133
 30
0.0
 10
138.9999300154644
 20
110.8141578739284
 30
0.0
 10
138.9691554788193
 20
110.9456963607241
 30
0.0
 10
138.9547336122562
 20
111.0073392223653
 30
0.0
  0
SPLINE
  5
34D
330
1F
100
AcDbEntity
  8
0
  6
Continuous
 62
     7
370
    30
100
AcDbSpline
210
0.0
220
0.0
230
1.0
 70
     8
 71
     3
 72
     8
 73
     4
 74
     0
 42
0.000000001
 43
0.00000001
 40
0.0
 40
0.0
 40
0.0
 40
0.0
 40
1.0
 40
1.0
 40
1.0
 40
1.0
 10
143.074717675006
 20
104.8569391666954
 30
0.0
 10
142.8035978150169
 20
105.0414162615697
 30
0.0
 10
142.5731238782653
 20
105.2743293141245
 30
0.0
 10
142.4017587658323
 20
105.5368457201723
 30
0.0
  0
SPLINE
  5
34E
330
1F
100
AcDbEntity
  8
0
  6
Continuous
 62
     7
370
    30
100
AcDbSpline
210
0.0
220
0.0
230
1.0
 70
     8
 71
     3
 72
    12
 73
     8
 74
     0
 42
0.000000001
 43
0.00000001
 40
0.0
 40
0.0
 40
0.0
 40
0.0
 40
0.1223859347674019
 40
0.2516333406516571
 40
0.5013687584545994
 40
0.7321155282861177
 40
0.9999999999999999
 40
0.9999999999999999
 40
0.9999999999999999
 40
0.9999999999999999
 10
143.2072012621935
 20
106.7422746805722
 30
0.0
 10
143.175232733177
 20
106.6944396001763
 30
0.0
 10
143.1095033847236
 20
106.5960876032477
 30
0.0
 10
142.9771479495885
 20
106.3979865930013
 30
0.0
 10
142.8144385056599
 20
106.1542246979213
 30
0.0
 10
142.6115389837439
 20
105.8516871685931
 30
0.0
 10
142.475073084056
 20
105.6468773490665
 30
0.0
 10
142.4017581924107
 20
105.5368453941178
 30
0.0
  0
SPLINE
  5
34F
330
1F
100
AcDbEntity
  8
0
  6
Continuous
 62
     7
370
    30
100
AcDbSpline
210
0.0
220
0.0
230
1.0
 70
     8
 71
     3
 72
    17
 73
    13
 74
     0
 42
0.000000001
 43
0.00000001
 40
0.0
 40
0.0
 40
0.0
 40
0.0
 40
0.0660153043483488
 40
0.1252764809893796
 40
0.2504828023895612
 40
0.3754212648370395
 40
0.5003973773349426
 40
0.6253744394731955
 40
0.7503026366518916
 40
0.8750019084352917
 40
0.9341362018347609
 40
1.0
 40
1.0
 40
1.0
 40
1.0
 10
145.2979837630924
 20
105.8762263690683
 30
0.0
 10
145.2495658162621
 20
105.8862179640567
 30
0.0
 10
145.1576836374931
 20
105.9051788985245
 30
0.0
 10
144.974069090171
 20
105.94913739967
 30
0.0
 10
144.7477989554432
 20
106.0114674185332
 30
0.0
 10
144.4759447351792
 20
106.101205418139
 30
0.0
 10
144.2081927220306
 20
106.2044546245721
 30
0.0
 10
143.9459001574143
 20
106.3208523834413
 30
0.0
 10
143.690621130044
 20
106.4495348509956
 30
0.0
 10
143.4869861768042
 20
106.5652251340838
 30
0.0
 10
143.3266067889693
 20
106.6637108215032
 30
0.0
 10
143.2484067002725
 20
106.7151631826205
 30
0.0
 10
143.2072016323074
 20
106.7422743799623
 30
0.0
  0
SPLINE
  5
350
330
1F
100
AcDbEntity
  8
0
  6
Continuous
 62
     7
370
    30
100
AcDbSpline
210
0.0
220
0.0
230
1.0
 70
     8
 71
     3
 72
    11
 73
     7
 74
     0
 42
0.000000001
 43
0.00000001
 40
0.0
 40
0.0
 40
0.0
 40
0.0
 40
0.287852028474771
 40
0.5751820191397686
 40
0.8009177228629997
 40
1.0
 40
1.0
 40
1.0
 40
1.0
 10
145.0151504224707
 20
104.454343283092
 30
0.0
 10
144.9282506461805
 20
104.4390670612392
 30
0.0
 10
144.7546086918254
 20
104.4085423219255
 30
0.0
 10
144.5040557868133
 20
104.4014348710753
 30
0.0
 10
144.2798335035295
 20
104.4135059102808
 30
0.0
 10
144.1465309147922
 20
104.4354116490899
 30
0.0
 10
144.0840613769908
 20
104.4456773265352
 30
0.0
  0
SPLINE
  5
351
330
1F
100
AcDbEntity
  8
0
  6
Continuous
 62
     7
370
    30
100
AcDbSpline
210
0.0
220
0.0
230
1.0
 70
     8
 71
     3
 72
     8
 73
     4
 74
     0
 42
0.000000001
 43
0.00000001
 40
0.0
 40
0.0
 40
0.0
 40
0.0
 40
1.0
 40
1.0
 40
1.0
 40
1.0
 10
141.5160765817625
 20
117.2312077949551
 30
0.0
 10
141.7902642725372
 20
117.4110935565973
 30
0.0
 10
142.093646431834
 20
117.5348917431449
 30
0.0
 10
142.4017585557435
 20
117.5927517837898
 30
0.0
  0
SPLINE
  5
352
330
1F
100
AcDbEntity
  8
0
  6
Continuous
 62
     7
370
    30
100
AcDbSpline
210
0.0
220
0.0
230
1.0
 70
     8
 71
     3
 72
    12
 73
     8
 74
     0
 42
0.000000001
 43
0.00000001
 40
0.0
 40
0.0
 40
0.0
 40
0.0
 40
0.1223859347711441
 40
0.2516333406538269
 40
0.5013687584567621
 40
0.7321155283059955
 40
1.0
 40
1.0
 40
1.0
 40
1.0
 10
143.2072002010731
 20
116.3873222547489
 30
0.0
 10
143.1752401757697
 20
116.4351630171462
 30
0.0
 10
143.1095283114979
 20
116.5335266966325
 30
0.0
 10
142.9771570749722
 20
116.7316171487288
 30
0.0
 10
142.8142166577754
 20
116.9752247124142
 30
0.0
 10
142.6123547120933
 20
117.2784555280168
 30
0.0
 10
142.4753583506651
 20
117.4829109043387
 30
0.0
 10
142.4017584739474
 20
117.5927524383379
 30
0.0
  0
SPLINE
  5
353
330
1F
100
AcDbEntity
  8
0
  6
Continuous
 62
     7
370
    30
100
AcDbSpline
210
0.0
220
0.0
230
1.0
 70
     8
 71
     3
 72
    17
 73
    13
 74
     0
 42
0.000000001
 43
0.00000001
 40
0.0
 40
0.0
 40
0.0
 40
0.0
 40
0.0660153043467744
 40
0.125276480989741
 40
0.2504828023899471
 40
0.3754212648374141
 40
0.5003973773346571
 40
0.625374439471657
 40
0.7503026366506005
 40
0.8750019084345293
 40
0.9341362018393572
 40
1.0
 40
1.0
 40
1.0
 40
1.0
 10
141.6069680681359
 20
114.7871134356758
 30
0.0
 10
141.6347278443231
 20
114.8280221678927
 30
0.0
 10
141.6874072511395
 20
114.9056541967774
 30
0.0
 10
141.7982858558299
 20
115.0584697288195
 30
0.0
 10
141.9424611163186
 20
115.2436634095564
 30
0.0
 10
142.1294023235563
 20
115.460482713782
 30
0.0
 10
142.3272564115412
 20
115.6683415578109
 30
0.0
 10
142.5351689375009
 20
115.8661247959051
 30
0.0
 10
142.7517470898717
 20
116.0527272160033
 30
0.0
 10
142.9365586973869
 20
116.196588626784
 30
0.0
 10
143.0889221428559
 20
116.3070710197431
 30
0.0
 10
143.1663838045463
 20
116.3596285149745
 30
0.0
 10
143.2071997817093
 20
116.3873220278465
 30
0.0
  0
SPLINE
  5
354
330
1F
100
AcDbEntity
  8
0
  6
Continuous
 62
     7
370
    30
100
AcDbSpline
210
0.0
220
0.0
230
1.0
 70
     8
 71
     3
 72
    12
 73
     8
 74
     0
 42
0.000000001
 43
0.00000001
 40
0.0
 40
0.0
 40
0.0
 40
0.0
 40
0.1223859347721249
 40
0.2516333406520395
 40
0.5013687584548004
 40
0.7321155282948447
 40
1.0
 40
1.0
 40
1.0
 40
1.0
 10
141.6069839654261
 20
114.7871056669995
 30
0.0
 10
141.5591488850281
 20
114.8190741960165
 30
0.0
 10
141.4607968880987
 20
114.8848035444689
 30
0.0
 10
141.2626958778537
 20
115.0171589796068
 30
0.0
 10
141.0189339827708
 20
115.1798684235343
 30
0.0
 10
140.7163964534452
 20
115.3827679454546
 30
0.0
 10
140.5115866339175
 20
115.5192338451404
 30
0.0
 10
140.4015546789718
 20
115.5925487367821
 30
0.0
  0
SPLINE
  5
355
330
1F
100
AcDbEntity
  8
0
  6
Continuous
 62
     7
370
    30
100
AcDbSpline
210
0.0
220
0.0
230
1.0
 70
     8
 71
     3
 72
    11
 73
     7
 74
     0
 42
0.000000001
 43
0.00000001
 40
0.0
 40
0.0
 40
0.0
 40
0.0
 40
0.2878520774299437
 40
0.5751818792553178
 40
0.8009175902222038
 40
1.0
 40
1.0
 40
1.0
 40
1.0
 10
140.4015548734535
 20
115.5925486995925
 30
0.0
 10
140.4206967236657
 20
115.6786795468548
 30
0.0
 10
140.4589456933301
 20
115.850784966529
 30
0.0
 10
140.5482610965668
 20
116.0849857050857
 30
0.0
 10
140.6452199434056
 20
116.287520411083
 30
0.0
 10
140.7164708431244
 20
116.4022930390508
 30
0.0
 10
140.7498611344566
 20
116.4560789070179
 30
0.0
  0
SPLINE
  5
356
330
1F
100
AcDbEntity
  8
0
  6
Continuous
 62
     7
370
    30
100
AcDbSpline
210
0.0
220
0.0
230
1.0
 70
     8
 71
     3
 72
     8
 73
     4
 74
     0
 42
0.000000001
 43
0.00000001
 40
0.0
 40
0.0
 40
0.0
 40
0.0
 40
1.0
 40
1.0
 40
1.0
 40
1.0
 10
140.7630991342376
 20
106.6513672969088
 30
0.0
 10
140.5832133725954
 20
106.9255549876836
 30
0.0
 10
140.4594151860479
 20
107.2289371469802
 30
0.0
 10
140.401555145403
 20
107.5370492708895
 30
0.0
  0
SPLINE
  5
357
330
1F
100
AcDbEntity
  8
0
  6
Continuous
 62
     7
370
    30
100
AcDbSpline
210
0.0
220
0.0
230
1.0
 70
     8
 71
     3
 72
    17
 73
    13
 74
     0
 42
0.000000001
 43
0.00000001
 40
0.0
 40
0.0
 40
0.0
 40
0.0
 40
0.0660153043496946
 40
0.1252764809857192
 40
0.2504828023821241
 40
0.3754212648270534
 40
0.5003973773256265
 40
0.6253744394653122
 40
0.750302636646736
 40
0.8750019084326826
 40
0.9341362018335269
 40
1.0
 40
1.0
 40
1.0
 40
1.0
 10
143.207193493517
 20
106.742258783282
 30
0.0
 10
143.1662847612986
 20
106.7700185594708
 30
0.0
 10
143.0886527324169
 20
106.8226979662864
 30
0.0
 10
142.9358372003784
 20
106.9335765709713
 30
0.0
 10
142.7506435196497
 20
107.0777518314544
 30
0.0
 10
142.5338242154263
 20
107.2646930386883
 30
0.0
 10
142.3259653713959
 20
107.4625471266733
 30
0.0
 10
142.1281821332975
 20
107.6704596526359
 30
0.0
 10
141.9415797131956
 20
107.8870378050108
 30
0.0
 10
141.7977183024135
 20
108.0718494125256
 30
0.0
 10
141.6872359094542
 20
108.2242128579979
 30
0.0
 10
141.6346784142212
 20
108.301674519689
 30
0.0
 10
141.6069849013464
 20
108.3424904968554
 30
0.0
  0
SPLINE
  5
358
330
1F
100
AcDbEntity
  8
0
  6
Continuous
 62
     7
370
    30
100
AcDbSpline
210
0.0
220
0.0
230
1.0
 70
     8
 71
     3
 72
    11
 73
     7
 74
     0
 42
0.000000001
 43
0.00000001
 40
0.0
 40
0.0
 40
0.0
 40
0.0
 40
0.2878520774299437
 40
0.5751818792553178
 40
0.8009175902222038
 40
1.0
 40
1.0
 40
1.0
 40
1.0
 10
142.4017582296003
 20
105.5368455885996
 30
0.0
 10
142.3156273823381
 20
105.5559874388118
 30
0.0
 10
142.1435219626639
 20
105.5942364084761
 30
0.0
 10
141.9093212241071
 20
105.6835518117128
 30
0.0
 10
141.7067865181099
 20
105.7805106585516
 30
0.0
 10
141.592013890142
 20
105.8517615582704
 30
0.0
 10
141.538228022175
 20
105.8851518496026
 30
0.0
  0
SPLINE
  5
359
330
1F
100
AcDbEntity
  8
0
  6
Continuous
 62
     7
370
    30
100
AcDbSpline
210
0.0
220
0.0
230
1.0
 70
     8
 71
     3
 72
     8
 73
     4
 74
     0
 42
0.000000001
 43
0.00000001
 40
0.0
 40
0.0
 40
0.0
 40
0.0
 40
1.0
 40
1.0
 40
1.0
 40
1.0
 10
139.7216484515493
 20
114.9195892541868
 30
0.0
 10
139.9061255464238
 20
115.1907091141762
 30
0.0
 10
140.1390385989785
 20
115.4211830509276
 30
0.0
 10
140.4015550050262
 20
115.5925481633606
 30
0.0
  0
SPLINE
  5
35A
330
1F
100
AcDbEntity
  8
0
  6
Continuous
 62
     7
370
    30
100
AcDbSpline
210
0.0
220
0.0
230
1.0
 70
     8
 71
     3
 72
    17
 73
    13
 74
     0
 42
0.000000001
 43
0.00000001
 40
0.0
 40
0.0
 40
0.0
 40
0.0
 40
0.066015304345814
 40
0.1252764809877132
 40
0.2504828023859718
 40
0.3754212648312455
 40
0.5003973773290662
 40
0.625374439467979
 40
0.7503026366481027
 40
0.875001908433319
 40
0.9341362018342747
 40
1.0
 40
1.0
 40
1.0
 40
1.0
 10
140.7409356539223
 20
112.6963231661005
 30
0.0
 10
140.7509272489101
 20
112.7447411129289
 30
0.0
 10
140.7698881833772
 20
112.8366232916967
 30
0.0
 10
140.8138466845226
 20
113.0202378390161
 30
0.0
 10
140.8761767033847
 20
113.2465079737416
 30
0.0
 10
140.965914702989
 20
113.5183621940027
 30
0.0
 10
141.069163909421
 20
113.7861142071504
 30
0.0
 10
141.1855616682903
 20
114.0484067717682
 30
0.0
 10
141.3142441358455
 20
114.3036857991415
 30
0.0
 10
141.4299344189354
 20
114.5073207523846
 30
0.0
 10
141.5284201063559
 20
114.6677001402221
 30
0.0
 10
141.5798724674742
 20
114.7459002289201
 30
0.0
 10
141.6069836648162
 20
114.7871052968854
 30
0.0
  0
SPLINE
  5
35B
330
1F
100
AcDbEntity
  8
0
  6
Continuous
 62
     7
370
    30
100
AcDbSpline
210
0.0
220
0.0
230
1.0
 70
     8
 71
     3
 72
    11
 73
     7
 74
     0
 42
0.000000001
 43
0.00000001
 40
0.0
 40
0.0
 40
0.0
 40
0.0
 40
0.287852028474771
 40
0.5751820191397686
 40
0.8009177228629997
 40
1.0
 40
1.0
 40
1.0
 40
1.0
 10
139.3190525679459
 20
112.9791565067221
 30
0.0
 10
139.3037763460931
 20
113.0660562830124
 30
0.0
 10
139.2732516067794
 20
113.2396982373675
 30
0.0
 10
139.2661441559293
 20
113.4902511423796
 30
0.0
 10
139.2782151951347
 20
113.7144734256634
 30
0.0
 10
139.3001209339438
 20
113.8477760144006
 30
0.0
 10
139.3103866113891
 20
113.910245552202
 30
0.0
  0
SPLINE
  5
35C
330
1F
100
AcDbEntity
  8
0
  6
Continuous
 62
     7
370
    30
100
AcDbSpline
210
0.0
220
0.0
230
1.0
 70
     8
 71
     3
 72
     8
 73
     4
 74
     0
 42
0.000000001
 43
0.00000001
 40
0.0
 40
0.0
 40
0.0
 40
0.0
 40
1.0
 40
1.0
 40
1.0
 40
1.0
 10
146.9619435662484
 20
119.0458757822102
 30
0.0
 10
147.2830219836092
 20
118.9791942486417
 30
0.0
 10
147.5850841029456
 20
118.8522092037183
 30
0.0
 10
147.8438655022277
 20
118.6752542586358
 30
0.0
  0
SPLINE
  5
35D
330
1F
100
AcDbEntity
  8
0
  6
Continuous
 62
     7
370
    30
100
AcDbSpline
210
0.0
220
0.0
230
1.0
 70
     8
 71
     3
 72
    12
 73
     8
 74
     0
 42
0.000000001
 43
0.00000001
 40
0.0
 40
0.0
 40
0.0
 40
0.0
 40
0.1223859347748516
 40
0.2516333406544551
 40
0.501368758457192
 40
0.7321155282908959
 40
1.0
 40
1.0
 40
1.0
 40
1.0
 10
147.5610313572629
 20
117.2533536151458
 30
0.0
 10
147.5722607341521
 20
117.3097812932748
 30
0.0
 10
147.5953490541074
 20
117.4258002228935
 30
0.0
 10
147.6418195570937
 20
117.6594719238405
 30
0.0
 10
147.698859843394
 20
117.9469447579909
 30
0.0
 10
147.770538458708
 20
118.3040992746241
 30
0.0
 10
147.8182391855956
 20
118.5455421138343
 30
0.0
 10
147.8438659072244
 20
118.6752547793096
 30
0.0
  0
SPLINE
  5
35E
330
1F
100
AcDbEntity
  8
0
  6
Continuous
 62
     7
370
    30
100
AcDbSpline
210
0.0
220
0.0
230
1.0
 70
     8
 71
     3
 72
    17
 73
    13
 74
     0
 42
0.000000001
 43
0.00000001
 40
0.0
 40
0.0
 40
0.0
 40
0.0
 40
0.0660153043455232
 40
0.1252764809884972
 40
0.2504828023874072
 40
0.375421264832748
 40
0.500397377330143
 40
0.6253744394691609
 40
0.7503026366494849
 40
0.875001908434037
 40
0.9341362018351757
 40
1.0
 40
1.0
 40
1.0
 40
1.0
 10
145.2979778573093
 20
117.2533701005373
 30
0.0
 10
145.3465338252548
 20
117.2626678165113
 30
0.0
 10
145.4386779251042
 20
117.2803119847841
 30
0.0
 10
145.6251378373451
 20
117.3099658704962
 30
0.0
 10
145.8580368491953
 20
117.3389702736072
 30
0.0
 10
146.1435386448238
 20
117.3600972785965
 30
0.0
 10
146.4304210102658
 20
117.3671717094398
 30
0.0
 10
146.7172912361297
 20
117.360009221302
 30
0.0
 10
147.0023829529683
 20
117.3388131777407
 30
0.0
 10
147.2347898729973
 20
117.3098570159398
 30
0.0
 10
147.420649947757
 20
117.2802426397053
 30
0.0
 10
147.5125873753011
 20
117.2626327347229
 30
0.0
 10
147.5610309002837
 20
117.2533537512366
 30
0.0
  0
SPLINE
  5
35F
330
1F
100
AcDbEntity
  8
0
  6
Continuous
 62
     7
370
    30
100
AcDbSpline
210
0.0
220
0.0
230
1.0
 70
     8
 71
     3
 72
    12
 73
     8
 74
     0
 42
0.000000001
 43
0.00000001
 40
0.0
 40
0.0
 40
0.0
 40
0.0
 40
0.1223859347690991
 40
0.2516333406534187
 40
0.5013687584562073
 40
0.7321155282906668
 40
1.0
 40
1.0
 40
1.0
 40
1.0
 10
145.2979836051072
 20
117.2533533661719
 30
0.0
 10
145.2867642590325
 20
117.3097830395512
 30
0.0
 10
145.263696563075
 20
117.4258060715377
 30
0.0
 10
145.2172074210813
 20
117.6594740649548
 30
0.0
 10
145.1598946832393
 20
117.9468927051269
 30
0.0
 10
145.0894399725363
 20
118.3042906715242
 30
0.0
 10
145.0411135233647
 20
118.5456090468341
 30
0.0
 10
145.0151506389175
 20
118.6752548453675
 30
0.0
  0
SPLINE
  5
360
330
1F
100
AcDbEntity
  8
0
  6
Continuous
 62
     7
370
    30
100
AcDbSpline
210
0.0
220
0.0
230
1.0
 70
     8
 71
     3
 72
    11
 73
     7
 74
     0
 42
0.000000001
 43
0.00000001
 40
0.0
 40
0.0
 40
0.0
 40
0.0
 40
0.2878519846921087
 40
0.5751820300596862
 40
0.8009176483768498
 40
1.0
 40
1.0
 40
1.0
 40
1.0
 10
145.0151507717167
 20
118.675254361247
 30
0.0
 10
145.0895897369898
 20
118.7226228220499
 30
0.0
 10
145.2383326932251
 20
118.8172738541579
 30
0.0
 10
145.467093271733
 20
118.9197231987966
 30
0.0
 10
145.6788671426777
 20
118.9943769040401
 30
0.0
 10
145.8104056073182
 20
119.0251514488058
 30
0.0
 10
145.8720484490116
 20
119.0395733169367
 30
0.0
  0
SPLINE
  5
361
330
1F
100
AcDbEntity
  8
0
  6
Continuous
 62
     7
370
    30
100
AcDbSpline
210
0.0
220
0.0
230
1.0
 70
     8
 71
     3
 72
     8
 73
     4
 74
     0
 42
0.000000001
 43
0.00000001
 40
0.0
 40
0.0
 40
0.0
 40
0.0
 40
1.0
 40
1.0
 40
1.0
 40
1.0
 10
153.5448762205958
 20
113.9357768078643
 30
0.0
 10
153.6061419073494
 20
113.613621111592
 30
0.0
 10
153.6044171920249
 20
113.2859570291398
 30
0.0
 10
153.5399634941959
 20
112.9791564651902
 30
0.0
  0
SPLINE
  5
362
330
1F
100
AcDbEntity
  8
0
  6
Continuous
 62
     7
370
    30
100
AcDbSpline
210
0.0
220
0.0
230
1.0
 70
     8
 71
     3
 72
    12
 73
     8
 74
     0
 42
0.000000001
 43
0.00000001
 40
0.0
 40
0.0
 40
0.0
 40
0.0
 40
0.1223859347753923
 40
0.2516333406548148
 40
0.5013687584576765
 40
0.7321155282934096
 40
0.9999999999999999
 40
0.9999999999999999
 40
0.9999999999999999
 40
0.9999999999999999
 10
152.1180626510258
 20
112.6963233240857
 30
0.0
 10
152.1744923244078
 20
112.7075426701617
 30
0.0
 10
152.2905153563945
 20
112.7306103661209
 30
0.0
 10
152.5241833498133
 20
112.7770995081111
 30
0.0
 10
152.8116019899832
 20
112.8344122459547
 30
0.0
 10
153.1689999563803
 20
112.904866956656
 30
0.0
 10
153.4103183316893
 20
112.9531934058281
 30
0.0
 10
153.5399641302213
 20
112.9791562902753
 30
0.0
  0
SPLINE
  5
363
330
1F
100
AcDbEntity
  8
0
  6
Continuous
 62
     7
370
    30
100
AcDbSpline
210
0.0
220
0.0
230
1.0
 70
     8
 71
     3
 72
    17
 73
    13
 74
     0
 42
0.000000001
 43
0.00000001
 40
0.0
 40
0.0
 40
0.0
 40
0.0
 40
0.0660153043489561
 40
0.12527648098854
 40
0.2504828023876113
 40
0.3754212648344835
 40
0.500397377333514
 40
0.6253744394732367
 40
0.7503026366525978
 40
0.8750019084355107
 40
0.9341362018397507
 40
1.0
 40
1.0
 40
1.0
 40
1.0
 10
151.2520448005535
 20
114.787118442357
 30
0.0
 10
151.2792163345173
 20
114.7458166592506
 30
0.0
 10
151.3307794408548
 20
114.6674387422335
 30
0.0
 10
151.4295311781397
 20
114.5065202964482
 30
0.0
 10
151.5454543457747
 20
114.3024491707945
 30
0.0
 10
151.6742299603663
 20
114.0467648601009
 30
0.0
 10
151.7905510105199
 20
113.7844273819049
 30
0.0
 10
151.8937142170043
 20
113.5166528861963
 30
0.0
 10
151.9832315029258
 20
113.2451511094194
 30
0.0
 10
152.0454177755592
 20
113.019354069404
 30
0.0
 10
152.0891832308375
 20
112.8363088192803
 30
0.0
 10
152.1080967303893
 20
112.7446306928193
 30
0.0
 10
152.118062601879
 20
112.696323798359
 30
0.0
  0
SPLINE
  5
364
330
1F
100
AcDbEntity
  8
0
  6
Continuous
 62
     7
370
    30
100
AcDbSpline
210
0.0
220
0.0
230
1.0
 70
     8
 71
     3
 72
    12
 73
     8
 74
     0
 42
0.000000001
 43
0.00000001
 40
0.0
 40
0.0
 40
0.0
 40
0.0
 40
0.1223859347688332
 40
0.2516333406559693
 40
0.501368758458765
 40
0.7321155282912717
 40
1.0
 40
1.0
 40
1.0
 40
1.0
 10
151.2520315396028
 20
114.7871067281197
 30
0.0
 10
151.2998723019995
 20
114.8190667534221
 30
0.0
 10
151.3982359814873
 20
114.8847786176938
 30
0.0
 10
151.5963264335828
 20
115.017149854222
 30
0.0
 10
151.8399339972652
 20
115.1800902714129
 30
0.0
 10
152.1431648128613
 20
115.3819522171014
 30
0.0
 10
152.347620189185
 20
115.5189485785254
 30
0.0
 10
152.4574617231916
 20
115.5925484552453
 30
0.0
  0
SPLINE
  5
365
330
1F
100
AcDbEntity
  8
0
  6
Continuous
 62
     7
370
    30
100
AcDbSpline
210
0.0
220
0.0
230
1.0
 70
     8
 71
     3
 72
    11
 73
     7
 74
     0
 42
0.000000001
 43
0.00000001
 40
0.0
 40
0.0
 40
0.0
 40
0.0
 40
0.2878517764551723
 40
0.5751817721897771
 40
0.8009176325873015
 40
1.0
 40
1.0
 40
1.0
 40
1.0
 10
152.4574613405933
 20
115.5925482339312
 30
0.0
 10
152.5297105626181
 20
115.5419026938149
 30
0.0
 10
152.6740780425599
 20
115.440703417311
 30
0.0
 10
152.8562717192849
 20
115.268561788072
 30
0.0
 10
153.0062854691396
 20
115.1014771505755
 30
0.0
 10
153.0850550794884
 20
114.9917282687777
 30
0.0
 10
153.1219688451459
 20
114.9402967016299
 30
0.0
  0
SPLINE
  5
366
330
1F
100
AcDbEntity
  8
0
  6
Continuous
 62
     7
370
    30
100
AcDbSpline
210
0.0
220
0.0
230
1.0
 70
     8
 71
     3
 72
     8
 73
     4
 74
     0
 42
0.000000001
 43
0.00000001
 40
0.0
 40
0.0
 40
0.0
 40
0.0
 40
1.0
 40
1.0
 40
1.0
 40
1.0
 10
153.9105850670642
 20
111.0323633629448
 30
0.0
 10
153.8439035334957
 20
110.711284945584
 30
0.0
 10
153.7169184885723
 20
110.4092228262474
 30
0.0
 10
153.5399635434897
 20
110.1504414269652
 30
0.0
  0
SPLINE
  5
367
330
1F
100
AcDbEntity
  8
0
  6
Continuous
 62
     7
370
    30
100
AcDbSpline
210
0.0
220
0.0
230
1.0
 70
     8
 71
     3
 72
    12
 73
     8
 74
     0
 42
0.000000001
 43
0.00000001
 40
0.0
 40
0.0
 40
0.0
 40
0.0
 40
0.1223859347705868
 40
0.2516333406545737
 40
0.5013687584573241
 40
0.7321155282967267
 40
1.0
 40
1.0
 40
1.0
 40
1.0
 10
152.1180628999998
 20
110.43327557193
 30
0.0
 10
152.1744905781267
 20
110.4220461950406
 30
0.0
 10
152.2905095077453
 20
110.3989578750841
 30
0.0
 10
152.5241812086926
 20
110.3524873721006
 30
0.0
 10
152.8116540428477
 20
110.2954470857987
 30
0.0
 10
153.1688085594806
 20
110.223768470482
 30
0.0
 10
153.4102513986909
 20
110.176067743596
 30
0.0
 10
153.5399640641635
 20
110.1504410219685
 30
0.0
  0
SPLINE
  5
368
330
1F
100
AcDbEntity
  8
0
  6
Continuous
 62
     7
370
    30
100
AcDbSpline
210
0.0
220
0.0
230
1.0
 70
     8
 71
     3
 72
    17
 73
    13
 74
     0
 42
0.000000001
 43
0.00000001
 40
0.0
 40
0.0
 40
0.0
 40
0.0
 40
0.0660153043510704
 40
0.1252764809897247
 40
0.2504828023901428
 40
0.3754212648379331
 40
0.5003973773348375
 40
0.6253744394718617
 40
0.7503026366512507
 40
0.875001908434841
 40
0.9341362018344953
 40
1.0
 40
1.0
 40
1.0
 40
1.0
 10
152.1180793853913
 20
112.6963290718836
 30
0.0
 10
152.1273771013656
 20
112.6477731039339
 30
0.0
 10
152.1450212696376
 20
112.5556290040833
 30
0.0
 10
152.1746751553518
 20
112.3691690918408
 30
0.0
 10
152.2036795584616
 20
112.1362700799905
 30
0.0
 10
152.224806563451
 20
111.8507682843595
 30
0.0
 10
152.2318809942937
 20
111.5638859189174
 30
0.0
 10
152.2247185061555
 20
111.2770156930561
 30
0.0
 10
152.2035224625941
 20
110.9919239762206
 30
0.0
 10
152.1745663007937
 20
110.7595170561941
 30
0.0
 10
152.1449519245589
 20
110.5736569814359
 30
0.0
 10
152.1273420195768
 20
110.4817195538924
 30
0.0
 10
152.1180630360906
 20
110.4332760289092
 30
0.0
  0
SPLINE
  5
369
330
1F
100
AcDbEntity
  8
0
  6
Continuous
 62
     7
370
    30
100
AcDbSpline
210
0.0
220
0.0
230
1.0
 70
     8
 71
     3
 72
    11
 73
     7
 74
     0
 42
0.000000001
 43
0.00000001
 40
0.0
 40
0.0
 40
0.0
 40
0.0
 40
0.2878519846921087
 40
0.5751820300596862
 40
0.8009176483768498
 40
1.0
 40
1.0
 40
1.0
 40
1.0
 10
153.5399636461009
 20
112.9791561574762
 30
0.0
 10
153.5873321069039
 20
112.9047171922031
 30
0.0
 10
153.6819831390119
 20
112.7559742359677
 30
0.0
 10
153.7844324836505
 20
112.5272136574599
 30
0.0
 10
153.8590861888941
 20
112.3154397865152
 30
0.0
 10
153.8898607336598
 20
112.1839013218746
 30
0.0
 10
153.9042826017906
 20
112.1222584801813
 30
0.0
  0
SPLINE
  5
36A
330
1F
100
AcDbEntity
  8
0
  6
Continuous
 62
     7
370
    30
100
AcDbSpline
210
0.0
220
0.0
230
1.0
 70
     8
 71
     3
 72
     8
 73
     4
 74
     0
 42
0.000000001
 43
0.00000001
 40
0.0
 40
0.0
 40
0.0
 40
0.0
 40
1.0
 40
1.0
 40
1.0
 40
1.0
 10
144.0585301213289
 20
118.680166935742
 30
0.0
 10
144.3806858176009
 20
118.7414326224955
 30
0.0
 10
144.7083499000532
 20
118.739707907171
 30
0.0
 10
145.0151504640026
 20
118.675254209342
 30
0.0
  0
SPLINE
  5
36B
330
1F
100
AcDbEntity
  8
0
  6
Continuous
 62
     7
370
    30
100
AcDbSpline
210
0.0
220
0.0
230
1.0
 70
     8
 71
     3
 72
    17
 73
    13
 74
     0
 42
0.000000001
 43
0.00000001
 40
0.0
 40
0.0
 40
0.0
 40
0.0
 40
0.066015304346872
 40
0.1252764809897475
 40
0.2504828023899984
 40
0.3754212648374596
 40
0.5003973773345288
 40
0.6253744394723115
 40
0.7503026366516915
 40
0.8750019084351383
 40
0.9341362018361538
 40
1.0
 40
1.0
 40
1.0
 40
1.0
 10
143.2071884868359
 20
116.3873355156996
 30
0.0
 10
143.2484902699408
 20
116.4145070496627
 30
0.0
 10
143.3268681869584
 20
116.4660701560012
 30
0.0
 10
143.4877866327458
 20
116.5648218932859
 30
0.0
 10
143.6918577584026
 20
116.6807450609232
 30
0.0
 10
143.9475420690964
 20
116.8095206755144
 30
0.0
 10
144.2098795472901
 20
116.9258417256668
 30
0.0
 10
144.4776540429959
 20
117.0290049321502
 30
0.0
 10
144.7491558197719
 20
117.1185222180712
 30
0.0
 10
144.9749528597852
 20
117.1807084907048
 30
0.0
 10
145.1579981099098
 20
117.224473945982
 30
0.0
 10
145.249676236371
 20
117.2433874455345
 30
0.0
 10
145.2979831308338
 20
117.253353317025
 30
0.0
  0
SPLINE
  5
36C
330
1F
100
AcDbEntity
  8
0
  6
Continuous
 62
     7
370
    30
100
AcDbSpline
210
0.0
220
0.0
230
1.0
 70
     8
 71
     3
 72
    11
 73
     7
 74
     0
 42
0.000000001
 43
0.00000001
 40
0.0
 40
0.0
 40
0.0
 40
0.0
 40
0.2878517764551723
 40
0.5751817721897771
 40
0.8009176325873015
 40
1.0
 40
1.0
 40
1.0
 40
1.0
 10
142.4017586952616
 20
117.5927520557393
 30
0.0
 10
142.452404235378
 20
117.6650012777642
 30
0.0
 10
142.5536035118819
 20
117.809368757706
 30
0.0
 10
142.7257451411209
 20
117.991562434431
 30
0.0
 10
142.8928297786174
 20
118.1415761842856
 30
0.0
 10
143.0025786604152
 20
118.2203457946344
 30
0.0
 10
143.0540102275629
 20
118.2572595602919
 30
0.0
  0
SPLINE
  5
36D
330
1F
100
AcDbEntity
  8
0
  6
Continuous
 62
     7
370
    30
100
AcDbSpline
210
0.0
220
0.0
230
1.0
 70
     8
 71
     3
 72
     8
 73
     4
 74
     0
 42
0.000000001
 43
0.00000001
 40
0.0
 40
0.0
 40
0.0
 40
0.0
 40
1.0
 40
1.0
 40
1.0
 40
1.0
 10
152.0959170798086
 20
116.4782303474308
 30
0.0
 10
152.275802841451
 20
116.204042656656
 30
0.0
 10
152.3996010279988
 20
115.9006604973589
 30
0.0
 10
152.4574610686437
 20
115.5925483734492
 30
0.0
  0
SPLINE
  5
36E
330
1F
100
AcDbEntity
  8
0
  6
Continuous
 62
     7
370
    30
100
AcDbSpline
210
0.0
220
0.0
230
1.0
 70
     8
 71
     3
 72
    17
 73
    13
 74
     0
 42
0.000000001
 43
0.00000001
 40
0.0
 40
0.0
 40
0.0
 40
0.0
 40
0.0660153043492125
 40
0.1252764809891418
 40
0.2504828023888664
 40
0.3754212648355599
 40
0.5003973773329569
 40
0.6253744394710614
 40
0.7503026366507307
 40
0.8750019084345514
 40
0.9341362018376346
 40
0.9999999999999999
 40
0.9999999999999999
 40
0.9999999999999999
 40
0.9999999999999999
 10
149.6518227205298
 20
116.387338861057
 30
0.0
 10
149.692731452748
 20
116.3595790848685
 30
0.0
 10
149.770363481632
 20
116.3068996780519
 30
0.0
 10
149.9231790136741
 20
116.196021073363
 30
0.0
 10
150.1083726944082
 20
116.0518458128758
 30
0.0
 10
150.3251919986333
 20
115.864904605639
 30
0.0
 10
150.5330508426626
 20
115.6670505176539
 30
0.0
 10
150.730834080758
 20
115.4591379916933
 30
0.0
 10
150.9174365008569
 20
115.2425598393214
 30
0.0
 10
151.0612979116374
 20
115.0577482318071
 30
0.0
 10
151.1717803045959
 20
114.9053847863378
 30
0.0
 10
151.2243377998276
 20
114.8279231246476
 30
0.0
 10
151.2520313127005
 20
114.7871071474835
 30
0.0
  0
SPLINE
  5
36F
330
1F
100
AcDbEntity
  8
0
  6
Continuous
 62
     7
370
    30
100
AcDbSpline
210
0.0
220
0.0
230
1.0
 70
     8
 71
     3
 72
    12
 73
     8
 74
     0
 42
0.000000001
 43
0.00000001
 40
0.0
 40
0.0
 40
0.0
 40
0.0
 40
0.1223859347743011
 40
0.2516333406533444
 40
0.5013687584564411
 40
0.7321155283021289
 40
1.0
 40
1.0
 40
1.0
 40
1.0
 10
149.6518149518534
 20
116.3873229637668
 30
0.0
 10
149.6837834808709
 20
116.4351580441657
 30
0.0
 10
149.7495128293231
 20
116.5335100410959
 30
0.0
 10
149.8818682644625
 20
116.7316110513409
 30
0.0
 10
150.0445777083902
 20
116.9753729464265
 30
0.0
 10
150.2474772303132
 20
117.2779104757498
 30
0.0
 10
150.383943129997
 20
117.4827202952777
 30
0.0
 10
150.4572580216359
 20
117.5927522502209
 30
0.0
  0
SPLINE
  5
370
330
1F
100
AcDbEntity
  8
0
  6
Continuous
 62
     7
370
    30
100
AcDbSpline
210
0.0
220
0.0
230
1.0
 70
     8
 71
     3
 72
    11
 73
     7
 74
     0
 42
0.000000001
 43
0.00000001
 40
0.0
 40
0.0
 40
0.0
 40
0.0
 40
0.2878521482535714
 40
0.5751820207740717
 40
0.800917787281366
 40
1.0
 40
1.0
 40
1.0
 40
1.0
 10
150.4572579844464
 20
117.5927520557393
 30
0.0
 10
150.5433888296729
 20
117.5736102020456
 30
0.0
 10
150.715494245279
 20
117.5353612254245
 30
0.0
 10
150.9496950121278
 20
117.4460458705703
 30
0.0
 10
151.1522295654798
 20
117.3490869158534
 30
0.0
 10
151.2670023063276
 20
117.2778363658943
 30
0.0
 10
151.3207881918718
 20
117.2444462603976
 30
0.0
  0
SPLINE
  5
371
330
1F
100
AcDbEntity
  8
0
  6
Continuous
 62
     7
370
    30
100
AcDbSpline
210
0.0
220
0.0
230
1.0
 70
     8
 71
     3
 72
     8
 73
     4
 74
     0
 42
0.000000001
 43
0.00000001
 40
0.0
 40
0.0
 40
0.0
 40
0.0
 40
1.0
 40
1.0
 40
1.0
 40
1.0
 10
153.1373677624978
 20
108.2100083901527
 30
0.0
 10
152.9528906676234
 20
107.9388885301632
 30
0.0
 10
152.7199776150684
 20
107.7084145934115
 30
0.0
 10
152.4574612090205
 20
107.5370494809784
 30
0.0
  0
SPLINE
  5
372
330
1F
100
AcDbEntity
  8
0
  6
Continuous
 62
     7
370
    30
100
AcDbSpline
210
0.0
220
0.0
230
1.0
 70
     8
 71
     3
 72
    17
 73
    13
 74
     0
 42
0.000000001
 43
0.00000001
 40
0.0
 40
0.0
 40
0.0
 40
0.0
 40
0.0660153043473818
 40
0.1252764809871643
 40
0.2504828023848121
 40
0.3754212648303413
 40
0.5003973773284208
 40
0.6253744394676453
 40
0.7503026366483142
 40
0.8750019084334795
 40
0.9341362018350342
 40
1.0
 40
1.0
 40
1.0
 40
1.0
 10
152.1180805601246
 20
110.4332744782385
 30
0.0
 10
152.1080889651363
 20
110.3848565314089
 30
0.0
 10
152.0891280306689
 20
110.2929743526415
 30
0.0
 10
152.0451695295244
 20
110.1093598053229
 30
0.0
 10
151.9828395106626
 20
109.8830896705992
 30
0.0
 10
151.8931015110585
 20
109.6112354503382
 30
0.0
 10
151.7898523046264
 20
109.3434834371899
 30
0.0
 10
151.6734545457568
 20
109.0811908725712
 30
0.0
 10
151.5447720782013
 20
108.8259118451974
 30
0.0
 10
151.4290817951108
 20
108.6222768919537
 30
0.0
 10
151.3305961076906
 20
108.4618975041162
 30
0.0
 10
151.2791437465724
 20
108.3836974154184
 30
0.0
 10
151.2520325492306
 20
108.3424923474535
 30
0.0
  0
SPLINE
  5
373
330
1F
100
AcDbEntity
  8
0
  6
Continuous
 62
     7
370
    30
100
AcDbSpline
210
0.0
220
0.0
230
1.0
 70
     8
 71
     3
 72
    11
 73
     7
 74
     0
 42
0.000000001
 43
0.00000001
 40
0.0
 40
0.0
 40
0.0
 40
0.0
 40
0.287852028474771
 40
0.5751820191397686
 40
0.8009177228629997
 40
1.0
 40
1.0
 40
1.0
 40
1.0
 10
153.5399636461009
 20
110.1504411376168
 30
0.0
 10
153.5552398679537
 20
110.0635413613266
 30
0.0
 10
153.5857646072674
 20
109.8898994069715
 30
0.0
 10
153.5928720581176
 20
109.6393465019594
 30
0.0
 10
153.5808010189121
 20
109.4151242186755
 30
0.0
 10
153.558895280103
 20
109.2818216299383
 30
0.0
 10
153.5486296026577
 20
109.2193520921369
 30
0.0
  0
SPLINE
  5
374
330
1F
100
AcDbEntity
  8
0
  6
Continuous
 62
     7
370
    30
100
AcDbSpline
210
0.0
220
0.0
230
1.0
 70
     8
 71
     3
 72
     8
 73
     4
 74
     0
 42
0.000000001
 43
0.00000001
 40
0.0
 40
0.0
 40
0.0
 40
0.0
 40
1.0
 40
1.0
 40
1.0
 40
1.0
 10
149.7842985390403
 20
118.2726584776438
 30
0.0
 10
150.0554183990297
 20
118.0881813827694
 30
0.0
 10
150.2858923357813
 20
117.8552683302145
 30
0.0
 10
150.4572574482145
 20
117.5927519241665
 30
0.0
  0
SPLINE
  5
375
330
1F
100
AcDbEntity
  8
0
  6
Continuous
 62
     7
370
    30
100
AcDbSpline
210
0.0
220
0.0
230
1.0
 70
     8
 71
     3
 72
    17
 73
    13
 74
     0
 42
0.000000001
 43
0.00000001
 40
0.0
 40
0.0
 40
0.0
 40
0.0
 40
0.0660153043464401
 40
0.1252764809890551
 40
0.2504828023886288
 40
0.3754212648358105
 40
0.5003973773338639
 40
0.6253744394722751
 40
0.7503026366512702
 40
0.8750019084347815
 40
0.9341362018362425
 40
1.0
 40
1.0
 40
1.0
 40
1.0
 10
147.5610324509544
 20
117.2533712752706
 30
0.0
 10
147.6094503977833
 20
117.2433796802827
 30
0.0
 10
147.7013325765521
 20
117.2244187458154
 30
0.0
 10
147.8849471238735
 20
117.1804602446693
 30
0.0
 10
148.1112172586018
 20
117.1181302258063
 30
0.0
 10
148.3830714788653
 20
117.0283922262008
 30
0.0
 10
148.650823492014
 20
116.9251430197678
 30
0.0
 10
148.9131160566306
 20
116.8087452608985
 30
0.0
 10
149.1683950840015
 20
116.6800627933442
 30
0.0
 10
149.3720300372428
 20
116.5643725102548
 30
0.0
 10
149.5324094250784
 20
116.4658868228358
 30
0.0
 10
149.6106095137753
 20
116.414434461718
 30
0.0
 10
149.6518145817394
 20
116.3873232643766
 30
0.0
  0
SPLINE
  5
376
330
1F
100
AcDbEntity
  8
0
  6
Continuous
 62
     7
370
    30
100
AcDbSpline
210
0.0
220
0.0
230
1.0
 70
     8
 71
     3
 72
    11
 73
     7
 74
     0
 42
0.000000001
 43
0.00000001
 40
0.0
 40
0.0
 40
0.0
 40
0.0
 40
0.287852028474771
 40
0.5751820191397686
 40
0.8009177228629997
 40
1.0
 40
1.0
 40
1.0
 40
1.0
 10
147.8438657915761
 20
118.675254361247
 30
0.0
 10
147.9307655678663
 20
118.6905305830998
 30
0.0
 10
148.1044075222214
 20
118.7210553224134
 30
0.0
 10
148.3549604272335
 20
118.7281627732636
 30
0.0
 10
148.5791827105173
 20
118.7160917340581
 30
0.0
 10
148.7124852992546
 20
118.6941859952491
 30
0.0
 10
148.774954837056
 20
118.6839203178038
 30
0.0
  0
SPLINE
  5
377
330
1F
100
AcDbEntity
  8
0
  6
Continuous
 62
     7
370
    30
100
AcDbSpline
210
0.0
220
0.0
230
1.0
 70
     8
 71
     3
 72
     8
 73
     4
 74
     0
 42
0.000000001
 43
0.00000001
 40
0.0
 40
0.0
 40
0.0
 40
0.0
 40
1.0
 40
1.0
 40
1.0
 40
1.0
 10
151.2035355237703
 20
108.2710680766244
 30
0.0
 10
150.9658852044894
 20
107.9995955831251
 30
0.0
 10
150.6685813559363
 20
107.7859330234422
 30
0.0
 10
150.3427874627787
 20
107.6515196634228
 30
0.0
  0
SPLINE
  5
378
330
1F
100
AcDbEntity
  8
0
  6
Continuous
 62
     7
370
    30
100
AcDbSpline
210
0.0
220
0.0
230
1.0
 70
     8
 71
     3
 72
    14
 73
    10
 74
     0
 42
0.000000001
 43
0.00000001
 40
0.0
 40
0.0
 40
0.0
 40
0.0
 40
0.1343355596328696
 40
0.2509130543384555
 40
0.500563205990157
 40
0.7369757122845064
 40
0.8684922606659841
 40
0.9335942044823375
 40
1.0
 40
1.0
 40
1.0
 40
1.0
 10
150.3428004932409
 20
107.6515316474166
 30
0.0
 10
150.2640839538187
 20
107.7303254902868
 30
0.0
 10
150.1170565592303
 20
107.877497272886
 30
0.0
 10
149.8248756632784
 20
108.1692826830934
 30
0.0
 10
149.4758857640103
 20
108.5185032865626
 30
0.0
 10
149.1228631538201
 20
108.8713423849354
 30
0.0
 10
148.8788292585936
 20
109.1156252024057
 30
0.0
 10
148.7314073378608
 20
109.26264306429
 30
0.0
 10
148.658403135173
 20
109.3358177217999
 30
0.0
 10
148.6215391286882
 20
109.3727678006947
 30
0.0
  0
SPLINE
  5
379
330
1F
100
AcDbEntity
  8
0
  6
Continuous
 62
     7
370
    30
100
AcDbSpline
210
0.0
220
0.0
230
1.0
 70
     8
 71
     3
 72
    10
 73
     6
 74
     0
 42
0.000000001
 43
0.00000001
 40
0.0
 40
0.0
 40
0.0
 40
0.0
 40
0.5
 40
0.5
 40
1.0
 40
1.0
 40
1.0
 40
1.0
 10
149.4238784422878
 20
110.7624597171477
 30
0.0
 10
149.3546292326087
 20
110.5040258397025
 30
0.0
 10
149.250147105019
 20
110.2502231039073
 30
0.0
 10
148.9778519584911
 20
109.7787257105419
 30
0.0
 10
148.810019424525
 20
109.5612442253264
 30
0.0
 10
148.6215428669927
 20
109.3727642524639
 30
0.0
  0
SPLINE
  5
37A
330
1F
100
AcDbEntity
  8
0
  6
Continuous
 62
     7
370
    30
100
AcDbSpline
210
0.0
220
0.0
230
1.0
 70
    24
 71
     3
 72
    10
 73
     6
 74
     0
 42
0.000000001
 43
0.00000001
 40
0.0
 40
0.0
 40
0.0
 40
0.0
 40
0.5
 40
0.5
 40
1.0
 40
1.0
 40
1.0
 40
1.0
 10
149.4238781687729
 20
110.7624597822838
 30
0.0
 10
149.8030949938782
 20
110.6608489402412
 30
0.0
 10
150.1902150633353
 20
110.5571204302556
 30
0.0
 10
150.9760218760616
 20
110.3465641293787
 30
0.0
 10
151.3737122320405
 20
110.2400033196565
 30
0.0
 10
151.7751482495238
 20
110.1324388629591
 30
0.0
  0
SPLINE
  5
37B
330
1F
100
AcDbEntity
  8
0
  6
Continuous
 62
     7
370
    30
100
AcDbSpline
210
0.0
220
0.0
230
1.0
 70
     8
 71
     3
 72
     8
 73
     4
 74
     0
 42
0.000000001
 43
0.00000001
 40
0.0
 40
0.0
 40
0.0
 40
0.0
 40
1.0
 40
1.0
 40
1.0
 40
1.0
 10
151.7751471369495
 20
110.1324391034612
 30
0.0
 10
151.8215885431781
 20
109.7834607387491
 30
0.0
 10
151.7850285915286
 20
109.4181227882604
 30
0.0
 10
151.6689763142647
 20
109.0772351736758
 30
0.0
  0
SPLINE
  5
37C
330
1F
100
AcDbEntity
  8
0
  6
Continuous
 62
     7
370
    30
100
AcDbSpline
210
0.0
220
0.0
230
1.0
 70
     8
 71
     3
 72
     8
 73
     4
 74
     0
 42
0.000000001
 43
0.00000001
 40
0.0
 40
0.0
 40
0.0
 40
0.0
 40
1.0
 40
1.0
 40
1.0
 40
1.0
 10
143.1357773614783
 20
106.7907714054226
 30
0.0
 10
142.8643048679751
 20
107.028421724707
 30
0.0
 10
142.6506423082899
 20
107.3257255732654
 30
0.0
 10
142.5162289482709
 20
107.6515194664285
 30
0.0
  0
SPLINE
  5
37D
330
1F
100
AcDbEntity
  8
0
  6
Continuous
 62
     7
370
    30
100
AcDbSpline
210
0.0
220
0.0
230
1.0
 70
    24
 71
     3
 72
    10
 73
     6
 74
     0
 42
0.000000001
 43
0.00000001
 40
0.0
 40
0.0
 40
0.0
 40
0.0
 40
0.5
 40
0.5
 40
1.0
 40
1.0
 40
1.0
 40
1.0
 10
144.2374770851596
 20
109.3727678003057
 30
0.0
 10
143.9598711020973
 20
109.0951618172425
 30
0.0
 10
143.6764795426249
 20
108.8117702577709
 30
0.0
 10
143.1012290307753
 20
108.2365197459214
 30
0.0
 10
142.810099484519
 20
107.9453901996651
 30
0.0
 10
142.5162279237335
 20
107.6515186388795
 30
0.0
  0
SPLINE
  5
37E
330
1F
100
AcDbEntity
  8
0
  6
Continuous
 62
     7
370
    30
100
AcDbSpline
210
0.0
220
0.0
230
1.0
 70
     8
 71
     3
 72
    10
 73
     6
 74
     0
 42
0.000000001
 43
0.00000001
 40
0.0
 40
0.0
 40
0.0
 40
0.0
 40
0.5
 40
0.5
 40
1.0
 40
1.0
 40
1.0
 40
1.0
 10
145.6271690019967
 20
108.5704284869038
 30
0.0
 10
145.3687351326987
 20
108.6396776940858
 30
0.0
 10
145.1149323850246
 20
108.7441598251228
 30
0.0
 10
144.643434978415
 20
109.0164549817176
 30
0.0
 10
144.4259535617834
 20
109.1842874520322
 30
0.0
 10
144.2374735381694
 20
109.3727640629287
 30
0.0
  0
SPLINE
  5
37F
330
1F
100
AcDbEntity
  8
0
  6
Continuous
 62
     7
370
    30
100
AcDbSpline
210
0.0
220
0.0
230
1.0
 70
    24
 71
     3
 72
    10
 73
     6
 74
     0
 42
0.000000001
 43
0.00000001
 40
0.0
 40
0.0
 40
0.0
 40
0.0
 40
0.4999999999999998
 40
0.4999999999999998
 40
1.0
 40
1.0
 40
1.0
 40
1.0
 10
145.6271690671377
 20
108.57042876042
 30
0.0
 10
145.5255582250951
 20
108.1912119353149
 30
0.0
 10
145.4218297151096
 20
107.8040918658578
 30
0.0
 10
145.2112734142325
 20
107.0182850531309
 30
0.0
 10
145.1047126045104
 20
106.6205946971523
 30
0.0
 10
144.997148147813
 20
106.2191586796691
 30
0.0
  0
SPLINE
  5
380
330
1F
100
AcDbEntity
  8
0
  6
Continuous
 62
     7
370
    30
100
AcDbSpline
210
0.0
220
0.0
230
1.0
 70
     8
 71
     3
 72
     8
 73
     4
 74
     0
 42
0.000000001
 43
0.00000001
 40
0.0
 40
0.0
 40
0.0
 40
0.0
 40
1.0
 40
1.0
 40
1.0
 40
1.0
 10
144.9971483883151
 20
106.2191597922434
 30
0.0
 10
144.6481700236034
 20
106.1727183860149
 30
0.0
 10
144.2828320731143
 20
106.2092783376643
 30
0.0
 10
143.9419444585297
 20
106.3253306149281
 30
0.0
  0
SPLINE
  5
381
330
1F
100
AcDbEntity
  8
0
  6
Continuous
 62
     7
370
    30
100
AcDbSpline
210
0.0
220
0.0
230
1.0
 70
     8
 71
     3
 72
     8
 73
     4
 74
     0
 42
0.000000001
 43
0.00000001
 40
0.0
 40
0.0
 40
0.0
 40
0.0
 40
1.0
 40
1.0
 40
1.0
 40
1.0
 10
141.6554806902765
 20
114.8585295677146
 30
0.0
 10
141.8931310095519
 20
115.1300020612076
 30
0.0
 10
142.1904348580966
 20
115.3436646208869
 30
0.0
 10
142.5162287512455
 20
115.4780779809068
 30
0.0
  0
SPLINE
  5
382
330
1F
100
AcDbEntity
  8
0
  6
Continuous
 62
     7
370
    30
100
AcDbSpline
210
0.0
220
0.0
230
1.0
 70
    24
 71
     3
 72
    10
 73
     6
 74
     0
 42
0.000000001
 43
0.00000001
 40
0.0
 40
0.0
 40
0.0
 40
0.0
 40
0.5
 40
0.5
 40
1.0
 40
1.0
 40
1.0
 40
1.0
 10
144.2374770851596
 20
113.7568298440333
 30
0.0
 10
143.9598711020963
 20
114.0344358270957
 30
0.0
 10
143.6764795426251
 20
114.3178273865678
 30
0.0
 10
143.1012290307755
 20
114.8930778984174
 30
0.0
 10
142.810099484519
 20
115.1842074446739
 30
0.0
 10
142.5162279237334
 20
115.4780790054594
 30
0.0
  0
SPLINE
  5
383
330
1F
100
AcDbEntity
  8
0
  6
Continuous
 62
     7
370
    30
100
AcDbSpline
210
0.0
220
0.0
230
1.0
 70
     8
 71
     3
 72
    10
 73
     6
 74
     0
 42
0.000000001
 43
0.00000001
 40
0.0
 40
0.0
 40
0.0
 40
0.0
 40
0.5
 40
0.5
 40
1.0
 40
1.0
 40
1.0
 40
1.0
 10
143.4351377717592
 20
112.3671379271907
 30
0.0
 10
143.5043869817536
 20
112.6255718056649
 30
0.0
 10
143.6088691089107
 20
112.8793745399669
 30
0.0
 10
143.881164254176
 20
113.35087193167
 30
0.0
 10
144.0489967961639
 20
113.5683534255274
 30
0.0
 10
144.2374733469793
 20
113.7568333919994
 30
0.0
  0
SPLINE
  5
384
330
1F
100
AcDbEntity
  8
0
  6
Continuous
 62
     7
370
    30
100
AcDbSpline
210
0.0
220
0.0
230
1.0
 70
    24
 71
     3
 72
    10
 73
     6
 74
     0
 42
0.000000001
 43
0.00000001
 40
0.0
 40
0.0
 40
0.0
 40
0.0
 40
0.4999999999999998
 40
0.4999999999999998
 40
1.0
 40
1.0
 40
1.0
 40
1.0
 10
143.4351380452739
 20
112.3671378620552
 30
0.0
 10
143.055921220168
 20
112.468748704098
 30
0.0
 10
142.6688011507111
 20
112.5724772140835
 30
0.0
 10
141.8829943379842
 20
112.7830335149605
 30
0.0
 10
141.4853039820061
 20
112.8895943246825
 30
0.0
 10
141.0838679645231
 20
112.9971587813798
 30
0.0
  0
SPLINE
  5
385
330
1F
100
AcDbEntity
  8
0
  6
Continuous
 62
     7
370
    30
100
AcDbSpline
210
0.0
220
0.0
230
1.0
 70
     8
 71
     3
 72
     8
 73
     4
 74
     0
 42
0.000000001
 43
0.00000001
 40
0.0
 40
0.0
 40
0.0
 40
0.0
 40
1.0
 40
1.0
 40
1.0
 40
1.0
 10
141.0838690770973
 20
112.9971585408778
 30
0.0
 10
141.0374276708688
 20
113.3461369055894
 30
0.0
 10
141.0739876225183
 20
113.7114748560787
 30
0.0
 10
141.1900398997821
 20
114.0523624706632
 30
0.0
  0
SPLINE
  5
386
330
1F
100
AcDbEntity
  8
0
  6
Continuous
 62
     7
370
    30
100
AcDbSpline
210
0.0
220
0.0
230
1.0
 70
     8
 71
     3
 72
     8
 73
     4
 74
     0
 42
0.000000001
 43
0.00000001
 40
0.0
 40
0.0
 40
0.0
 40
0.0
 40
1.0
 40
1.0
 40
1.0
 40
1.0
 10
149.7232388525685
 20
116.3388262389164
 30
0.0
 10
149.9947113460615
 20
116.101175919641
 30
0.0
 10
150.2083739057408
 20
115.8038720710963
 30
0.0
 10
150.3427872657607
 20
115.4780781779474
 30
0.0
  0
SPLINE
  5
387
330
1F
100
AcDbEntity
  8
0
  6
Continuous
 62
     7
370
    30
100
AcDbSpline
210
0.0
220
0.0
230
1.0
 70
    24
 71
     3
 72
    10
 73
     6
 74
     0
 42
0.000000001
 43
0.00000001
 40
0.0
 40
0.0
 40
0.0
 40
0.0
 40
0.5
 40
0.5
 40
1.0
 40
1.0
 40
1.0
 40
1.0
 10
148.6215391288872
 20
113.7568298440332
 30
0.0
 10
148.8991451119489
 20
114.0344358270958
 30
0.0
 10
149.1825366714211
 20
114.3178273865672
 30
0.0
 10
149.7577871832708
 20
114.8930778984169
 30
0.0
 10
150.0489167295275
 20
115.1842074446735
 30
0.0
 10
150.3427882903134
 20
115.4780790054595
 30
0.0
  0
SPLINE
  5
388
330
1F
100
AcDbEntity
  8
0
  6
Continuous
 62
     7
370
    30
100
AcDbSpline
210
0.0
220
0.0
230
1.0
 70
     8
 71
     3
 72
    10
 73
     6
 74
     0
 42
0.000000001
 43
0.00000001
 40
0.0
 40
0.0
 40
0.0
 40
0.0
 40
0.5
 40
0.5
 40
1.0
 40
1.0
 40
1.0
 40
1.0
 10
147.2318472120452
 20
114.5591691574338
 30
0.0
 10
147.4902810894934
 20
114.4899199477539
 30
0.0
 10
147.7440838252908
 20
114.385437820163
 30
0.0
 10
148.2155812186626
 20
114.1131426736295
 30
0.0
 10
148.4330627038803
 20
113.9453101396599
 30
0.0
 10
148.6215426767441
 20
113.7568335821237
 30
0.0
  0
SPLINE
  5
389
330
1F
100
AcDbEntity
  8
0
  6
Continuous
 62
     7
370
    30
100
AcDbSpline
210
0.0
220
0.0
230
1.0
 70
    24
 71
     3
 72
    10
 73
     6
 74
     0
 42
0.000000001
 43
0.00000001
 40
0.0
 40
0.0
 40
0.0
 40
0.0
 40
0.4999999999999998
 40
0.4999999999999998
 40
1.0
 40
1.0
 40
1.0
 40
1.0
 10
147.2318471469092
 20
114.559168883919
 30
0.0
 10
147.3334579889521
 20
114.9383857090254
 30
0.0
 10
147.4371864989372
 20
115.3255057784812
 30
0.0
 10
147.6477427998142
 20
116.1113125912076
 30
0.0
 10
147.7543036095364
 20
116.5090029471866
 30
0.0
 10
147.8618680662337
 20
116.9104389646698
 30
0.0
  0
SPLINE
  5
38A
330
1F
100
AcDbEntity
  8
0
  6
Continuous
 62
     7
370
    30
100
AcDbSpline
210
0.0
220
0.0
230
1.0
 70
     8
 71
     3
 72
     8
 73
     4
 74
     0
 42
0.000000001
 43
0.00000001
 40
0.0
 40
0.0
 40
0.0
 40
0.0
 40
1.0
 40
1.0
 40
1.0
 40
1.0
 10
147.8618678256921
 20
116.9104378520903
 30
0.0
 10
148.2108461904158
 20
116.9568792583267
 30
0.0
 10
148.5761841409197
 20
116.920319306679
 30
0.0
 10
148.9170717555171
 20
116.8042670294108
 30
0.0
  0
SPLINE
  5
38B
330
1F
100
AcDbEntity
  8
0
  6
Continuous
 62
     7
370
    30
100
AcDbSpline
210
0.0
220
0.0
230
1.0
 70
     8
 71
     3
 72
     8
 73
     4
 74
     0
 42
0.000000001
 43
0.00000001
 40
0.0
 40
0.0
 40
0.0
 40
0.0
 40
1.0
 40
1.0
 40
1.0
 40
1.0
 10
140.6482137129847
 20
112.0302396126639
 30
0.0
 10
140.7182886799508
 20
112.3841668481086
 30
0.0
 10
140.8689300856026
 20
112.7178559769128
 30
0.0
 10
141.0838691934702
 20
112.9971583078789
 30
0.0
  0
SPLINE
  5
38C
330
1F
100
AcDbEntity
  8
0
  6
Continuous
 62
     7
370
    30
100
AcDbSpline
210
0.0
220
0.0
230
1.0
 70
     8
 71
     3
 72
    10
 73
     6
 74
     0
 42
0.000000001
 43
0.00000001
 40
0.0
 40
0.0
 40
0.0
 40
0.0
 40
0.5
 40
0.5
 40
1.0
 40
1.0
 40
1.0
 40
1.0
 10
143.4351377758325
 20
110.7624597019383
 30
0.0
 10
143.3658924132212
 20
111.0208946040332
 30
0.0
 10
143.32947521999
 20
111.292935292986
 30
0.0
 10
143.329541038996
 20
111.837411598279
 30
0.0
 10
143.3661475198027
 20
112.1096722924555
 30
0.0
 10
143.4351330348
 20
112.3671390652685
 30
0.0
  0
SPLINE
  5
38D
330
1F
100
AcDbEntity
  8
0
  6
Continuous
 62
     7
370
    30
100
AcDbSpline
210
0.0
220
0.0
230
1.0
 70
    24
 71
     3
 72
    10
 73
     6
 74
     0
 42
0.000000001
 43
0.00000001
 40
0.0
 40
0.0
 40
0.0
 40
0.0
 40
0.4999999999999998
 40
0.4999999999999998
 40
1.0
 40
1.0
 40
1.0
 40
1.0
 10
143.4351380452739
 20
110.7624597822838
 30
0.0
 10
143.0559212201671
 20
110.6608489402395
 30
0.0
 10
142.6688011507102
 20
110.5571204302552
 30
0.0
 10
141.8829943379839
 20
110.3465641293783
 30
0.0
 10
141.4853039820059
 20
110.2400033196564
 30
0.0
 10
141.0838679645231
 20
110.1324388629591
 30
0.0
  0
SPLINE
  5
38E
330
1F
100
AcDbEntity
  8
0
  6
Continuous
 62
     7
370
    30
100
AcDbSpline
210
0.0
220
0.0
230
1.0
 70
     8
 71
     3
 72
     8
 73
     4
 74
     0
 42
0.000000001
 43
0.00000001
 40
0.0
 40
0.0
 40
0.0
 40
0.0
 40
1.0
 40
1.0
 40
1.0
 40
1.0
 10
141.0838690482917
 20
110.1324392109654
 30
0.0
 10
140.8691604283544
 20
110.4114426370626
 30
0.0
 10
140.7181532999994
 20
110.7461145589773
 30
0.0
 10
140.6482137129847
 20
111.099358031675
 30
0.0
  0
SPLINE
  5
38F
330
1F
100
AcDbEntity
  8
0
  6
Continuous
 62
     7
370
    30
100
AcDbSpline
210
0.0
220
0.0
230
1.0
 70
     8
 71
     3
 72
     8
 73
     4
 74
     0
 42
0.000000001
 43
0.00000001
 40
0.0
 40
0.0
 40
0.0
 40
0.0
 40
1.0
 40
1.0
 40
1.0
 40
1.0
 10
146.8949488975179
 20
117.3460932162082
 30
0.0
 10
147.2488761329492
 20
117.2760182492447
 30
0.0
 10
147.5825652617414
 20
117.1253768436018
 30
0.0
 10
147.8618675927011
 20
116.910437735747
 30
0.0
  0
SPLINE
  5
390
330
1F
100
AcDbEntity
  8
0
  6
Continuous
 62
     7
370
    30
100
AcDbSpline
210
0.0
220
0.0
230
1.0
 70
     8
 71
     3
 72
    10
 73
     6
 74
     0
 42
0.000000001
 43
0.00000001
 40
0.0
 40
0.0
 40
0.0
 40
0.0
 40
0.5
 40
0.5
 40
1.0
 40
1.0
 40
1.0
 40
1.0
 10
145.6271689867898
 20
114.5591691533578
 30
0.0
 10
145.8856038946989
 20
114.6284145173073
 30
0.0
 10
146.157644575246
 20
114.6648317084708
 30
0.0
 10
146.7021208689904
 20
114.6647658909312
 30
0.0
 10
146.9743816270258
 20
114.6281593955408
 30
0.0
 10
147.2318483503981
 20
114.5591738951288
 30
0.0
  0
SPLINE
  5
391
330
1F
100
AcDbEntity
  8
0
  6
Continuous
 62
     7
370
    30
100
AcDbSpline
210
0.0
220
0.0
230
1.0
 70
    24
 71
     3
 72
    10
 73
     6
 74
     0
 42
0.000000001
 43
0.00000001
 40
0.0
 40
0.0
 40
0.0
 40
0.0
 40
0.5000000000000002
 40
0.5000000000000002
 40
1.0
 40
1.0
 40
1.0
 40
1.0
 10
145.6271690671377
 20
114.559168883919
 30
0.0
 10
145.5255582250937
 20
114.9383857090248
 30
0.0
 10
145.4218297151091
 20
115.325505778483
 30
0.0
 10
145.2112734142322
 20
116.1113125912095
 30
0.0
 10
145.1047126045103
 20
116.5090029471872
 30
0.0
 10
144.997148147813
 20
116.9104389646698
 30
0.0
  0
SPLINE
  5
392
330
1F
100
AcDbEntity
  8
0
  6
Continuous
 62
     7
370
    30
100
AcDbSpline
210
0.0
220
0.0
230
1.0
 70
     8
 71
     3
 72
     8
 73
     4
 74
     0
 42
0.000000001
 43
0.00000001
 40
0.0
 40
0.0
 40
0.0
 40
0.0
 40
1.0
 40
1.0
 40
1.0
 40
1.0
 10
144.9971484957876
 20
116.9104378808768
 30
0.0
 10
145.2761519218911
 20
117.1251465008268
 30
0.0
 10
145.6108238438178
 20
117.2761536291908
 30
0.0
 10
145.9640673165289
 20
117.3460932162082
 30
0.0
  0
SPLINE
  5
393
330
1F
100
AcDbEntity
  8
0
  6
Continuous
 62
     7
370
    30
100
AcDbSpline
210
0.0
220
0.0
230
1.0
 70
     8
 71
     3
 72
     8
 73
     4
 74
     0
 42
0.000000001
 43
0.00000001
 40
0.0
 40
0.0
 40
0.0
 40
0.0
 40
1.0
 40
1.0
 40
1.0
 40
1.0
 10
145.964067316529
 20
105.7835044281307
 30
0.0
 10
145.6101400810843
 20
105.8535793950968
 30
0.0
 10
145.2764509522801
 20
106.0042208007487
 30
0.0
 10
144.997148621314
 20
106.2191599086163
 30
0.0
  0
SPLINE
  5
394
330
1F
100
AcDbEntity
  8
0
  6
Continuous
 62
     7
370
    30
100
AcDbSpline
210
0.0
220
0.0
230
1.0
 70
     8
 71
     3
 72
    10
 73
     6
 74
     0
 42
0.000000001
 43
0.00000001
 40
0.0
 40
0.0
 40
0.0
 40
0.0
 40
0.5
 40
0.5
 40
1.0
 40
1.0
 40
1.0
 40
1.0
 10
147.231847227257
 20
108.5704284909811
 30
0.0
 10
146.9734123193479
 20
108.5011831270317
 30
0.0
 10
146.7013716388005
 20
108.4647659358682
 30
0.0
 10
146.1568953450571
 20
108.4648317534077
 30
0.0
 10
145.884634587021
 20
108.5014382487981
 30
0.0
 10
145.6271678636487
 20
108.5704237492102
 30
0.0
  0
SPLINE
  5
395
330
1F
100
AcDbEntity
  8
0
  6
Continuous
 62
     7
370
    30
100
AcDbSpline
210
0.0
220
0.0
230
1.0
 70
    24
 71
     3
 72
    10
 73
     6
 74
     0
 42
0.000000001
 43
0.00000001
 40
0.0
 40
0.0
 40
0.0
 40
0.0
 40
0.5000000000000002
 40
0.5000000000000002
 40
1.0
 40
1.0
 40
1.0
 40
1.0
 10
147.2318471469091
 20
108.57042876042
 30
0.0
 10
147.3334579889532
 20
108.1912119353141
 30
0.0
 10
147.4371864989376
 20
107.8040918658562
 30
0.0
 10
147.6477427998146
 20
107.0182850531299
 30
0.0
 10
147.7543036095365
 20
106.6205946971519
 30
0.0
 10
147.8618680662338
 20
106.2191586796691
 30
0.0
  0
SPLINE
  5
396
330
1F
100
AcDbEntity
  8
0
  6
Continuous
 62
     7
370
    30
100
AcDbSpline
210
0.0
220
0.0
230
1.0
 70
     8
 71
     3
 72
     8
 73
     4
 74
     0
 42
0.000000001
 43
0.00000001
 40
0.0
 40
0.0
 40
0.0
 40
0.0
 40
1.0
 40
1.0
 40
1.0
 40
1.0
 10
147.8618677182275
 20
106.2191597634378
 30
0.0
 10
147.5828642921302
 20
106.0044511435005
 30
0.0
 10
147.2481923702154
 20
105.8534440151455
 30
0.0
 10
146.8949488975178
 20
105.7835044281307
 30
0.0
  0
SPLINE
  5
397
330
1F
100
AcDbEntity
  8
0
  6
Continuous
 62
     7
370
    30
100
AcDbSpline
210
0.0
220
0.0
230
1.0
 70
     8
 71
     3
 72
     8
 73
     4
 74
     0
 42
0.000000001
 43
0.00000001
 40
0.0
 40
0.0
 40
0.0
 40
0.0
 40
1.0
 40
1.0
 40
1.0
 40
1.0
 10
152.2108025010621
 20
111.099358031675
 30
0.0
 10
152.140727534096
 20
110.7454307962303
 30
0.0
 10
151.9900861284441
 20
110.4117416674261
 30
0.0
 10
151.7751470205766
 20
110.1324393364601
 30
0.0
  0
SPLINE
  5
398
330
1F
100
AcDbEntity
  8
0
  6
Continuous
 62
     7
370
    30
100
AcDbSpline
210
0.0
220
0.0
230
1.0
 70
     8
 71
     3
 72
    10
 73
     6
 74
     0
 42
0.000000001
 43
0.00000001
 40
0.0
 40
0.0
 40
0.0
 40
0.0
 40
0.5
 40
0.5
 40
1.0
 40
1.0
 40
1.0
 40
1.0
 10
149.4238784382117
 20
112.3671379424031
 30
0.0
 10
149.4931238021611
 20
112.1087030344944
 30
0.0
 10
149.5295409933246
 20
111.8366623539484
 30
0.0
 10
149.5294751757853
 20
111.292186060203
 30
0.0
 10
149.4928686803948
 20
111.0199253021674
 30
0.0
 10
149.4238831799827
 20
110.7624585787948
 30
0.0
  0
SPLINE
  5
399
330
1F
100
AcDbEntity
  8
0
  6
Continuous
 62
     7
370
    30
100
AcDbSpline
210
0.0
220
0.0
230
1.0
 70
    24
 71
     3
 72
    10
 73
     6
 74
     0
 42
0.000000001
 43
0.00000001
 40
0.0
 40
0.0
 40
0.0
 40
0.0
 40
0.5
 40
0.5
 40
1.0
 40
1.0
 40
1.0
 40
1.0
 10
149.4238781687729
 20
112.3671378620552
 30
0.0
 10
149.8030949938785
 20
112.4687487040991
 30
0.0
 10
150.1902150633364
 20
112.5724772140836
 30
0.0
 10
150.9760218760625
 20
112.7830335149605
 30
0.0
 10
151.3737122320408
 20
112.8895943246825
 30
0.0
 10
151.7751482495237
 20
112.9971587813799
 30
0.0
  0
SPLINE
  5
39A
330
1F
100
AcDbEntity
  8
0
  6
Continuous
 62
     7
370
    30
100
AcDbSpline
210
0.0
220
0.0
230
1.0
 70
     8
 71
     3
 72
     8
 73
     4
 74
     0
 42
0.000000001
 43
0.00000001
 40
0.0
 40
0.0
 40
0.0
 40
0.0
 40
1.0
 40
1.0
 40
1.0
 40
1.0
 10
151.7751471657308
 20
112.9971584334053
 30
0.0
 10
151.9898557856808
 20
112.7181550073017
 30
0.0
 10
152.1408629140447
 20
112.383483085375
 30
0.0
 10
152.2108025010621
 20
112.0302396126639
 30
0.0
  0
SPLINE
  5
39B
330
1F
100
AcDbEntity
  8
0
  6
Continuous
 62
     7
370
    30
100
AcDbSpline
210
0.0
220
0.0
230
1.0
 70
     8
 71
     3
 72
     8
 73
     4
 74
     0
 42
0.000000001
 43
0.00000001
 40
0.0
 40
0.0
 40
0.0
 40
0.0
 40
1.0
 40
1.0
 40
1.0
 40
1.0
 10
148.9170717555171
 20
106.3253306149281
 30
0.0
 10
148.5755242950477
 20
106.2090536987678
 30
0.0
 10
148.2112203297106
 20
106.172668418522
 30
0.0
 10
147.861867861824
 20
106.2191599807191
 30
0.0
  0
SPLINE
  5
39C
330
1F
100
AcDbEntity
  8
0
  6
Continuous
 62
     7
370
    30
100
AcDbSpline
210
0.0
220
0.0
230
1.0
 70
     8
 71
     3
 72
    10
 73
     6
 74
     0
 42
0.000000001
 43
0.00000001
 40
0.0
 40
0.0
 40
0.0
 40
0.0
 40
0.5
 40
0.5
 40
1.0
 40
1.0
 40
1.0
 40
1.0
 10
148.6215393331735
 20
109.3727676071182
 30
0.0
 10
148.4323508265462
 20
109.1835819152914
 30
0.0
 10
148.2149652720869
 20
109.0160233529091
 30
0.0
 10
147.7434020442954
 20
108.7438421986177
 30
0.0
 10
147.4893141621731
 20
108.6394140049169
 30
0.0
 10
147.2318486100588
 20
108.57042382006
 30
0.0
  0
SPLINE
  5
39D
330
1F
100
AcDbEntity
  8
0
  6
Continuous
 62
     7
370
    30
100
AcDbSpline
210
0.0
220
0.0
230
1.0
 70
     8
 71
     3
 72
     8
 73
     4
 74
     0
 42
0.000000001
 43
0.00000001
 40
0.0
 40
0.0
 40
0.0
 40
0.0
 40
1.0
 40
1.0
 40
1.0
 40
1.0
 10
150.3427874470562
 20
107.6515194034702
 30
0.0
 10
150.2085177022823
 20
107.3260745711358
 30
0.0
 10
149.9941868801445
 20
107.0279626008619
 30
0.0
 10
149.7232388525685
 20
106.7907714054226
 30
0.0
  0
SPLINE
  5
39E
330
1F
100
AcDbEntity
  8
0
  6
Continuous
 62
     7
370
    30
100
AcDbSpline
210
0.0
220
0.0
230
1.0
 70
     8
 71
     3
 72
     8
 73
     4
 74
     0
 42
0.000000001
 43
0.00000001
 40
0.0
 40
0.0
 40
0.0
 40
0.0
 40
1.0
 40
1.0
 40
1.0
 40
1.0
 10
141.1900398997821
 20
109.0772351736759
 30
0.0
 10
141.0737629836217
 20
109.4187826341452
 30
0.0
 10
141.037377703376
 20
109.7830865994823
 30
0.0
 10
141.083869265573
 20
110.1324390673688
 30
0.0
  0
SPLINE
  5
39F
330
1F
100
AcDbEntity
  8
0
  6
Continuous
 62
     7
370
    30
100
AcDbSpline
210
0.0
220
0.0
230
1.0
 70
     8
 71
     3
 72
    10
 73
     6
 74
     0
 42
0.000000001
 43
0.00000001
 40
0.0
 40
0.0
 40
0.0
 40
0.0
 40
0.5
 40
0.5
 40
1.0
 40
1.0
 40
1.0
 40
1.0
 10
144.2374768919842
 20
109.3727675960051
 30
0.0
 10
144.0482912038236
 20
109.5619560986929
 30
0.0
 10
143.8807326360336
 20
109.7793416587852
 30
0.0
 10
143.6085514776795
 20
110.2509048962499
 30
0.0
 10
143.5041233013712
 20
110.5049927219523
 30
0.0
 10
143.4351331056126
 20
110.7624583192506
 30
0.0
  0
SPLINE
  5
3A0
330
1F
100
AcDbEntity
  8
0
  6
Continuous
 62
     7
370
    30
100
AcDbSpline
210
0.0
220
0.0
230
1.0
 70
     8
 71
     3
 72
     8
 73
     4
 74
     0
 42
0.000000001
 43
0.00000001
 40
0.0
 40
0.0
 40
0.0
 40
0.0
 40
1.0
 40
1.0
 40
1.0
 40
1.0
 10
142.5162286883015
 20
107.651519482146
 30
0.0
 10
142.1907838559756
 20
107.7857892269206
 30
0.0
 10
141.8926718857104
 20
108.0001200490545
 30
0.0
 10
141.6554806902765
 20
108.2710680766244
 30
0.0
  0
SPLINE
  5
3A1
330
1F
100
AcDbEntity
  8
0
  6
Continuous
 62
     7
370
    30
100
AcDbSpline
210
0.0
220
0.0
230
1.0
 70
     8
 71
     3
 72
     8
 73
     4
 74
     0
 42
0.000000001
 43
0.00000001
 40
0.0
 40
0.0
 40
0.0
 40
0.0
 40
1.0
 40
1.0
 40
1.0
 40
1.0
 10
151.6689763142648
 20
114.0523624706631
 30
0.0
 10
151.7852532304207
 20
113.7108150102067
 30
0.0
 10
151.8216385106682
 20
113.3465110448845
 30
0.0
 10
151.775146948479
 20
112.9971585770097
 30
0.0
  0
SPLINE
  5
3A2
330
1F
100
AcDbEntity
  8
0
  6
Continuous
 62
     7
370
    30
100
AcDbSpline
210
0.0
220
0.0
230
1.0
 70
     8
 71
     3
 72
    10
 73
     6
 74
     0
 42
0.000000001
 43
0.00000001
 40
0.0
 40
0.0
 40
0.0
 40
0.0
 40
0.5
 40
0.5
 40
1.0
 40
1.0
 40
1.0
 40
1.0
 10
148.6215393220595
 20
113.7568300483346
 30
0.0
 10
148.8107250138899
 20
113.5676415417065
 30
0.0
 10
148.9782835762755
 20
113.3502559872452
 30
0.0
 10
149.250464730572
 20
112.878692759449
 30
0.0
 10
149.354892924275
 20
112.6246048773227
 30
0.0
 10
149.4238831091328
 20
112.3671393252048
 30
0.0
  0
SPLINE
  5
3A3
330
1F
100
AcDbEntity
  8
0
  6
Continuous
 62
     7
370
    30
100
AcDbSpline
210
0.0
220
0.0
230
1.0
 70
     8
 71
     3
 72
     8
 73
     4
 74
     0
 42
0.000000001
 43
0.00000001
 40
0.0
 40
0.0
 40
0.0
 40
0.0
 40
1.0
 40
1.0
 40
1.0
 40
1.0
 10
150.3427875257084
 20
115.4780781622081
 30
0.0
 10
150.6682323580485
 20
115.3438084174345
 30
0.0
 10
150.9663443283276
 20
115.1294775952945
 30
0.0
 10
151.2035355237703
 20
114.8585295677146
 30
0.0
  0
SPLINE
  5
3A4
330
1F
100
AcDbEntity
  8
0
  6
Continuous
 62
     7
370
    30
100
AcDbSpline
210
0.0
220
0.0
230
1.0
 70
     8
 71
     3
 72
     8
 73
     4
 74
     0
 42
0.000000001
 43
0.00000001
 40
0.0
 40
0.0
 40
0.0
 40
0.0
 40
1.0
 40
1.0
 40
1.0
 40
1.0
 10
143.9419444585297
 20
116.8042670294108
 30
0.0
 10
144.2834919189862
 20
116.9205439455668
 30
0.0
 10
144.6477958843084
 20
116.9569292258143
 30
0.0
 10
144.9971483521832
 20
116.9104376636251
 30
0.0
  0
SPLINE
  5
3A5
330
1F
100
AcDbEntity
  8
0
  6
Continuous
 62
     7
370
    30
100
AcDbSpline
210
0.0
220
0.0
230
1.0
 70
     8
 71
     3
 72
    10
 73
     6
 74
     0
 42
0.000000001
 43
0.00000001
 40
0.0
 40
0.0
 40
0.0
 40
0.0
 40
0.5
 40
0.5
 40
1.0
 40
1.0
 40
1.0
 40
1.0
 10
144.2374768808569
 20
113.7568300372002
 30
0.0
 10
144.426665394356
 20
113.9460157354292
 30
0.0
 10
144.6440509389899
 20
114.1135742883842
 30
0.0
 10
145.1156141499021
 20
114.3857554355961
 30
0.0
 10
145.3697021305092
 20
114.4901836596619
 30
0.0
 10
145.6271676037849
 20
114.5591738254984
 30
0.0
  0
SPLINE
  5
3A6
330
1F
100
AcDbEntity
  8
0
  6
Continuous
 62
     7
370
    30
100
AcDbSpline
210
0.0
220
0.0
230
1.0
 70
     8
 71
     3
 72
     8
 73
     4
 74
     0
 42
0.000000001
 43
0.00000001
 40
0.0
 40
0.0
 40
0.0
 40
0.0
 40
1.0
 40
1.0
 40
1.0
 40
1.0
 10
142.5162287669847
 20
115.4780782408545
 30
0.0
 10
142.6504985117583
 20
115.8035230731946
 30
0.0
 10
142.8648293338983
 20
116.1016350434736
 30
0.0
 10
143.1357773614783
 20
116.3388262389164
 30
0.0
  0
SPLINE
  5
3A7
330
1F
100
AcDbEntity
  8
0
  6
Continuous
 62
     7
370
    30
100
AcDbSpline
210
0.0
220
0.0
230
1.0
 70
     8
 71
     3
 72
     8
 73
     4
 74
     0
 42
0.000000001
 43
0.00000001
 40
0.0
 40
0.0
 40
0.0
 40
0.0
 40
1.0
 40
1.0
 40
1.0
 40
1.0
 10
146.5369508125103
 20
108.4666613066551
 30
0.0
 10
146.5004660360331
 20
108.4871799768956
 30
0.0
 10
146.4646386341756
 20
108.5087319126105
 30
0.0
 10
146.4295081722677
 20
108.5312831849098
 30
0.0
  0
SPLINE
  5
3A8
330
1F
100
AcDbEntity
  8
0
  6
Continuous
 62
     7
370
    30
100
AcDbSpline
210
0.0
220
0.0
230
1.0
 70
    24
 71
     3
 72
    10
 73
     6
 74
     0
 42
0.000000001
 43
0.00000001
 40
0.0
 40
0.0
 40
0.0
 40
0.0
 40
0.4999999999999999
 40
0.4999999999999999
 40
1.0
 40
1.0
 40
1.0
 40
1.0
 10
146.4295081070421
 20
111.5647987820798
 30
0.0
 10
146.4295081069973
 20
111.0676518899878
 30
0.0
 10
146.4295081070225
 20
110.5628989071121
 30
0.0
 10
146.4295081070239
 20
109.5488754941611
 30
0.0
 10
146.4295081070234
 20
109.0392694417809
 30
0.0
 10
146.4295081070234
 20
108.5312830875203
 30
0.0
  0
SPLINE
  5
3A9
330
1F
100
AcDbEntity
  8
0
  6
Continuous
 62
     7
370
    30
100
AcDbSpline
210
0.0
220
0.0
230
1.0
 70
     8
 71
     3
 72
    16
 73
    12
 74
     0
 42
0.000000001
 43
0.00000001
 40
0.0
 40
0.0
 40
0.0
 40
0.0
 40
0.1200234588634894
 40
0.2252177513656918
 40
0.4188946450392815
 40
0.5157622223708681
 40
0.6125861090021506
 40
0.7094473354204016
 40
0.8063063594854575
 40
0.8988444271598166
 40
1.0
 40
1.0
 40
1.0
 40
1.0
 10
149.4630237809296
 20
111.5648060443093
 30
0.0
 10
149.3409834621423
 20
111.5648969285428
 30
0.0
 10
149.1119811784765
 20
111.5650674680598
 30
0.0
 10
148.6857787072982
 20
111.5646630394989
 30
0.0
 10
148.2832156678997
 20
111.5648196329436
 30
0.0
 10
147.8900937817719
 20
111.5647955482379
 30
0.0
 10
147.5958652927425
 20
111.5647971363745
 30
0.0
 10
147.302491991962
 20
111.5648088475461
 30
0.0
 10
147.0145000156463
 20
111.5647611408627
 30
0.0
 10
146.7232799850099
 20
111.5649379813124
 30
0.0
 10
146.5302940755926
 20
111.5648466376667
 30
0.0
 10
146.4295081119165
 20
111.5647989338868
 30
0.0
  0
SPLINE
  5
3AA
330
1F
100
AcDbEntity
  8
0
  6
Continuous
 62
     7
370
    30
100
AcDbSpline
210
0.0
220
0.0
230
1.0
 70
     8
 71
     3
 72
     8
 73
     4
 74
     0
 42
0.000000001
 43
0.00000001
 40
0.0
 40
0.0
 40
0.0
 40
0.0
 40
1.0
 40
1.0
 40
1.0
 40
1.0
 10
149.4630238136612
 20
111.5647987999778
 30
0.0
 10
149.4855835306489
 20
111.5296550522137
 30
0.0
 10
149.507134752307
 20
111.4938270237614
 30
0.0
 10
149.5276456225378
 20
111.4573561166826
 30
0.0
  0
SPLINE
  5
3AB
330
1F
100
AcDbEntity
  8
0
  6
Continuous
 62
     7
370
    30
100
AcDbSpline
210
0.0
220
0.0
230
1.0
 70
     8
 71
     3
 72
     8
 73
     4
 74
     0
 42
0.000000001
 43
0.00000001
 40
0.0
 40
0.0
 40
0.0
 40
0.0
 40
1.0
 40
1.0
 40
1.0
 40
1.0
 10
146.3220654015365
 20
114.6629363376839
 30
0.0
 10
146.358550178008
 20
114.6424176674466
 30
0.0
 10
146.3943775798598
 20
114.6208657317353
 30
0.0
 10
146.4295080417624
 20
114.5983144594399
 30
0.0
  0
SPLINE
  5
3AC
330
1F
100
AcDbEntity
  8
0
  6
Continuous
 62
     7
370
    30
100
AcDbSpline
210
0.0
220
0.0
230
1.0
 70
    24
 71
     3
 72
    10
 73
     6
 74
     0
 42
0.000000001
 43
0.00000001
 40
0.0
 40
0.0
 40
0.0
 40
0.0
 40
0.5
 40
0.5
 40
1.0
 40
1.0
 40
1.0
 40
1.0
 10
146.4295081070047
 20
111.5647988622592
 30
0.0
 10
146.4295081070495
 20
112.0619457543523
 30
0.0
 10
146.4295081070244
 20
112.5666987372281
 30
0.0
 10
146.4295081070229
 20
113.5807221501791
 30
0.0
 10
146.4295081070234
 20
114.0903282025584
 30
0.0
 10
146.4295081070234
 20
114.5983145568187
 30
0.0
  0
SPLINE
  5
3AD
330
1F
100
AcDbEntity
  8
0
  6
Continuous
 62
     7
370
    30
100
AcDbSpline
210
0.0
220
0.0
230
1.0
 70
     8
 71
     3
 72
    16
 73
    12
 74
     0
 42
0.000000001
 43
0.00000001
 40
0.0
 40
0.0
 40
0.0
 40
0.0
 40
0.1200234588636009
 40
0.225217751365691
 40
0.4188946450394521
 40
0.5157622223707973
 40
0.6125861090020958
 40
0.7094473354204545
 40
0.8063063594855144
 40
0.89884442715911
 40
1.0
 40
1.0
 40
1.0
 40
1.0
 10
143.3959924331172
 20
111.5647916000297
 30
0.0
 10
143.5180327519046
 20
111.5647007157962
 30
0.0
 10
143.7470350355705
 20
111.5645301762792
 30
0.0
 10
144.1732375067488
 20
111.56493460484
 30
0.0
 10
144.5758005461472
 20
111.5647780113954
 30
0.0
 10
144.968922432275
 20
111.5648020961011
 30
0.0
 10
145.2631509213042
 20
111.5648005079644
 30
0.0
 10
145.5565242220848
 20
111.5647887967929
 30
0.0
 10
145.8445161983999
 20
111.564836503476
 30
0.0
 10
146.1357362290363
 20
111.5646596630273
 30
0.0
 10
146.3287221384535
 20
111.5647510066725
 30
0.0
 10
146.4295081021303
 20
111.5647987104522
 30
0.0
  0
SPLINE
  5
3AE
330
1F
100
AcDbEntity
  8
0
  6
Continuous
 62
     7
370
    30
100
AcDbSpline
210
0.0
220
0.0
230
1.0
 70
     8
 71
     3
 72
     8
 73
     4
 74
     0
 42
0.000000001
 43
0.00000001
 40
0.0
 40
0.0
 40
0.0
 40
0.0
 40
1.0
 40
1.0
 40
1.0
 40
1.0
 10
143.3959924003857
 20
111.5647988443612
 30
0.0
 10
143.3734326833979
 20
111.5999425921253
 30
0.0
 10
143.3518814617398
 20
111.6357706205775
 30
0.0
 10
143.331370591509
 20
111.6722415276564
 30
0.0
  0
SPLINE
  5
3AF
330
1F
100
AcDbEntity
  8
0
  6
Continuous
 62
     7
370
    30
100
AcDbSpline
210
0.0
220
0.0
230
1.0
 70
     8
 71
     3
 72
     8
 73
     4
 74
     0
 42
0.000000001
 43
0.00000001
 40
0.0
 40
0.0
 40
0.0
 40
0.0
 40
1.0
 40
1.0
 40
1.0
 40
1.0
 10
143.331370591509
 20
111.4573561166826
 30
0.0
 10
143.3518892614825
 20
111.493840892685
 30
0.0
 10
143.3734411969034
 20
111.5296682940847
 30
0.0
 10
143.3959924688832
 20
111.5647987555535
 30
0.0
  0
SPLINE
  5
3B0
330
1F
100
AcDbEntity
  8
0
  6
Continuous
 62
     7
370
    30
100
AcDbSpline
210
0.0
220
0.0
230
1.0
 70
     8
 71
     3
 72
     8
 73
     4
 74
     0
 42
0.000000001
 43
0.00000001
 40
0.0
 40
0.0
 40
0.0
 40
0.0
 40
1.0
 40
1.0
 40
1.0
 40
1.0
 10
146.4295080862034
 20
108.5312831164123
 30
0.0
 10
146.3943643379999
 20
108.5087233991048
 30
0.0
 10
146.3585363090898
 20
108.4871721771528
 30
0.0
 10
146.3220654015365
 20
108.4666613066551
 30
0.0
  0
SPLINE
  5
3B1
330
1F
100
AcDbEntity
  8
0
  6
Continuous
 62
     7
370
    30
100
AcDbSpline
210
0.0
220
0.0
230
1.0
 70
     8
 71
     3
 72
     8
 73
     4
 74
     0
 42
0.000000001
 43
0.00000001
 40
0.0
 40
0.0
 40
0.0
 40
0.0
 40
1.0
 40
1.0
 40
1.0
 40
1.0
 10
149.5276456225378
 20
111.6722415276563
 30
0.0
 10
149.5071269525643
 20
111.635756751654
 30
0.0
 10
149.4855750171434
 20
111.5999293502543
 30
0.0
 10
149.4630237451637
 20
111.5647988887855
 30
0.0
  0
SPLINE
  5
3B2
330
1F
100
AcDbEntity
  8
0
  6
Continuous
 62
     7
370
    30
100
AcDbSpline
210
0.0
220
0.0
230
1.0
 70
     8
 71
     3
 72
     8
 73
     4
 74
     0
 42
0.000000001
 43
0.00000001
 40
0.0
 40
0.0
 40
0.0
 40
0.0
 40
1.0
 40
1.0
 40
1.0
 40
1.0
 10
146.429508127837
 20
114.5983145279225
 30
0.0
 10
146.4646518760426
 20
114.6208742452315
 30
0.0
 10
146.5004799049548
 20
114.6424254671849
 30
0.0
 10
146.5369508125103
 20
114.6629363376839
 30
0.0
  0
HATCH
  5
3B3
330
1F
100
AcDbEntity
  8
0
  6
Continuous
 62
     7
370
     0
100
AcDbHatch
 10
0.0
 20
0.0
 30
0.0
210
0.0
220
0.0
230
1.0
  2
ANSI31
 70
     0
 71
     0
 91
        2
 92
        0
 93
        1
 72
     2
 10
146.4295081070234
 20
111.5647988221695
 40
9.554580053565934
 50
0.0
 51
360.0
 73
     1
 97
        0
 92
        0
 93
       12
 72
     1
 10
145.9932687304398
 20
120.546135852367
 11
145.9932687304398
 21
120.4835289846171
 72
     3
 10
146.1932991960485
 20
120.4835899111946
 11
0.1414644378339162
 21
0.1414644378339162
 40
0.9996954598818876
 50
135.0174515198601
 51
224.9825484801406
 73
     1
 72
     1
 10
146.193238269471
 20
120.2835594455858
 11
146.6657779445758
 21
120.2835594455858
 72
     3
 10
146.6657170179983
 20
120.4835899111946
 11
-0.1414644378339162
 21
0.1414644378339162
 40
0.9996954598818876
 50
135.017451519852
 51
224.9825484801406
 73
     1
 72
     1
 10
146.8657474836071
 20
120.4835289846171
 11
146.8657474836071
 21
120.546135852367
 72
     2
 10
146.4295081070234
 20
111.5647988221695
 40
8.991925246779966
 50
272.7807716023837
 51
447.2192283976179
 73
     0
 72
     1
 10
146.8657474836071
 20
102.583461791972
 11
146.8657474836071
 21
102.6460686597219
 72
     3
 10
146.6657170179983
 20
102.6460077331444
 11
-0.1414644378339162
 21
-0.1414644378339162
 40
0.9996954598818876
 50
135.0174515198601
 51
224.9825484801488
 73
     1
 72
     1
 10
146.6657779445758
 20
102.8460381987531
 11
146.193238269471
 21
102.8460381987531
 72
     3
 10
146.1932991960485
 20
102.6460077331444
 11
0.1414644378339162
 21
-0.1414644378339162
 40
0.9996954598818876
 50
135.0174515198601
 51
224.9825484801406
 73
     1
 72
     1
 10
145.9932687304398
 20
102.6460686597219
 11
145.9932687304398
 21
102.583461791972
 72
     2
 10
146.4295081070234
 20
111.5647988221695
 40
8.991925246779966
 50
92.78077160238266
 51
267.2192283976182
 73
     0
 97
        0
 75
     0
 76
     1
 52
0.0
 41
1.0
 77
     0
 78
     1
 53
45.0
 43
0.0
 44
0.0
 45
-2.245064030267288
 46
2.245064030267288
 79
     0
 98
        1
 10
0.0
 20
0.0
  0
INSERT
  5
3BA
330
1F
100
AcDbEntity
  8
0
  6
Continuous
 62
     7
370
     0
100
AcDbBlockReference
  2
SW_NOTE_4
 10
133.1440919286
 20
93.3972194161
 30
0.0
  0
LINE
  5
3BB
330
1F
100
AcDbEntity
  8
0
  6
Continuous
 62
     7
370
    30
100
AcDbLine
 10
62.0794247276
 20
184.2105176526
 30
0.0
 11
62.0068067125
 21
187.4105175717
 31
0.0
  0
LINE
  5
3BC
330
1F
100
AcDbEntity
  8
0
  6
Continuous
 62
     7
370
    30
100
AcDbLine
 10
41.5520423464
 20
187.4105175717
 30
0.0
 11
41.4794243313
 21
184.2105176526
 31
0.0
  0
LINE
  5
3BD
330
1F
100
AcDbEntity
  8
0
  6
Continuous
 62
     7
370
    30
100
AcDbLine
 10
61.5144248492
 20
187.4105175717
 30
0.0
 11
61.4418068341
 21
190.6105174909
 31
0.0
  0
LINE
  5
3BE
330
1F
100
AcDbEntity
  8
0
  6
Continuous
 62
     7
370
    30
100
AcDbLine
 10
42.1170422248
 20
190.6105174909
 30
0.0
 11
42.0444242097
 21
187.4105175717
 31
0.0
  0
ARC
  5
3BF
330
1F
100
AcDbEntity
  8
0
  6
Continuous
 62
     7
370
    30
100
AcDbCircle
 10
51.7794245295
 20
184.2105176526
 30
0.0
 40
11.50000000000001
100
AcDbArc
 50
91.2341523435
 51
146.1844075183
  0
ARC
  5
3C0
330
1F
100
AcDbEntity
  8
0
  6
Continuous
 62
     7
370
    30
100
AcDbCircle
 10
51.7794245295
 20
184.2105176526
 30
0.0
 40
11.50000000000001
100
AcDbArc
 50
33.8155924817
 51
88.8232487101
  0
LINE
  5
3C1
330
1F
100
AcDbEntity
  8
0
  6
Continuous
 62
     7
370
    30
100
AcDbLine
 10
53.3504757238
 20
174.9105176183
 30
0.0
 11
53.3504757238
 21
170.2905178296
 31
0.0
  0
LINE
  5
3C2
330
1F
100
AcDbEntity
  8
0
  6
Continuous
 62
     7
370
    30
100
AcDbLine
 10
53.8004757743
 20
170.2905178296
 30
0.0
 11
53.8004757743
 21
174.9105176183
 31
0.0
  0
LINE
  5
3C3
330
1F
100
AcDbEntity
  8
0
  6
Continuous
 62
     7
370
    30
100
AcDbLine
 10
49.7583732846
 20
174.9105176183
 30
0.0
 11
49.7583732846
 21
170.2905178296
 31
0.0
  0
LINE
  5
3C4
330
1F
100
AcDbEntity
  8
0
  6
Continuous
 62
     7
370
    30
100
AcDbLine
 10
50.2083733351
 20
170.2905178296
 30
0.0
 11
50.2083733351
 21
174.9105176183
 31
0.0
  0
LINE
  5
3C5
330
1F
100
AcDbEntity
  8
0
  6
Continuous
 62
     7
370
    30
100
AcDbLine
 10
57.294424381
 20
174.9105176183
 30
0.0
 11
56.7851222492
 21
182.2105175576
 31
0.0
  0
LINE
  5
3C6
330
1F
100
AcDbEntity
  8
0
  6
Continuous
 62
     7
370
    30
100
AcDbLine
 10
46.7737268097
 20
182.2105175576
 30
0.0
 11
46.2644246779
 21
174.9105176183
 31
0.0
  0
LINE
  5
3C7
330
1F
100
AcDbEntity
  8
0
  6
Continuous
 62
     7
370
    30
100
AcDbLine
 10
62.0068067125
 20
187.4105175717
 30
0.0
 11
41.5520423464
 21
187.4105175717
 31
0.0
  0
LINE
  5
3C8
330
1F
100
AcDbEntity
  8
0
  6
Continuous
 62
     7
370
    30
100
AcDbLine
 10
61.7330705188
 20
184.2105176526
 30
0.0
 11
41.8257785402
 21
184.2105176526
 31
0.0
  0
LINE
  5
3C9
330
1F
100
AcDbEntity
  8
0
  6
Continuous
 62
     7
370
    30
100
AcDbLine
 10
61.4418068341
 20
190.6105174909
 30
0.0
 11
42.1170422248
 21
190.6105174909
 31
0.0
  0
SPLINE
  5
3CA
330
1F
100
AcDbEntity
  8
0
  6
Continuous
 62
     7
370
    30
100
AcDbSpline
210
0.0
220
0.0
230
1.0
 70
     8
 71
     3
 72
    17
 73
    13
 74
     0
 42
0.000000001
 43
0.00000001
 40
0.0
 40
0.0
 40
0.0
 40
0.0
 40
0.0720560068002758
 40
0.1794749771235841
 40
0.2868939611174348
 40
0.3943129637906638
 40
0.50173197716616
 40
0.6091509986985169
 40
0.7165700139590937
 40
0.8239890344353793
 40
0.931408027410328
 40
1.0
 40
1.0
 40
1.0
 40
1.0
 10
51.53179138659638
 20
195.7077861058017
 30
0.0
 10
51.5317999046135
 20
195.7077862116271
 30
0.0
 10
51.53182112103938
 20
195.7077864752139
 30
0.0
 10
51.56339489520056
 20
195.7078022201655
 30
0.0
 10
51.61863677956999
 20
195.7078293904615
 30
0.0
 10
51.69241283236054
 20
195.7078650737153
 30
0.0
 10
51.77509470753998
 20
195.7079075119481
 30
0.0
 10
51.85761724163167
 20
195.7079479449187
 30
0.0
 10
51.9309609500838
 20
195.7079840560164
 30
0.0
 10
51.98546305536458
 20
195.7080115202061
 30
0.0
 10
52.01607610872957
 20
195.7080256647993
 30
0.0
 10
52.0156713879215
 20
195.7080261844979
 30
0.0
 10
52.01551366707449
 20
195.708026387026
 30
0.0
  0
LINE
  5
3CB
330
1F
100
AcDbEntity
  8
0
  6
Continuous
 62
     7
370
    30
100
AcDbLine
 10
62.1294246427
 20
182.1605176425
 30
0.0
 11
62.1285519935
 21
182.2105175576
 31
0.0
  0
LINE
  5
3CC
330
1F
100
AcDbEntity
  8
0
  6
Continuous
 62
     7
370
    30
100
AcDbLine
 10
62.4044246412
 20
182.1845769642
 30
0.0
 11
62.1294246427
 21
182.1605176425
 31
0.0
  0
LINE
  5
3CD
330
1F
100
AcDbEntity
  8
0
  6
Continuous
 62
     7
370
    30
100
AcDbLine
 10
62.4544245563
 20
182.1845769642
 30
0.0
 11
62.4044246412
 21
182.1845769642
 31
0.0
  0
LINE
  5
3CE
330
1F
100
AcDbEntity
  8
0
  6
Continuous
 62
     7
370
    30
100
AcDbLine
 10
62.4544245563
 20
181.8605176865
 30
0.0
 11
62.4544245563
 21
182.1845769642
 31
0.0
  0
LINE
  5
3CF
330
1F
100
AcDbEntity
  8
0
  6
Continuous
 62
     7
370
    30
100
AcDbLine
 10
61.8044247291
 20
181.2105176265
 30
0.0
 11
62.4544245563
 21
181.8605176865
 31
0.0
  0
LINE
  5
3D0
330
1F
100
AcDbEntity
  8
0
  6
Continuous
 62
     7
370
    30
100
AcDbLine
 10
61.3794249854
 20
181.2105176265
 30
0.0
 11
61.8044247291
 21
181.2105176265
 31
0.0
  0
LINE
  5
3D1
330
1F
100
AcDbEntity
  8
0
  6
Continuous
 62
     7
370
    30
100
AcDbLine
 10
61.3794249854
 20
181.2105176265
 30
0.0
 11
61.3627580366
 21
182.2105175576
 31
0.0
  0
LINE
  5
3D2
330
1F
100
AcDbEntity
  8
0
  6
Continuous
 62
     7
370
    30
100
AcDbLine
 10
41.1044245026
 20
181.8605176865
 30
0.0
 11
41.7544243298
 21
181.2105176265
 31
0.0
  0
LINE
  5
3D3
330
1F
100
AcDbEntity
  8
0
  6
Continuous
 62
     7
370
    30
100
AcDbLine
 10
41.1044245026
 20
181.8605176865
 30
0.0
 11
41.1044245026
 21
182.1845769642
 31
0.0
  0
LINE
  5
3D4
330
1F
100
AcDbEntity
  8
0
  6
Continuous
 62
     7
370
    30
100
AcDbLine
 10
41.1044245026
 20
182.1845769642
 30
0.0
 11
41.1544244177
 21
182.1845769642
 31
0.0
  0
LINE
  5
3D5
330
1F
100
AcDbEntity
  8
0
  6
Continuous
 62
     7
370
    30
100
AcDbLine
 10
41.1544244177
 20
182.1845769642
 30
0.0
 11
41.4294244162
 21
182.1605176425
 31
0.0
  0
LINE
  5
3D6
330
1F
100
AcDbEntity
  8
0
  6
Continuous
 62
     7
370
    30
100
AcDbLine
 10
41.4302970655
 20
182.2105175576
 30
0.0
 11
41.4294244162
 21
182.1605176425
 31
0.0
  0
LINE
  5
3D7
330
1F
100
AcDbEntity
  8
0
  6
Continuous
 62
     7
370
    30
100
AcDbLine
 10
42.1794240735
 20
181.2105176265
 30
0.0
 11
41.7544243298
 21
181.2105176265
 31
0.0
  0
LINE
  5
3D8
330
1F
100
AcDbEntity
  8
0
  6
Continuous
 62
     7
370
    30
100
AcDbLine
 10
42.1794240735
 20
181.2105176265
 30
0.0
 11
42.1960910223
 21
182.2105175576
 31
0.0
  0
LINE
  5
3D9
330
1F
100
AcDbEntity
  8
0
  6
Continuous
 62
     7
370
    30
100
AcDbLine
 10
51.6294245223
 20
175.7905177998
 30
0.0
 11
51.6294245223
 21
176.5105176943
 31
0.0
  0
LINE
  5
3DA
330
1F
100
AcDbEntity
  8
0
  6
Continuous
 62
     7
370
    30
100
AcDbLine
 10
51.9294245366
 20
175.7905177998
 30
0.0
 11
51.9294245366
 21
176.5105176943
 31
0.0
  0
LINE
  5
3DB
330
1F
100
AcDbEntity
  8
0
  6
Continuous
 62
     7
370
    30
100
AcDbLine
 10
51.9294245366
 20
175.7905177998
 30
0.0
 11
51.6294245223
 21
175.7905177998
 31
0.0
  0
LINE
  5
3DC
330
1F
100
AcDbEntity
  8
0
  6
Continuous
 62
     7
370
    30
100
AcDbLine
 10
51.6294245223
 20
176.5105176943
 30
0.0
 11
51.9294245366
 21
176.5105176943
 31
0.0
  0
LINE
  5
3DD
330
1F
100
AcDbEntity
  8
0
  6
Continuous
 62
     7
370
    30
100
AcDbLine
 10
52.1794245194
 20
175.7905177998
 30
0.0
 11
52.1794245194
 21
176.5105176943
 31
0.0
  0
LINE
  5
3DE
330
1F
100
AcDbEntity
  8
0
  6
Continuous
 62
     7
370
    30
100
AcDbLine
 10
52.1794245194
 20
175.7905177998
 30
0.0
 11
51.9294245366
 21
175.7905177998
 31
0.0
  0
LINE
  5
3DF
330
1F
100
AcDbEntity
  8
0
  6
Continuous
 62
     7
370
    30
100
AcDbLine
 10
51.9294245366
 20
176.5105176943
 30
0.0
 11
52.1794245194
 21
176.5105176943
 31
0.0
  0
LINE
  5
3E0
330
1F
100
AcDbEntity
  8
0
  6
Continuous
 62
     7
370
    30
100
AcDbLine
 10
51.3794245396
 20
175.7905177998
 30
0.0
 11
51.3794245396
 21
176.5105176943
 31
0.0
  0
LINE
  5
3E1
330
1F
100
AcDbEntity
  8
0
  6
Continuous
 62
     7
370
    30
100
AcDbLine
 10
51.6294245223
 20
175.7905177998
 30
0.0
 11
51.3794245396
 21
175.7905177998
 31
0.0
  0
LINE
  5
3E2
330
1F
100
AcDbEntity
  8
0
  6
Continuous
 62
     7
370
    30
100
AcDbLine
 10
51.3794245396
 20
176.5105176943
 30
0.0
 11
51.6294245223
 21
176.5105176943
 31
0.0
  0
LINE
  5
3E3
330
1F
100
AcDbEntity
  8
0
  6
Continuous
 62
     7
370
    30
100
AcDbLine
 10
52.2764751128
 20
175.7905177998
 30
0.0
 11
52.1794245194
 21
175.7905177998
 31
0.0
  0
LINE
  5
3E4
330
1F
100
AcDbEntity
  8
0
  6
Continuous
 62
     7
370
    30
100
AcDbLine
 10
52.1794245194
 20
176.5105176943
 30
0.0
 11
52.239371105
 21
176.5105176943
 31
0.0
  0
LINE
  5
3E5
330
1F
100
AcDbEntity
  8
0
  6
Continuous
 62
     7
370
    30
100
AcDbLine
 10
51.3794245396
 20
175.7905177998
 30
0.0
 11
51.2818999029
 21
175.7905177998
 31
0.0
  0
LINE
  5
3E6
330
1F
100
AcDbEntity
  8
0
  6
Continuous
 62
     7
370
    30
100
AcDbLine
 10
51.3187817321
 20
176.5105176943
 30
0.0
 11
51.3794245396
 21
176.5105176943
 31
0.0
  0
LINE
  5
3E7
330
1F
100
AcDbEntity
  8
0
  6
Continuous
 62
     7
370
    30
100
AcDbLine
 10
53.7345746904
 20
170.2905178296
 30
0.0
 11
53.8004757743
 21
170.2905178296
 31
0.0
  0
LINE
  5
3E8
330
1F
100
AcDbEntity
  8
0
  6
Continuous
 62
     7
370
    30
100
AcDbLine
 10
53.3504757238
 20
170.2905178296
 30
0.0
 11
53.7345746904
 21
170.2905178296
 31
0.0
  0
LINE
  5
3E9
330
1F
100
AcDbEntity
  8
0
  6
Continuous
 62
     7
370
    30
100
AcDbLine
 10
50.1424723677
 20
170.2905178296
 30
0.0
 11
50.2083733351
 21
170.2905178296
 31
0.0
  0
LINE
  5
3EA
330
1F
100
AcDbEntity
  8
0
  6
Continuous
 62
     7
370
    30
100
AcDbLine
 10
49.7583732846
 20
170.2905178296
 30
0.0
 11
50.1424723677
 21
170.2905178296
 31
0.0
  0
LINE
  5
3EB
330
1F
100
AcDbEntity
  8
0
  6
Continuous
 62
     7
370
    30
100
AcDbLine
 10
51.3794245396
 20
176.7605177353
 30
0.0
 11
51.3794245396
 21
176.5105176943
 31
0.0
  0
LINE
  5
3EC
330
1F
100
AcDbEntity
  8
0
  6
Continuous
 62
     7
370
    30
100
AcDbLine
 10
51.6294245223
 20
176.7605177353
 30
0.0
 11
51.6294245223
 21
176.5105176943
 31
0.0
  0
LINE
  5
3ED
330
1F
100
AcDbEntity
  8
0
  6
Continuous
 62
     7
370
    30
100
AcDbLine
 10
51.9294245366
 20
176.7605177353
 30
0.0
 11
51.9294245366
 21
176.5105176943
 31
0.0
  0
LINE
  5
3EE
330
1F
100
AcDbEntity
  8
0
  6
Continuous
 62
     7
370
    30
100
AcDbLine
 10
52.1794245194
 20
176.7605177353
 30
0.0
 11
52.1794245194
 21
176.5105176943
 31
0.0
  0
LINE
  5
3EF
330
1F
100
AcDbEntity
  8
0
  6
Continuous
 62
     7
370
    30
100
AcDbLine
 10
52.2400673269
 20
176.5105176943
 30
0.0
 11
52.1794245194
 21
176.5105176943
 31
0.0
  0
LINE
  5
3F0
330
1F
100
AcDbEntity
  8
0
  6
Continuous
 62
     7
370
    30
100
AcDbLine
 10
51.3794245396
 20
176.5105176943
 30
0.0
 11
51.3194779539
 21
176.5105176943
 31
0.0
  0
LINE
  5
3F1
330
1F
100
AcDbEntity
  8
0
  6
Continuous
 62
     7
370
    30
100
AcDbLine
 10
41.8257785402
 20
183.2105176051
 30
0.0
 11
41.8257785402
 21
184.2105176526
 31
0.0
  0
LINE
  5
3F2
330
1F
100
AcDbEntity
  8
0
  6
Continuous
 62
     7
370
    30
100
AcDbLine
 10
61.7330705188
 20
183.2105176051
 30
0.0
 11
61.7330705188
 21
184.2105176526
 31
0.0
  0
LINE
  5
3F3
330
1F
100
AcDbEntity
  8
0
  6
Continuous
 62
     7
370
    30
100
AcDbLine
 10
41.8257785402
 20
183.2105176051
 30
0.0
 11
61.7330705188
 21
183.2105176051
 31
0.0
  0
LINE
  5
3F4
330
1F
100
AcDbEntity
  8
0
  6
Continuous
 62
     7
370
    30
100
AcDbLine
 10
42.7179678715
 20
182.2105175576
 30
0.0
 11
42.7179678715
 21
183.2105176051
 31
0.0
  0
LINE
  5
3F5
330
1F
100
AcDbEntity
  8
0
  6
Continuous
 62
     7
370
    30
100
AcDbLine
 10
60.8408811874
 20
182.2105175576
 30
0.0
 11
60.8408811874
 21
183.2105176051
 31
0.0
  0
LINE
  5
3F6
330
1F
100
AcDbEntity
  8
0
  6
Continuous
 62
     7
370
    30
100
AcDbLine
 10
42.7179678715
 20
182.2105175576
 30
0.0
 11
60.8408811874
 21
182.2105175576
 31
0.0
  0
LINE
  5
3F7
330
1F
100
AcDbEntity
  8
0
  6
Continuous
 62
     7
370
    30
100
AcDbLine
 10
52.2294245217
 20
176.7605177353
 30
0.0
 11
52.3244245466
 21
174.9105176183
 31
0.0
  0
LINE
  5
3F8
330
1F
100
AcDbEntity
  8
0
  6
Continuous
 62
     7
370
    30
100
AcDbLine
 10
51.3294245372
 20
176.7605177353
 30
0.0
 11
52.2294245217
 21
176.7605177353
 31
0.0
  0
LINE
  5
3F9
330
1F
100
AcDbEntity
  8
0
  6
Continuous
 62
     7
370
    30
100
AcDbLine
 10
51.2344245123
 20
174.9105176183
 30
0.0
 11
51.3294245372
 21
176.7605177353
 31
0.0
  0
LINE
  5
3FA
330
1F
100
AcDbEntity
  8
0
  6
Continuous
 62
     7
370
    30
100
AcDbLine
 10
52.3244245466
 20
174.9105176183
 30
0.0
 11
57.294424381
 21
174.9105176183
 31
0.0
  0
LINE
  5
3FB
330
1F
100
AcDbEntity
  8
0
  6
Continuous
 62
     7
370
    30
100
AcDbLine
 10
46.2644246779
 20
174.9105176183
 30
0.0
 11
51.2344245123
 21
174.9105176183
 31
0.0
  0
LINE
  5
3FC
330
1F
100
AcDbEntity
  8
0
  6
Continuous
 62
     7
370
    30
100
AcDbLine
 10
52.3244245466
 20
174.9105176183
 30
0.0
 11
51.2344245123
 21
174.9105176183
 31
0.0
  0
LINE
  5
3FD
330
1F
100
AcDbEntity
  8
0
  6
Continuous
 62
     7
370
    30
100
AcDbLine
 10
61.9263450987
 20
184.2105176526
 30
0.0
 11
61.9263450987
 21
183.2105176051
 31
0.0
  0
LINE
  5
3FE
330
1F
100
AcDbEntity
  8
0
  6
Continuous
 62
     7
370
    30
100
AcDbLine
 10
61.9263450987
 20
183.2105176051
 30
0.0
 11
61.7330705188
 21
183.2105176051
 31
0.0
  0
LINE
  5
3FF
330
1F
100
AcDbEntity
  8
0
  6
Continuous
 62
     7
370
    30
100
AcDbLine
 10
61.7330705188
 20
184.2105176526
 30
0.0
 11
61.9263450987
 21
184.2105176526
 31
0.0
  0
LINE
  5
400
330
1F
100
AcDbEntity
  8
0
  6
Continuous
 62
     7
370
    30
100
AcDbLine
 10
41.6325039602
 20
184.2105176526
 30
0.0
 11
41.6325039602
 21
183.2105176051
 31
0.0
  0
LINE
  5
401
330
1F
100
AcDbEntity
  8
0
  6
Continuous
 62
     7
370
    30
100
AcDbLine
 10
41.6325039602
 20
183.2105176051
 30
0.0
 11
41.8257785402
 21
183.2105176051
 31
0.0
  0
LINE
  5
402
330
1F
100
AcDbEntity
  8
0
  6
Continuous
 62
     7
370
    30
100
AcDbLine
 10
41.8257785402
 20
184.2105176526
 30
0.0
 11
41.6325039602
 21
184.2105176526
 31
0.0
  0
LINE
  5
403
330
1F
100
AcDbEntity
  8
0
  6
Continuous
 62
     7
370
    30
100
AcDbLine
 10
62.2794243879
 20
182.2236410568
 30
0.0
 11
62.2794243879
 21
184.2105176526
 31
0.0
  0
LINE
  5
404
330
1F
100
AcDbEntity
  8
0
  6
Continuous
 62
     7
370
    30
100
AcDbLine
 10
62.2794243879
 20
182.2236410568
 30
0.0
 11
62.1294246427
 21
182.2105175576
 31
0.0
  0
LINE
  5
405
330
1F
100
AcDbEntity
  8
0
  6
Continuous
 62
     7
370
    30
100
AcDbLine
 10
60.8408811874
 20
182.2105175576
 30
0.0
 11
62.1294246427
 21
182.2105175576
 31
0.0
  0
LINE
  5
406
330
1F
100
AcDbEntity
  8
0
  6
Continuous
 62
     7
370
    30
100
AcDbLine
 10
61.9263450987
 20
184.2105176526
 30
0.0
 11
62.2794243879
 21
184.2105176526
 31
0.0
  0
LINE
  5
407
330
1F
100
AcDbEntity
  8
0
  6
Continuous
 62
     7
370
    30
100
AcDbLine
 10
62.7794244699
 20
184.2105176526
 30
0.0
 11
62.7794244699
 21
182.2673852781
 31
0.0
  0
LWPOLYLINE
  5
408
330
1F
100
AcDbEntity
  8
0
  6
Continuous
 62
     7
370
    30
100
AcDbPolyline
 90
       10
 70
   128
 43
0.0
 10
62.7794244699
 20
182.2673852781
 10
62.7718286029
 20
182.2667206631
 10
62.7492710389
 20
182.2647471905
 10
62.712437231
 20
182.261524698
 10
62.6624466292
 20
182.2571509744
 10
62.6008182205
 20
182.2517593151
 10
62.5294248945
 20
182.2455131675
 10
62.4504347704
 20
182.2386022883
 10
62.3662487976
 20
182.2312371565
 10
62.2794243879
 20
182.2236410568
  0
LINE
  5
409
330
1F
100
AcDbEntity
  8
0
  6
Continuous
 62
     7
370
    30
100
AcDbLine
 10
62.2794243879
 20
184.2105176526
 30
0.0
 11
62.7794244699
 21
184.2105176526
 31
0.0
  0
LINE
  5
40A
330
1F
100
AcDbEntity
  8
0
  6
Continuous
 62
     7
370
    30
100
AcDbLine
 10
41.279424671
 20
182.2236410568
 30
0.0
 11
41.4294244162
 21
182.2105175576
 31
0.0
  0
LINE
  5
40B
330
1F
100
AcDbEntity
  8
0
  6
Continuous
 62
     7
370
    30
100
AcDbLine
 10
41.279424671
 20
184.2105176526
 30
0.0
 11
41.279424671
 21
182.2236410568
 31
0.0
  0
LINE
  5
40C
330
1F
100
AcDbEntity
  8
0
  6
Continuous
 62
     7
370
    30
100
AcDbLine
 10
42.7179678715
 20
182.2105175576
 30
0.0
 11
41.4294244162
 21
182.2105175576
 31
0.0
  0
LINE
  5
40D
330
1F
100
AcDbEntity
  8
0
  6
Continuous
 62
     7
370
    30
100
AcDbLine
 10
41.6325039602
 20
184.2105176526
 30
0.0
 11
41.279424671
 21
184.2105176526
 31
0.0
  0
LINE
  5
40E
330
1F
100
AcDbEntity
  8
0
  6
Continuous
 62
     7
370
    30
100
AcDbLine
 10
40.7794245891
 20
182.2673852781
 30
0.0
 11
40.7794245891
 21
184.2105176526
 31
0.0
  0
LWPOLYLINE
  5
40F
330
1F
100
AcDbEntity
  8
0
  6
Continuous
 62
     7
370
    30
100
AcDbPolyline
 90
       10
 70
   128
 43
0.0
 10
41.279424671
 20
182.2236410568
 10
41.1926002614
 20
182.2312371565
 10
41.1084142885
 20
182.2386022883
 10
41.0294241644
 20
182.2455131675
 10
40.9580308385
 20
182.2517593151
 10
40.8964024297
 20
182.2571509744
 10
40.8464118279
 20
182.261524698
 10
40.8095780201
 20
182.2647471905
 10
40.787020456
 20
182.2667206631
 10
40.7794245891
 20
182.2673852781
  0
LINE
  5
410
330
1F
100
AcDbEntity
  8
0
  6
Continuous
 62
     7
370
    30
100
AcDbLine
 10
40.7794245891
 20
184.2105176526
 30
0.0
 11
41.279424671
 21
184.2105176526
 31
0.0
  0
LINE
  5
411
330
1F
100
AcDbEntity
  8
0
  6
Continuous
 62
     7
370
    40
100
AcDbLine
 10
61.6794245295
 20
188.6105176526
 30
0.0
 11
67.6794245295
 21
188.6105176526
 31
0.0
  0
LINE
  5
412
330
1F
100
AcDbEntity
  8
0
  6
Continuous
 62
     7
370
    40
100
AcDbLine
 10
61.6794245295
 20
190.6105176526
 30
0.0
 11
61.6794245295
 21
188.6105176526
 31
0.0
  0
LINE
  5
413
330
1F
100
AcDbEntity
  8
0
  6
CENTERX2
 62
     7
370
     0
100
AcDbLine
 10
51.7794245295
 20
167.3597499117
 30
0.0
 11
51.7794245295
 21
198.7366481462
 31
0.0
  0
LINE
  5
414
330
1F
100
AcDbEntity
  8
0
  6
Continuous
 62
     7
370
    40
100
AcDbLine
 10
61.6794245295
 20
190.6105176526
 30
0.0
 11
67.6794245295
 21
190.6105176526
 31
0.0
  0
LINE
  5
415
330
1F
100
AcDbEntity
  8
0
  6
Continuous
 62
     7
370
    40
100
AcDbLine
 10
41.8794245295
 20
190.6105176526
 30
0.0
 11
35.8794245295
 21
190.6105176526
 31
0.0
  0
LINE
  5
416
330
1F
100
AcDbEntity
  8
0
  6
Continuous
 62
     7
370
    40
100
AcDbLine
 10
41.8794245295
 20
190.6105176526
 30
0.0
 11
41.8794245295
 21
188.6105176526
 31
0.0
  0
LINE
  5
417
330
1F
100
AcDbEntity
  8
0
  6
Continuous
 62
     7
370
    40
100
AcDbLine
 10
41.8794245295
 20
188.6105176526
 30
0.0
 11
35.8794245295
 21
188.6105176526
 31
0.0
  0
SPLINE
  5
418
330
1F
100
AcDbEntity
  8
0
  6
Continuous
 62
     7
370
    40
100
AcDbSpline
210
0.0
220
0.0
230
1.0
 70
     8
 71
     3
 72
     8
 73
     4
 74
     0
 42
0.000000001
 43
0.00000001
 40
0.0
 40
0.0
 40
0.0
 40
0.0
 40
1.0
 40
1.0
 40
1.0
 40
1.0
 10
35.87942452945884
 20
190.6105176525613
 30
0.0
 10
35.43985269579818
 20
189.9518398896828
 30
0.0
 10
36.30578820998682
 20
189.3095084800368
 30
0.0
 10
35.87942452945884
 20
188.6105176525613
 30
0.0
  0
SPLINE
  5
419
330
1F
100
AcDbEntity
  8
0
  6
Continuous
 62
     7
370
    40
100
AcDbSpline
210
0.0
220
0.0
230
1.0
 70
     8
 71
     3
 72
     8
 73
     4
 74
     0
 42
0.000000001
 43
0.00000001
 40
0.0
 40
0.0
 40
0.0
 40
0.0
 40
1.0
 40
1.0
 40
1.0
 40
1.0
 10
67.67942452945886
 20
190.6105176525613
 30
0.0
 10
68.11899636311952
 20
189.9518398896828
 30
0.0
 10
67.25306084893086
 20
189.3095084800368
 30
0.0
 10
67.67942452945886
 20
188.6105176525613
 30
0.0
  0
HATCH
  5
41A
330
1F
100
AcDbEntity
  8
0
  6
Continuous
 62
     7
100
AcDbHatch
 10
0.0
 20
0.0
 30
0.0
210
0.0
220
0.0
230
1.0
  2
ANSI31
 70
     0
 71
     0
 91
        1
 92
        0
 93
        4
 72
     1
 10
41.87942452945885
 20
190.6105176525613
 11
35.87942452945884
 21
190.6105176525613
 72
     4
 94
        3
 73
     1
 74
     0
 95
        8
 96
        4
 40
0.0
 40
0.0
 40
0.0
 40
0.0
 40
1.0
 40
1.0
 40
1.0
 40
1.0
 10
35.87942452945884
 20
190.6105176525613
 42
1.0
 10
35.43985269579818
 20
189.9518398896828
 42
1.0
 10
36.30578820998682
 20
189.3095084800368
 42
1.0
 10
35.87942452945884
 20
188.6105176525613
 42
1.0
 72
     1
 10
35.87942452945884
 20
188.6105176525613
 11
41.87942452945885
 21
188.6105176525614
 72
     1
 10
41.87942452945885
 20
188.6105176525614
 11
41.87942452945885
 21
190.6105176525613
 97
        0
 75
     0
 76
     1
 52
0.0
 41
0.25
 77
     0
 78
     1
 53
45.0
 43
0.0
 44
0.0
 45
-0.561266007566822
 46
0.5612660075668221
 79
     0
 98
        1
 10
0.0
 20
0.0
  0
HATCH
  5
41B
330
1F
100
AcDbEntity
  8
0
  6
Continuous
 62
     7
100
AcDbHatch
 10
0.0
 20
0.0
 30
0.0
210
0.0
220
0.0
230
1.0
  2
ANSI31
 70
     0
 71
     0
 91
        1
 92
        0
 93
        4
 72
     4
 94
        3
 73
     1
 74
     0
 95
        8
 96
        4
 40
0.0
 40
0.0
 40
0.0
 40
0.0
 40
1.0
 40
1.0
 40
1.0
 40
1.0
 10
67.67942452945886
 20
188.6105176525613
 42
1.0
 10
67.25306084893086
 20
189.3095084800368
 42
1.0
 10
68.11899636311952
 20
189.9518398896828
 42
1.0
 10
67.67942452945886
 20
190.6105176525613
 42
1.0
 72
     1
 10
67.67942452945886
 20
190.6105176525613
 11
61.67942452945885
 21
190.6105176525613
 72
     1
 10
61.67942452945885
 20
190.6105176525613
 11
61.67942452945885
 21
188.6105176525614
 72
     1
 10
61.67942452945885
 20
188.6105176525614
 11
67.67942452945886
 21
188.6105176525613
 97
        0
 75
     0
 76
     1
 52
0.0
 41
0.25
 77
     0
 78
     1
 53
45.0
 43
0.0
 44
0.0
 45
-0.561266007566822
 46
0.5612660075668221
 79
     0
 98
        1
 10
0.0
 20
0.0
  0
DIMENSION
  5
41C
330
1F
100
AcDbEntity
  8
0
  6
Continuous
 62
     7
370
     0
100
AcDbDimension
  2
_D_17
 10
61.6794245295
 20
200.1402432574
 30
0.0
 11
30.7794245295
 21
200.1402432574
 31
0.0
 70
   160
  1
%%c<>
 71
     2
 42
-1.0
  3
SLDDIMSTYLE13
100
AcDbAlignedDimension
 13
41.8794245295
 23
190.6105176526
 33
0.0
 14
61.6794245295
 24
190.6105176526
 34
0.0
100
AcDbRotatedDimension
  0
DIMENSION
  5
42E
330
1F
100
AcDbEntity
  8
0
  6
Continuous
 62
     7
370
     0
100
AcDbDimension
  2
_D_18
 10
72.7794245295
 20
174.9105176526
 30
0.0
 11
72.7794245295
 21
183.2982578024
 31
0.0
 70
   160
  1
<>
 71
     2
 42
-1.0
  3
SLDDIMSTYLE6
100
AcDbAlignedDimension
 13
61.4418063708
 23
190.6105176526
 33
0.0
 14
57.2944245295
 24
174.9105176526
 34
0.0
 50
90.0
100
AcDbRotatedDimension
  0
MTEXT
  5
438
330
1F
100
AcDbEntity
  8
0
  6
Continuous
 62
     7
370
     0
100
AcDbMText
 10
73.1988845198
 20
178.4133768768
 30
0.0
 40
2.38125
 41
0.0
 71
     1
 72
     1
  1
(0.618)
  7
SLDTEXTSTYLE0
 11
-3.269436733918102E-15
 21
1.0
 31
0.0
 73
     1
 44
1.0
  0
MTEXT
  5
439
330
1F
100
AcDbEntity
  8
0
  6
Continuous
 62
     7
370
     0
100
AcDbMText
 10
23.6334697678
 20
199.2914504746
 30
0.0
 40
2.38125
 41
0.0
 71
     1
 72
     1
  1
(0.783 dia.)
  7
SLDTEXTSTYLE0
 73
     1
 44
1.0
  0
MTEXT
  5
43A
330
1F
100
AcDbEntity
  8
0
  6
Continuous
 62
     7
370
     0
100
AcDbMText
 10
66.4350342114
 20
201.6204190679
 30
0.0
 40
3.5
 41
0.0
 71
     1
 72
     1
  1
Note2
  7
SLDTEXTSTYLE0
 73
     1
 44
1.0
  0
LEADER
  5
43B
330
1F
100
AcDbEntity
  8
0
  6
Continuous
 62
     7
370
     0
100
AcDbLeader
  3
SLDDIMSTYLE12
 76
     3
 10
61.6794245295
 20
190.6105176526
 30
0.0
 10
65.8471241171
 20
197.0736629667
 30
0.0
 10
76.5388496468
 20
197.0736629667
 30
0.0
  0
LINE
  5
43C
330
1F
100
AcDbEntity
  8
0
  6
Continuous
 62
     7
370
    30
100
AcDbLine
 10
62.0613863113
 20
253.4599218692
 30
0.0
 11
61.9887682962
 21
256.6599217884
 31
0.0
  0
LINE
  5
43D
330
1F
100
AcDbEntity
  8
0
  6
Continuous
 62
     7
370
    30
100
AcDbLine
 10
41.53400393
 20
256.6599217884
 30
0.0
 11
41.4613859149
 21
253.4599218692
 31
0.0
  0
LINE
  5
43E
330
1F
100
AcDbEntity
  8
0
  6
Continuous
 62
     7
370
    30
100
AcDbLine
 10
61.4963864329
 20
256.6599217884
 30
0.0
 11
61.4237684178
 21
259.8599217075
 31
0.0
  0
LINE
  5
43F
330
1F
100
AcDbEntity
  8
0
  6
Continuous
 62
     7
370
    30
100
AcDbLine
 10
42.0990038084
 20
259.8599217075
 30
0.0
 11
42.0263857933
 21
256.6599217884
 31
0.0
  0
ARC
  5
440
330
1F
100
AcDbEntity
  8
0
  6
Continuous
 62
     7
370
    30
100
AcDbCircle
 10
51.7613861131
 20
253.4599218692
 30
0.0
 40
11.50000000000004
100
AcDbArc
 50
91.2341523435
 51
146.1844075183
  0
ARC
  5
441
330
1F
100
AcDbEntity
  8
0
  6
Continuous
 62
     7
370
    30
100
AcDbCircle
 10
51.7613861131
 20
253.4599218692
 30
0.0
 40
11.50000000000003
100
AcDbArc
 50
33.8155924817
 51
88.8232487101
  0
LINE
  5
442
330
1F
100
AcDbEntity
  8
0
  6
Continuous
 62
     7
370
    30
100
AcDbLine
 10
53.3324373074
 20
244.1599218349
 30
0.0
 11
53.3324373074
 21
239.5399220462
 31
0.0
  0
LINE
  5
443
330
1F
100
AcDbEntity
  8
0
  6
Continuous
 62
     7
370
    30
100
AcDbLine
 10
53.7824373579
 20
239.5399220462
 30
0.0
 11
53.7824373579
 21
244.1599218349
 31
0.0
  0
LINE
  5
444
330
1F
100
AcDbEntity
  8
0
  6
Continuous
 62
     7
370
    30
100
AcDbLine
 10
49.7403348683
 20
244.1599218349
 30
0.0
 11
49.7403348683
 21
239.5399220462
 31
0.0
  0
LINE
  5
445
330
1F
100
AcDbEntity
  8
0
  6
Continuous
 62
     7
370
    30
100
AcDbLine
 10
50.1903349188
 20
239.5399220462
 30
0.0
 11
50.1903349188
 21
244.1599218349
 31
0.0
  0
LINE
  5
446
330
1F
100
AcDbEntity
  8
0
  6
Continuous
 62
     7
370
    30
100
AcDbLine
 10
57.2763859647
 20
244.1599218349
 30
0.0
 11
56.7670838329
 21
251.4599217742
 31
0.0
  0
LINE
  5
447
330
1F
100
AcDbEntity
  8
0
  6
Continuous
 62
     7
370
    30
100
AcDbLine
 10
46.7556883933
 20
251.4599217742
 30
0.0
 11
46.2463862615
 21
244.1599218349
 31
0.0
  0
LINE
  5
448
330
1F
100
AcDbEntity
  8
0
  6
Continuous
 62
     7
370
    30
100
AcDbLine
 10
61.9887682962
 20
256.6599217884
 30
0.0
 11
41.53400393
 21
256.6599217884
 31
0.0
  0
LINE
  5
449
330
1F
100
AcDbEntity
  8
0
  6
Continuous
 62
     7
370
    30
100
AcDbLine
 10
61.7150321024
 20
253.4599218692
 30
0.0
 11
41.8077401238
 21
253.4599218692
 31
0.0
  0
LINE
  5
44A
330
1F
100
AcDbEntity
  8
0
  6
Continuous
 62
     7
370
    30
100
AcDbLine
 10
61.4237684178
 20
259.8599217075
 30
0.0
 11
42.0990038084
 21
259.8599217075
 31
0.0
  0
SPLINE
  5
44B
330
1F
100
AcDbEntity
  8
0
  6
Continuous
 62
     7
370
    30
100
AcDbSpline
210
0.0
220
0.0
230
1.0
 70
     8
 71
     3
 72
    17
 73
    13
 74
     0
 42
0.000000001
 43
0.00000001
 40
0.0
 40
0.0
 40
0.0
 40
0.0
 40
0.0720560068002758
 40
0.1794749771235841
 40
0.2868939611174348
 40
0.3943129637906638
 40
0.50173197716616
 40
0.6091509986985169
 40
0.7165700139590937
 40
0.8239890344353793
 40
0.931408027410328
 40
1.0
 40
1.0
 40
1.0
 40
1.0
 10
51.51375297023618
 20
264.9571903224456
 30
0.0
 10
51.51376148825329
 20
264.957190428271
 30
0.0
 10
51.51378270467918
 20
264.9571906918578
 30
0.0
 10
51.54535647884035
 20
264.9572064368094
 30
0.0
 10
51.60059836320978
 20
264.9572336071054
 30
0.0
 10
51.67437441600034
 20
264.9572692903593
 30
0.0
 10
51.75705629117978
 20
264.9573117285921
 30
0.0
 10
51.83957882527147
 20
264.9573521615626
 30
0.0
 10
51.9129225337236
 20
264.9573882726603
 30
0.0
 10
51.96742463900438
 20
264.95741573685
 30
0.0
 10
51.99803769236937
 20
264.9574298814432
 30
0.0
 10
51.9976329715613
 20
264.9574304011418
 30
0.0
 10
51.99747525071428
 20
264.9574306036699
 30
0.0
  0
LINE
  5
44C
330
1F
100
AcDbEntity
  8
0
  6
Continuous
 62
     7
370
    30
100
AcDbLine
 10
62.1113862263
 20
251.4099218591
 30
0.0
 11
62.1105135771
 21
251.4599217742
 31
0.0
  0
LINE
  5
44D
330
1F
100
AcDbEntity
  8
0
  6
Continuous
 62
     7
370
    30
100
AcDbLine
 10
62.3863862249
 20
251.4339811809
 30
0.0
 11
62.1113862263
 21
251.4099218591
 31
0.0
  0
LINE
  5
44E
330
1F
100
AcDbEntity
  8
0
  6
Continuous
 62
     7
370
    30
100
AcDbLine
 10
62.4363861399
 20
251.4339811809
 30
0.0
 11
62.3863862249
 21
251.4339811809
 31
0.0
  0
LINE
  5
44F
330
1F
100
AcDbEntity
  8
0
  6
Continuous
 62
     7
370
    30
100
AcDbLine
 10
62.4363861399
 20
251.1099219031
 30
0.0
 11
62.4363861399
 21
251.4339811809
 31
0.0
  0
LINE
  5
450
330
1F
100
AcDbEntity
  8
0
  6
Continuous
 62
     7
370
    30
100
AcDbLine
 10
61.7863863128
 20
250.4599218431
 30
0.0
 11
62.4363861399
 21
251.1099219031
 31
0.0
  0
LINE
  5
451
330
1F
100
AcDbEntity
  8
0
  6
Continuous
 62
     7
370
    30
100
AcDbLine
 10
61.3613865691
 20
250.4599218431
 30
0.0
 11
61.7863863128
 21
250.4599218431
 31
0.0
  0
LINE
  5
452
330
1F
100
AcDbEntity
  8
0
  6
Continuous
 62
     7
370
    30
100
AcDbLine
 10
61.3613865691
 20
250.4599218431
 30
0.0
 11
61.3447196203
 21
251.4599217742
 31
0.0
  0
LINE
  5
453
330
1F
100
AcDbEntity
  8
0
  6
Continuous
 62
     7
370
    30
100
AcDbLine
 10
41.0863860863
 20
251.1099219031
 30
0.0
 11
41.7363859134
 21
250.4599218431
 31
0.0
  0
LINE
  5
454
330
1F
100
AcDbEntity
  8
0
  6
Continuous
 62
     7
370
    30
100
AcDbLine
 10
41.0863860863
 20
251.1099219031
 30
0.0
 11
41.0863860863
 21
251.4339811809
 31
0.0
  0
LINE
  5
455
330
1F
100
AcDbEntity
  8
0
  6
Continuous
 62
     7
370
    30
100
AcDbLine
 10
41.0863860863
 20
251.4339811809
 30
0.0
 11
41.1363860013
 21
251.4339811809
 31
0.0
  0
LINE
  5
456
330
1F
100
AcDbEntity
  8
0
  6
Continuous
 62
     7
370
    30
100
AcDbLine
 10
41.1363860013
 20
251.4339811809
 30
0.0
 11
41.4113859998
 21
251.4099218591
 31
0.0
  0
LINE
  5
457
330
1F
100
AcDbEntity
  8
0
  6
Continuous
 62
     7
370
    30
100
AcDbLine
 10
41.4122586491
 20
251.4599217742
 30
0.0
 11
41.4113859998
 21
251.4099218591
 31
0.0
  0
LINE
  5
458
330
1F
100
AcDbEntity
  8
0
  6
Continuous
 62
     7
370
    30
100
AcDbLine
 10
42.1613856571
 20
250.4599218431
 30
0.0
 11
41.7363859134
 21
250.4599218431
 31
0.0
  0
LINE
  5
459
330
1F
100
AcDbEntity
  8
0
  6
Continuous
 62
     7
370
    30
100
AcDbLine
 10
42.1613856571
 20
250.4599218431
 30
0.0
 11
42.1780526059
 21
251.4599217742
 31
0.0
  0
LINE
  5
45A
330
1F
100
AcDbEntity
  8
0
  6
Continuous
 62
     7
370
    30
100
AcDbLine
 10
51.611386106
 20
245.0399220164
 30
0.0
 11
51.611386106
 21
245.7599219109
 31
0.0
  0
LINE
  5
45B
330
1F
100
AcDbEntity
  8
0
  6
Continuous
 62
     7
370
    30
100
AcDbLine
 10
51.9113861202
 20
245.0399220164
 30
0.0
 11
51.9113861202
 21
245.7599219109
 31
0.0
  0
LINE
  5
45C
330
1F
100
AcDbEntity
  8
0
  6
Continuous
 62
     7
370
    30
100
AcDbLine
 10
51.9113861202
 20
245.0399220164
 30
0.0
 11
51.611386106
 21
245.0399220164
 31
0.0
  0
LINE
  5
45D
330
1F
100
AcDbEntity
  8
0
  6
Continuous
 62
     7
370
    30
100
AcDbLine
 10
51.611386106
 20
245.7599219109
 30
0.0
 11
51.9113861202
 21
245.7599219109
 31
0.0
  0
LINE
  5
45E
330
1F
100
AcDbEntity
  8
0
  6
Continuous
 62
     7
370
    30
100
AcDbLine
 10
52.161386103
 20
245.0399220164
 30
0.0
 11
52.161386103
 21
245.7599219109
 31
0.0
  0
LINE
  5
45F
330
1F
100
AcDbEntity
  8
0
  6
Continuous
 62
     7
370
    30
100
AcDbLine
 10
52.161386103
 20
245.0399220164
 30
0.0
 11
51.9113861202
 21
245.0399220164
 31
0.0
  0
LINE
  5
460
330
1F
100
AcDbEntity
  8
0
  6
Continuous
 62
     7
370
    30
100
AcDbLine
 10
51.9113861202
 20
245.7599219109
 30
0.0
 11
52.161386103
 21
245.7599219109
 31
0.0
  0
LINE
  5
461
330
1F
100
AcDbEntity
  8
0
  6
Continuous
 62
     7
370
    30
100
AcDbLine
 10
51.3613861232
 20
245.0399220164
 30
0.0
 11
51.3613861232
 21
245.7599219109
 31
0.0
  0
LINE
  5
462
330
1F
100
AcDbEntity
  8
0
  6
Continuous
 62
     7
370
    30
100
AcDbLine
 10
51.611386106
 20
245.0399220164
 30
0.0
 11
51.3613861232
 21
245.0399220164
 31
0.0
  0
LINE
  5
463
330
1F
100
AcDbEntity
  8
0
  6
Continuous
 62
     7
370
    30
100
AcDbLine
 10
51.3613861232
 20
245.7599219109
 30
0.0
 11
51.611386106
 21
245.7599219109
 31
0.0
  0
LINE
  5
464
330
1F
100
AcDbEntity
  8
0
  6
Continuous
 62
     7
370
    30
100
AcDbLine
 10
52.2584366965
 20
245.0399220164
 30
0.0
 11
52.161386103
 21
245.0399220164
 31
0.0
  0
LINE
  5
465
330
1F
100
AcDbEntity
  8
0
  6
Continuous
 62
     7
370
    30
100
AcDbLine
 10
52.161386103
 20
245.7599219109
 30
0.0
 11
52.2213326887
 21
245.7599219109
 31
0.0
  0
LINE
  5
466
330
1F
100
AcDbEntity
  8
0
  6
Continuous
 62
     7
370
    30
100
AcDbLine
 10
51.3613861232
 20
245.0399220164
 30
0.0
 11
51.2638614865
 21
245.0399220164
 31
0.0
  0
LINE
  5
467
330
1F
100
AcDbEntity
  8
0
  6
Continuous
 62
     7
370
    30
100
AcDbLine
 10
51.3007433157
 20
245.7599219109
 30
0.0
 11
51.3613861232
 21
245.7599219109
 31
0.0
  0
LINE
  5
468
330
1F
100
AcDbEntity
  8
0
  6
Continuous
 62
     7
370
    30
100
AcDbLine
 10
53.716536274
 20
239.5399220462
 30
0.0
 11
53.7824373579
 21
239.5399220462
 31
0.0
  0
LINE
  5
469
330
1F
100
AcDbEntity
  8
0
  6
Continuous
 62
     7
370
    30
100
AcDbLine
 10
53.3324373074
 20
239.5399220462
 30
0.0
 11
53.716536274
 21
239.5399220462
 31
0.0
  0
LINE
  5
46A
330
1F
100
AcDbEntity
  8
0
  6
Continuous
 62
     7
370
    30
100
AcDbLine
 10
50.1244339513
 20
239.5399220462
 30
0.0
 11
50.1903349188
 21
239.5399220462
 31
0.0
  0
LINE
  5
46B
330
1F
100
AcDbEntity
  8
0
  6
Continuous
 62
     7
370
    30
100
AcDbLine
 10
49.7403348683
 20
239.5399220462
 30
0.0
 11
50.1244339513
 21
239.5399220462
 31
0.0
  0
LINE
  5
46C
330
1F
100
AcDbEntity
  8
0
  6
Continuous
 62
     7
370
    30
100
AcDbLine
 10
51.3613861232
 20
246.0099219519
 30
0.0
 11
51.3613861232
 21
245.7599219109
 31
0.0
  0
LINE
  5
46D
330
1F
100
AcDbEntity
  8
0
  6
Continuous
 62
     7
370
    30
100
AcDbLine
 10
51.611386106
 20
246.0099219519
 30
0.0
 11
51.611386106
 21
245.7599219109
 31
0.0
  0
LINE
  5
46E
330
1F
100
AcDbEntity
  8
0
  6
Continuous
 62
     7
370
    30
100
AcDbLine
 10
51.9113861202
 20
246.0099219519
 30
0.0
 11
51.9113861202
 21
245.7599219109
 31
0.0
  0
LINE
  5
46F
330
1F
100
AcDbEntity
  8
0
  6
Continuous
 62
     7
370
    30
100
AcDbLine
 10
52.161386103
 20
246.0099219519
 30
0.0
 11
52.161386103
 21
245.7599219109
 31
0.0
  0
LINE
  5
470
330
1F
100
AcDbEntity
  8
0
  6
Continuous
 62
     7
370
    30
100
AcDbLine
 10
52.2220289105
 20
245.7599219109
 30
0.0
 11
52.161386103
 21
245.7599219109
 31
0.0
  0
LINE
  5
471
330
1F
100
AcDbEntity
  8
0
  6
Continuous
 62
     7
370
    30
100
AcDbLine
 10
51.3613861232
 20
245.7599219109
 30
0.0
 11
51.3014395375
 21
245.7599219109
 31
0.0
  0
LINE
  5
472
330
1F
100
AcDbEntity
  8
0
  6
Continuous
 62
     7
370
    30
100
AcDbLine
 10
41.8077401238
 20
252.4599218217
 30
0.0
 11
41.8077401238
 21
253.4599218692
 31
0.0
  0
LINE
  5
473
330
1F
100
AcDbEntity
  8
0
  6
Continuous
 62
     7
370
    30
100
AcDbLine
 10
61.7150321024
 20
252.4599218217
 30
0.0
 11
61.7150321024
 21
253.4599218692
 31
0.0
  0
LINE
  5
474
330
1F
100
AcDbEntity
  8
0
  6
Continuous
 62
     7
370
    30
100
AcDbLine
 10
41.8077401238
 20
252.4599218217
 30
0.0
 11
61.7150321024
 21
252.4599218217
 31
0.0
  0
LINE
  5
475
330
1F
100
AcDbEntity
  8
0
  6
Continuous
 62
     7
370
    30
100
AcDbLine
 10
42.6999294552
 20
251.4599217742
 30
0.0
 11
42.6999294552
 21
252.4599218217
 31
0.0
  0
LINE
  5
476
330
1F
100
AcDbEntity
  8
0
  6
Continuous
 62
     7
370
    30
100
AcDbLine
 10
60.822842771
 20
251.4599217742
 30
0.0
 11
60.822842771
 21
252.4599218217
 31
0.0
  0
LINE
  5
477
330
1F
100
AcDbEntity
  8
0
  6
Continuous
 62
     7
370
    30
100
AcDbLine
 10
42.6999294552
 20
251.4599217742
 30
0.0
 11
60.822842771
 21
251.4599217742
 31
0.0
  0
LINE
  5
478
330
1F
100
AcDbEntity
  8
0
  6
Continuous
 62
     7
370
    30
100
AcDbLine
 10
52.2113861054
 20
246.0099219519
 30
0.0
 11
52.3063861303
 21
244.1599218349
 31
0.0
  0
LINE
  5
479
330
1F
100
AcDbEntity
  8
0
  6
Continuous
 62
     7
370
    30
100
AcDbLine
 10
51.3113861208
 20
246.0099219519
 30
0.0
 11
52.2113861054
 21
246.0099219519
 31
0.0
  0
LINE
  5
47A
330
1F
100
AcDbEntity
  8
0
  6
Continuous
 62
     7
370
    30
100
AcDbLine
 10
51.2163860959
 20
244.1599218349
 30
0.0
 11
51.3113861208
 21
246.0099219519
 31
0.0
  0
LINE
  5
47B
330
1F
100
AcDbEntity
  8
0
  6
Continuous
 62
     7
370
    30
100
AcDbLine
 10
52.3063861303
 20
244.1599218349
 30
0.0
 11
57.2763859647
 21
244.1599218349
 31
0.0
  0
LINE
  5
47C
330
1F
100
AcDbEntity
  8
0
  6
Continuous
 62
     7
370
    30
100
AcDbLine
 10
46.2463862615
 20
244.1599218349
 30
0.0
 11
51.2163860959
 21
244.1599218349
 31
0.0
  0
LINE
  5
47D
330
1F
100
AcDbEntity
  8
0
  6
Continuous
 62
     7
370
    30
100
AcDbLine
 10
52.3063861303
 20
244.1599218349
 30
0.0
 11
51.2163860959
 21
244.1599218349
 31
0.0
  0
LINE
  5
47E
330
1F
100
AcDbEntity
  8
0
  6
Continuous
 62
     7
370
    30
100
AcDbLine
 10
61.9083066823
 20
253.4599218692
 30
0.0
 11
61.9083066823
 21
252.4599218217
 31
0.0
  0
LINE
  5
47F
330
1F
100
AcDbEntity
  8
0
  6
Continuous
 62
     7
370
    30
100
AcDbLine
 10
61.9083066823
 20
252.4599218217
 30
0.0
 11
61.7150321024
 21
252.4599218217
 31
0.0
  0
LINE
  5
480
330
1F
100
AcDbEntity
  8
0
  6
Continuous
 62
     7
370
    30
100
AcDbLine
 10
61.7150321024
 20
253.4599218692
 30
0.0
 11
61.9083066823
 21
253.4599218692
 31
0.0
  0
LINE
  5
481
330
1F
100
AcDbEntity
  8
0
  6
Continuous
 62
     7
370
    30
100
AcDbLine
 10
41.6144655439
 20
253.4599218692
 30
0.0
 11
41.6144655439
 21
252.4599218217
 31
0.0
  0
LINE
  5
482
330
1F
100
AcDbEntity
  8
0
  6
Continuous
 62
     7
370
    30
100
AcDbLine
 10
41.6144655439
 20
252.4599218217
 30
0.0
 11
41.8077401238
 21
252.4599218217
 31
0.0
  0
LINE
  5
483
330
1F
100
AcDbEntity
  8
0
  6
Continuous
 62
     7
370
    30
100
AcDbLine
 10
41.8077401238
 20
253.4599218692
 30
0.0
 11
41.6144655439
 21
253.4599218692
 31
0.0
  0
LINE
  5
484
330
1F
100
AcDbEntity
  8
0
  6
Continuous
 62
     7
370
    30
100
AcDbLine
 10
62.2613859715
 20
251.4730452734
 30
0.0
 11
62.2613859715
 21
253.4599218692
 31
0.0
  0
LINE
  5
485
330
1F
100
AcDbEntity
  8
0
  6
Continuous
 62
     7
370
    30
100
AcDbLine
 10
62.2613859715
 20
251.4730452734
 30
0.0
 11
62.1113862263
 21
251.4599217742
 31
0.0
  0
LINE
  5
486
330
1F
100
AcDbEntity
  8
0
  6
Continuous
 62
     7
370
    30
100
AcDbLine
 10
60.822842771
 20
251.4599217742
 30
0.0
 11
62.1113862263
 21
251.4599217742
 31
0.0
  0
LINE
  5
487
330
1F
100
AcDbEntity
  8
0
  6
Continuous
 62
     7
370
    30
100
AcDbLine
 10
61.9083066823
 20
253.4599218692
 30
0.0
 11
62.2613859715
 21
253.4599218692
 31
0.0
  0
LINE
  5
488
330
1F
100
AcDbEntity
  8
0
  6
Continuous
 62
     7
370
    30
100
AcDbLine
 10
62.7613860535
 20
253.4599218692
 30
0.0
 11
62.7613860535
 21
251.5167894948
 31
0.0
  0
LWPOLYLINE
  5
489
330
1F
100
AcDbEntity
  8
0
  6
Continuous
 62
     7
370
    30
100
AcDbPolyline
 90
       10
 70
   128
 43
0.0
 10
62.7613860535
 20
251.5167894948
 10
62.7537901866
 20
251.5161248797
 10
62.7312326225
 20
251.5141514072
 10
62.6943988147
 20
251.5109289146
 10
62.6444082128
 20
251.506555191
 10
62.5827798041
 20
251.5011635318
 10
62.5113864782
 20
251.4949173841
 10
62.432396354
 20
251.4880065049
 10
62.3482103812
 20
251.4806413732
 10
62.2613859715
 20
251.4730452734
  0
LINE
  5
48A
330
1F
100
AcDbEntity
  8
0
  6
Continuous
 62
     7
370
    30
100
AcDbLine
 10
62.2613859715
 20
253.4599218692
 30
0.0
 11
62.7613860535
 21
253.4599218692
 31
0.0
  0
LINE
  5
48B
330
1F
100
AcDbEntity
  8
0
  6
Continuous
 62
     7
370
    30
100
AcDbLine
 10
41.2613862547
 20
251.4730452734
 30
0.0
 11
41.4113859998
 21
251.4599217742
 31
0.0
  0
LINE
  5
48C
330
1F
100
AcDbEntity
  8
0
  6
Continuous
 62
     7
370
    30
100
AcDbLine
 10
41.2613862547
 20
253.4599218692
 30
0.0
 11
41.2613862547
 21
251.4730452734
 31
0.0
  0
LINE
  5
48D
330
1F
100
AcDbEntity
  8
0
  6
Continuous
 62
     7
370
    30
100
AcDbLine
 10
42.6999294552
 20
251.4599217742
 30
0.0
 11
41.4113859998
 21
251.4599217742
 31
0.0
  0
LINE
  5
48E
330
1F
100
AcDbEntity
  8
0
  6
Continuous
 62
     7
370
    30
100
AcDbLine
 10
41.6144655439
 20
253.4599218692
 30
0.0
 11
41.2613862547
 21
253.4599218692
 31
0.0
  0
LINE
  5
48F
330
1F
100
AcDbEntity
  8
0
  6
Continuous
 62
     7
370
    30
100
AcDbLine
 10
40.7613861727
 20
251.5167894948
 30
0.0
 11
40.7613861727
 21
253.4599218692
 31
0.0
  0
LWPOLYLINE
  5
490
330
1F
100
AcDbEntity
  8
0
  6
Continuous
 62
     7
370
    30
100
AcDbPolyline
 90
       10
 70
   128
 43
0.0
 10
41.2613862547
 20
251.4730452734
 10
41.174561845
 20
251.4806413732
 10
41.0903758722
 20
251.4880065049
 10
41.011385748
 20
251.4949173841
 10
40.9399924221
 20
251.5011635318
 10
40.8783640134
 20
251.506555191
 10
40.8283734115
 20
251.5109289146
 10
40.7915396037
 20
251.5141514072
 10
40.7689820396
 20
251.5161248797
 10
40.7613861727
 20
251.5167894948
  0
LINE
  5
491
330
1F
100
AcDbEntity
  8
0
  6
Continuous
 62
     7
370
    30
100
AcDbLine
 10
40.7613861727
 20
253.4599218692
 30
0.0
 11
41.2613862547
 21
253.4599218692
 31
0.0
  0
LINE
  5
492
330
1F
100
AcDbEntity
  8
0
  6
CENTERX2
 62
     7
370
     0
100
AcDbLine
 10
51.7613861131
 20
237.585466961
 30
0.0
 11
51.7613861131
 21
267.9170264064
 31
0.0
  0
LINE
  5
493
330
1F
100
AcDbEntity
  8
0
  6
Continuous
 62
     7
370
    40
100
AcDbLine
 10
42.2068060595
 20
259.8599218692
 30
0.0
 11
37.2068060595
 21
264.8599218692
 31
0.0
  0
LINE
  5
494
330
1F
100
AcDbEntity
  8
0
  6
Continuous
 62
     7
370
    40
100
AcDbLine
 10
37.2068060595
 20
264.8599218692
 30
0.0
 11
37.2068060595
 21
271.8599218692
 31
0.0
  0
LINE
  5
495
330
1F
100
AcDbEntity
  8
0
  6
Continuous
 62
     7
370
    40
100
AcDbLine
 10
61.3159661667
 20
259.8599218692
 30
0.0
 11
66.3159661667
 21
264.8599218692
 31
0.0
  0
LINE
  5
496
330
1F
100
AcDbEntity
  8
0
  6
Continuous
 62
     7
370
    40
100
AcDbLine
 10
66.3159661667
 20
264.8599218692
 30
0.0
 11
66.3159661667
 21
271.8599218692
 31
0.0
  0
LINE
  5
497
330
1F
100
AcDbEntity
  8
0
  6
Continuous
 62
     7
370
    40
100
AcDbLine
 10
37.2068060595
 20
271.8599218692
 30
0.0
 11
66.3159661667
 21
271.8599218692
 31
0.0
  0
CIRCLE
  5
498
330
1F
100
AcDbEntity
  8
0
  6
Continuous
 62
     7
370
     0
100
AcDbCircle
 10
51.7556838967
 20
264.9573103757
 30
0.0
 40
0.0009999999999866
  0
ARC
  5
499
330
1F
100
AcDbEntity
  8
0
  6
Continuous
 62
     7
370
     0
100
AcDbCircle
 10
51.7613861131
 20
253.4599218692
 30
0.0
 40
11.50000000000002
100
AcDbArc
 50
33.8155924817
 51
146.1844075183
  0
HATCH
  5
49A
330
1F
100
AcDbEntity
  8
0
  6
Continuous
 62
     7
100
AcDbHatch
 10
0.0
 20
0.0
 30
0.0
210
0.0
220
0.0
230
1.0
  2
ANSI31
 70
     0
 71
     0
 91
        1
 92
        0
 93
        6
 72
     2
 10
51.76138611309865
 20
253.4599218692052
 40
11.50000000000001
 50
213.815592481653
 51
326.1844075183485
 73
     0
 72
     1
 10
61.31596616666462
 20
259.8599218692053
 11
66.31596616666458
 21
264.8599218692053
 72
     1
 10
66.31596616666458
 20
264.8599218692053
 11
66.3159661666646
 21
271.8599218692053
 72
     1
 10
66.3159661666646
 20
271.8599218692053
 11
37.20680605953271
 21
271.8599218692053
 72
     1
 10
37.20680605953271
 20
271.8599218692053
 11
37.20680605953272
 21
264.8599218692053
 72
     1
 10
37.20680605953272
 20
264.8599218692053
 11
42.20680605953268
 21
259.8599218692053
 97
        0
 75
     0
 76
     1
 52
0.0
 41
0.5
 77
     0
 78
     1
 53
45.0
 43
0.0
 44
0.0
 45
-1.122532015133644
 46
1.122532015133644
 79
     0
 98
        1
 10
0.0
 20
0.0
  0
DIMENSION
  5
49B
330
1F
100
AcDbEntity
  8
0
  6
Continuous
 62
     7
370
     0
100
AcDbDimension
  2
_D_19
 10
69.2402000023
 20
259.8599218692
 30
0.0
 11
69.2402000023
 21
255.0667594708
 31
0.0
 70
   160
  1
<>
 71
     2
 42
-1.0
  3
SLDDIMSTYLE3
100
AcDbAlignedDimension
 13
51.7556838967
 23
264.9573103757
 33
0.0
 14
61.4237679544
 24
259.8599218692
 34
0.0
 50
90.0
100
AcDbRotatedDimension
  0
MTEXT
  5
4A6
330
1F
100
AcDbEntity
  8
0
  6
Continuous
 62
     7
370
     0
100
AcDbMText
 10
69.5479240814
 20
250.0406841651
 30
0.0
 40
2.38125
 41
0.0
 71
     1
 72
     1
  1
(0.201)
  7
SLDTEXTSTYLE0
 11
-3.269436733918102E-15
 21
1.0
 31
0.0
 73
     1
 44
1.0
  0
MTEXT
  5
4A7
330
1F
100
AcDbEntity
  8
0
  6
Continuous
 62
     7
370
     0
100
AcDbMText
 10
37.5748115644
 20
279.86736675
 30
0.0
 40
3.5
 41
0.0
 71
     1
 72
     1
  1
Detection range
  7
SLDTEXTSTYLE0
 73
     1
 44
1.0
  0
MTEXT
  5
4A8
330
1F
100
AcDbEntity
  8
0
  6
Continuous
 62
     7
370
     0
100
AcDbMText
 10
54.5157871262
 20
239.2999639224
 30
0.0
 40
3.5
 41
0.0
 71
     1
 72
     1
  1
Note1
  7
SLDTEXTSTYLE0
 73
     1
 44
1.0
  0
LEADER
  5
4A9
330
1F
100
AcDbEntity
  8
0
  6
Continuous
 62
     7
370
     0
100
AcDbLeader
  3
SLDDIMSTYLE12
 76
     3
 10
69.260870106
 20
248.7385007959
 30
0.0
 10
65.1316851665
 20
234.7124117053
 30
0.0
 10
54.4399596367
 20
234.7124117053
 30
0.0
  0
ENDSEC
  0
SECTION
  2
OBJECTS
  0
DICTIONARY
  5
C
330
0
100
AcDbDictionary
281
     1
  3
ACAD_GROUP
350
D
  3
ACAD_LAYOUT
350
1A
  3
ACAD_MLINESTYLE
350
17
  3
ACAD_PLOTSETTINGS
350
19
  3
ACAD_PLOTSTYLENAME
350
E
  3
ACAD_SCALELIST
350
47
  0
DICTIONARY
  5
D
102
{ACAD_REACTORS
330
C
102
}
330
C
100
AcDbDictionary
281
     1
  0
DICTIONARY
  5
1A
102
{ACAD_REACTORS
330
C
102
}
330
C
100
AcDbDictionary
281
     1
  3
Layout1
350
1E
  3
Layout2
350
26
  3
Model
350
22
  0
DICTIONARY
  5
17
102
{ACAD_REACTORS
330
C
102
}
330
C
100
AcDbDictionary
281
     1
  3
Standard
350
18
  0
DICTIONARY
  5
19
102
{ACAD_REACTORS
330
C
102
}
330
C
100
AcDbDictionary
281
     1
  0
ACDBDICTIONARYWDFLT
  5
E
102
{ACAD_REACTORS
330
C
102
}
330
C
100
AcDbDictionary
281
     1
  3
Normal
350
F
100
AcDbDictionaryWithDefault
340
F
  0
DICTIONARY
  5
47
102
{ACAD_REACTORS
330
C
102
}
330
C
100
AcDbDictionary
281
     1
  3
A0
350
48
  3
A1
350
49
  3
A2
350
4A
  3
A3
350
4B
  3
A4
350
4C
  3
A5
350
4D
  3
A6
350
4E
  3
A7
350
4F
  3
A8
350
50
  3
A9
350
51
  3
B0
350
52
  3
B1
350
53
  3
B2
350
54
  3
B3
350
55
  3
B4
350
56
  3
B5
350
57
  3
B6
350
58
  3
B7
350
59
  3
B8
350
5A
  3
B9
350
5B
  3
C0
350
5C
  3
C1
350
5D
  3
C2
350
5E
  3
C3
350
5F
  3
C4
350
60
  3
C5
350
61
  3
C6
350
62
  3
C7
350
63
  3
C8
350
64
  3
C9
350
65
  3
D0
350
66
  3
D1
350
67
  3
D2
350
68
  0
LAYOUT
  5
1E
102
{ACAD_REACTORS
330
1A
102
}
330
1A
100
AcDbPlotSettings
  1

  2
none_device
  4

  6

 40
0.0
 41
0.0
 42
0.0
 43
0.0
 44
0.0
 45
0.0
 46
0.0
 47
0.0
 48
0.0
 49
0.0
140
0.0
141
0.0
142
1.0
143
1.0
 70
   688
 72
     1
 73
     0
 74
     5
  7

 75
    16
147
1.0
148
0.0
149
0.0
100
AcDbLayout
  1
Layout1
 70
     1
 71
     1
 10
0.0
 20
0.0
 11
420.0
 21
297.0
 12
0.0
 22
0.0
 32
0.0
 14
1.0000000000E+20
 24
1.0000000000E+20
 34
1.0000000000E+20
 15
-1.0000000000E+20
 25
-1.0000000000E+20
 35
-1.0000000000E+20
146
0.0
 13
0.0
 23
0.0
 33
0.0
 16
1.0
 26
0.0
 36
0.0
 17
0.0
 27
1.0
 37
0.0
 76
     0
330
1B
  0
LAYOUT
  5
26
102
{ACAD_REACTORS
330
1A
102
}
330
1A
100
AcDbPlotSettings
  1

  2
none_device
  4

  6

 40
0.0
 41
0.0
 42
0.0
 43
0.0
 44
0.0
 45
0.0
 46
0.0
 47
0.0
 48
0.0
 49
0.0
140
0.0
141
0.0
142
1.0
143
1.0
 70
   688
 72
     1
 73
     0
 74
     5
  7

 75
    16
147
1.0
148
0.0
149
0.0
100
AcDbLayout
  1
Layout2
 70
     1
 71
     2
 10
0.0
 20
0.0
 11
0.0
 21
0.0
 12
0.0
 22
0.0
 32
0.0
 14
0.0
 24
0.0
 34
0.0
 15
0.0
 25
0.0
 35
0.0
146
0.0
 13
0.0
 23
0.0
 33
0.0
 16
1.0
 26
0.0
 36
0.0
 17
0.0
 27
1.0
 37
0.0
 76
     0
330
23
  0
LAYOUT
  5
22
102
{ACAD_REACTORS
330
1A
102
}
330
1A
100
AcDbPlotSettings
  1

  2
none_device
  4
Letter_(8.50_x_11.00_Inches)
  6

 40
6.35
 41
6.35
 42
6.35000508
 43
6.35000508
 44
215.9
 45
279.4
 46
0.0
 47
0.0
 48
0.0
 49
0.0
140
0.0
141
0.0
142
1.0
143
1.0
 70
  1712
 72
     1
 73
     0
 74
     0
  7

 75
     0
147
1.0
148
0.0
149
0.0
100
AcDbLayout
  1
Model
 70
     1
 71
     0
 10
0.0
 20
0.0
 11
210.0
 21
297.0
 12
0.0
 22
0.0
 32
0.0
 14
0.0
 24
0.0
 34
0.0
 15
210.0
 25
297.0
 35
0.0
146
0.0
 13
0.0
 23
0.0
 33
0.0
 16
1.0
 26
0.0
 36
0.0
 17
0.0
 27
1.0
 37
0.0
 76
     0
330
1F
331
29
  0
MLINESTYLE
  5
18
102
{ACAD_REACTORS
330
17
102
}
330
17
100
AcDbMlineStyle
  2
Standard
 70
     0
  3

 62
   256
 51
90.0
 52
90.0
 71
     2
 49
0.5
 62
   256
  6
BYLAYER
 49
-0.5
 62
   256
  6
BYLAYER
  0
ACDBPLACEHOLDER
  5
F
102
{ACAD_REACTORS
330
E
102
}
330
E
  0
SCALE
  5
48
102
{ACAD_REACTORS
330
47
102
}
330
47
100
AcDbScale
 70
     0
300
1:1
140
1.0
141
1.0
290
     1
  0
SCALE
  5
49
102
{ACAD_REACTORS
330
47
102
}
330
47
100
AcDbScale
 70
     0
300
1:2
140
1.0
141
2.0
290
     0
  0
SCALE
  5
4A
102
{ACAD_REACTORS
330
47
102
}
330
47
100
AcDbScale
 70
     0
300
1:4
140
1.0
141
4.0
290
     0
  0
SCALE
  5
4B
102
{ACAD_REACTORS
330
47
102
}
330
47
100
AcDbScale
 70
     0
300
1:5
140
1.0
141
5.0
290
     0
  0
SCALE
  5
4C
102
{ACAD_REACTORS
330
47
102
}
330
47
100
AcDbScale
 70
     0
300
1:8
140
1.0
141
8.0
290
     0
  0
SCALE
  5
4D
102
{ACAD_REACTORS
330
47
102
}
330
47
100
AcDbScale
 70
     0
300
1:10
140
1.0
141
10.0
290
     0
  0
SCALE
  5
4E
102
{ACAD_REACTORS
330
47
102
}
330
47
100
AcDbScale
 70
     0
300
1:16
140
1.0
141
16.0
290
     0
  0
SCALE
  5
4F
102
{ACAD_REACTORS
330
47
102
}
330
47
100
AcDbScale
 70
     0
300
1:20
140
1.0
141
20.0
290
     0
  0
SCALE
  5
50
102
{ACAD_REACTORS
330
47
102
}
330
47
100
AcDbScale
 70
     0
300
1:30
140
1.0
141
30.0
290
     0
  0
SCALE
  5
51
102
{ACAD_REACTORS
330
47
102
}
330
47
100
AcDbScale
 70
     0
300
1:40
140
1.0
141
40.0
290
     0
  0
SCALE
  5
52
102
{ACAD_REACTORS
330
47
102
}
330
47
100
AcDbScale
 70
     0
300
1:50
140
1.0
141
50.0
290
     0
  0
SCALE
  5
53
102
{ACAD_REACTORS
330
47
102
}
330
47
100
AcDbScale
 70
     0
300
1:100
140
1.0
141
100.0
290
     0
  0
SCALE
  5
54
102
{ACAD_REACTORS
330
47
102
}
330
47
100
AcDbScale
 70
     0
300
2:1
140
2.0
141
1.0
290
     0
  0
SCALE
  5
55
102
{ACAD_REACTORS
330
47
102
}
330
47
100
AcDbScale
 70
     0
300
4:1
140
4.0
141
1.0
290
     0
  0
SCALE
  5
56
102
{ACAD_REACTORS
330
47
102
}
330
47
100
AcDbScale
 70
     0
300
8:1
140
8.0
141
1.0
290
     0
  0
SCALE
  5
57
102
{ACAD_REACTORS
330
47
102
}
330
47
100
AcDbScale
 70
     0
300
10:1
140
10.0
141
1.0
290
     0
  0
SCALE
  5
58
102
{ACAD_REACTORS
330
47
102
}
330
47
100
AcDbScale
 70
     0
300
100:1
140
100.0
141
1.0
290
     0
  0
SCALE
  5
59
102
{ACAD_REACTORS
330
47
102
}
330
47
100
AcDbScale
 70
     0
300
1/128" = 1'-0"
140
0.0078125
141
12.0
290
     0
  0
SCALE
  5
5A
102
{ACAD_REACTORS
330
47
102
}
330
47
100
AcDbScale
 70
     0
300
1/64" = 1'-0"
140
0.015625
141
12.0
290
     0
  0
SCALE
  5
5B
102
{ACAD_REACTORS
330
47
102
}
330
47
100
AcDbScale
 70
     0
300
1/32" = 1'-0"
140
0.03125
141
12.0
290
     0
  0
SCALE
  5
5C
102
{ACAD_REACTORS
330
47
102
}
330
47
100
AcDbScale
 70
     0
300
1/16" = 1'-0"
140
0.0625
141
12.0
290
     0
  0
SCALE
  5
5D
102
{ACAD_REACTORS
330
47
102
}
330
47
100
AcDbScale
 70
     0
300
3/32" = 1'-0"
140
0.09375
141
12.0
290
     0
  0
SCALE
  5
5E
102
{ACAD_REACTORS
330
47
102
}
330
47
100
AcDbScale
 70
     0
300
1/8" = 1'-0"
140
0.125
141
12.0
290
     0
  0
SCALE
  5
5F
102
{ACAD_REACTORS
330
47
102
}
330
47
100
AcDbScale
 70
     0
300
3/16" = 1'-0"
140
0.1875
141
12.0
290
     0
  0
SCALE
  5
60
102
{ACAD_REACTORS
330
47
102
}
330
47
100
AcDbScale
 70
     0
300
1/4" = 1'-0"
140
0.25
141
12.0
290
     0
  0
SCALE
  5
61
102
{ACAD_REACTORS
330
47
102
}
330
47
100
AcDbScale
 70
     0
300
3/8" = 1'-0"
140
0.375
141
12.0
290
     0
  0
SCALE
  5
62
102
{ACAD_REACTORS
330
47
102
}
330
47
100
AcDbScale
 70
     0
300
1/2" = 1'-0"
140
0.5
141
12.0
290
     0
  0
SCALE
  5
63
102
{ACAD_REACTORS
330
47
102
}
330
47
100
AcDbScale
 70
     0
300
3/4" = 1'-0"
140
0.75
141
12.0
290
     0
  0
SCALE
  5
64
102
{ACAD_REACTORS
330
47
102
}
330
47
100
AcDbScale
 70
     0
300
1" = 1'-0"
140
1.0
141
12.0
290
     0
  0
SCALE
  5
65
102
{ACAD_REACTORS
330
47
102
}
330
47
100
AcDbScale
 70
     0
300
1-1/2" = 1'-0"
140
1.5
141
12.0
290
     0
  0
SCALE
  5
66
102
{ACAD_REACTORS
330
47
102
}
330
47
100
AcDbScale
 70
     0
300
3" = 1'-0"
140
3.0
141
12.0
290
     0
  0
SCALE
  5
67
102
{ACAD_REACTORS
330
47
102
}
330
47
100
AcDbScale
 70
     0
300
6" = 1'-0"
140
6.0
141
12.0
290
     0
  0
SCALE
  5
68
102
{ACAD_REACTORS
330
47
102
}
330
47
100
AcDbScale
 70
     0
300
1'-0" = 1'-0"
140
12.0
141
12.0
290
     0
  0
ENDSEC
  0
EOF
