  0
SECTION
  2
HEADER
  9
$ACADVER
  1
AC1015
  9
$ACADMAINTVER
 70
     6
  9
$DWGCODEPAGE
  3
DOS932
  9
$INSBASE
 10
0.0
 20
0.0
 30
0.0
  9
$EXTMIN
 10
0.0
 20
0.0
 30
0.0
  9
$EXTMAX
 10
210.0
 20
297.0
 30
0.0
  9
$LIMMIN
 10
0.0
 20
0.0
  9
$LIMMAX
 10
210.0
 20
297.0
  9
$ORTHOMODE
 70
     0
  9
$REGENMODE
 70
     1
  9
$FILLMODE
 70
     1
  9
$QTEXTMODE
 70
     0
  9
$MIRRTEXT
 70
     1
  9
$LTSCALE
 40
1.0
  9
$ATTMODE
 70
     1
  9
$TEXTSIZE
 40
3.5
  9
$TRACEWID
 40
1.0
  9
$TEXTSTYLE
  7
Standard
  9
$CLAYER
  8
0
  9
$CELTYPE
  6
ByLayer
  9
$CECOLOR
 62
   256
  9
$CELTSCALE
 40
1.0
  9
$DISPSILH
 70
     0
  9
$DIMSCALE
 40
1.0
  9
$DIMASZ
 40
1.5
  9
$DIMEXO
 40
1.0
  9
$DIMDLI
 40
3.75
  9
$DIMRND
 40
0.0
  9
$DIMDLE
 40
0.0
  9
$DIMEXE
 40
1.0
  9
$DIMTP
 40
0.0
  9
$DIMTM
 40
0.0
  9
$DIMTXT
 40
3.5
  9
$DIMCEN
 40
2.5
  9
$DIMTSZ
 40
0.0
  9
$DIMTOL
 70
     0
  9
$DIMLIM
 70
     0
  9
$DIMTIH
 70
     1
  9
$DIMTOH
 70
     1
  9
$DIMSE1
 70
     0
  9
$DIMSE2
 70
     0
  9
$DIMTAD
 70
     1
  9
$DIMZIN
 70
     0
  9
$DIMBLK
  1

  9
$DIMASO
 70
     1
  9
$DIMSHO
 70
     1
  9
$DIMPOST
  1

  9
$DIMAPOST
  1

  9
$DIMALT
 70
     0
  9
$DIMALTD
 70
     3
  9
$DIMALTF
 40
0.0393700787
  9
$DIMLFAC
 40
1.0
  9
$DIMTOFL
 70
     1
  9
$DIMTVP
 40
0.0
  9
$DIMTIX
 70
     0
  9
$DIMSOXD
 70
     0
  9
$DIMSAH
 70
     0
  9
$DIMBLK1
  1

  9
$DIMBLK2
  1

  9
$DIMSTYLE
  2
ISO-25
  9
$DIMCLRD
 70
     0
  9
$DIMCLRE
 70
     0
  9
$DIMCLRT
 70
     0
  9
$DIMTFAC
 40
1.0
  9
$DIMGAP
 40
1.524
  9
$DIMJUST
 70
     0
  9
$DIMSD1
 70
     0
  9
$DIMSD2
 70
     0
  9
$DIMTOLJ
 70
     0
  9
$DIMTZIN
 70
     0
  9
$DIMALTZ
 70
     0
  9
$DIMALTTZ
 70
     0
  9
$DIMUPT
 70
     0
  9
$DIMDEC
 70
     2
  9
$DIMTDEC
 70
     2
  9
$DIMALTU
 70
     2
  9
$DIMALTTD
 70
     3
  9
$DIMTXSTY
  7
Standard
  9
$DIMAUNIT
 70
     0
  9
$DIMADEC
 70
     2
  9
$DIMALTRND
 40
0.0
  9
$DIMAZIN
 70
     0
  9
$DIMDSEP
 70
    44
  9
$DIMATFIT
 70
     3
  9
$DIMFRAC
 70
     0
  9
$DIMLDRBLK
  1

  9
$DIMLUNIT
 70
     2
  9
$DIMLWD
 70
    -2
  9
$DIMLWE
 70
    -2
  9
$DIMTMOVE
 70
     0
  9
$LUNITS
 70
     2
  9
$LUPREC
 70
     2
  9
$SKETCHINC
 40
1.0
  9
$FILLETRAD
 40
10.0
  9
$AUNITS
 70
     0
  9
$AUPREC
 70
     2
  9
$MENU
  1
.
  9
$ELEVATION
 40
0.0
  9
$PELEVATION
 40
0.0
  9
$THICKNESS
 40
0.0
  9
$LIMCHECK
 70
     0
  9
$CHAMFERA
 40
10.0
  9
$CHAMFERB
 40
10.0
  9
$CHAMFERC
 40
20.0
  9
$CHAMFERD
 40
0.0
  9
$SKPOLY
 70
     0
  9
$TDCREATE
 40
2457634.47925125
  9
$TDUCREATE
 40
2457634.395917917
  9
$TDUPDATE
 40
2457634.479253368
  9
$TDUUPDATE
 40
2457634.395920034
  9
$TDINDWG
 40
0.0000000116
  9
$TDUSRTIMER
 40
0.0000000116
  9
$USRTIMER
 70
     1
  9
$ANGBASE
 50
0.0
  9
$ANGDIR
 70
     0
  9
$PDMODE
 70
     0
  9
$PDSIZE
 40
-1.0
  9
$PLINEWID
 40
0.0
  9
$SPLFRAME
 70
     0
  9
$SPLINETYPE
 70
     6
  9
$SPLINESEGS
 70
     8
  9
$HANDSEED
  5
21B
  9
$SURFTAB1
 70
     6
  9
$SURFTAB2
 70
     6
  9
$SURFTYPE
 70
     6
  9
$SURFU
 70
     6
  9
$SURFV
 70
     6
  9
$UCSBASE
  2

  9
$UCSNAME
  2

  9
$UCSORG
 10
0.0
 20
0.0
 30
0.0
  9
$UCSXDIR
 10
1.0
 20
0.0
 30
0.0
  9
$UCSYDIR
 10
0.0
 20
1.0
 30
0.0
  9
$UCSORTHOREF
  2

  9
$UCSORTHOVIEW
 70
     0
  9
$UCSORGTOP
 10
0.0
 20
0.0
 30
0.0
  9
$UCSORGBOTTOM
 10
0.0
 20
0.0
 30
0.0
  9
$UCSORGLEFT
 10
0.0
 20
0.0
 30
0.0
  9
$UCSORGRIGHT
 10
0.0
 20
0.0
 30
0.0
  9
$UCSORGFRONT
 10
0.0
 20
0.0
 30
0.0
  9
$UCSORGBACK
 10
0.0
 20
0.0
 30
0.0
  9
$PUCSBASE
  2

  9
$PUCSNAME
  2

  9
$PUCSORG
 10
0.0
 20
0.0
 30
0.0
  9
$PUCSXDIR
 10
1.0
 20
0.0
 30
0.0
  9
$PUCSYDIR
 10
0.0
 20
1.0
 30
0.0
  9
$PUCSORTHOREF
  2

  9
$PUCSORTHOVIEW
 70
     0
  9
$PUCSORGTOP
 10
0.0
 20
0.0
 30
0.0
  9
$PUCSORGBOTTOM
 10
0.0
 20
0.0
 30
0.0
  9
$PUCSORGLEFT
 10
0.0
 20
0.0
 30
0.0
  9
$PUCSORGRIGHT
 10
0.0
 20
0.0
 30
0.0
  9
$PUCSORGFRONT
 10
0.0
 20
0.0
 30
0.0
  9
$PUCSORGBACK
 10
0.0
 20
0.0
 30
0.0
  9
$USERI1
 70
     0
  9
$USERI2
 70
     0
  9
$USERI3
 70
     0
  9
$USERI4
 70
     0
  9
$USERI5
 70
     0
  9
$USERR1
 40
0.0
  9
$USERR2
 40
0.0
  9
$USERR3
 40
0.0
  9
$USERR4
 40
0.0
  9
$USERR5
 40
0.0
  9
$WORLDVIEW
 70
     1
  9
$SHADEDGE
 70
     3
  9
$SHADEDIF
 70
    70
  9
$TILEMODE
 70
     1
  9
$MAXACTVP
 70
    64
  9
$PINSBASE
 10
0.0
 20
0.0
 30
0.0
  9
$PLIMCHECK
 70
     0
  9
$PEXTMIN
 10
1.0000000000E+20
 20
1.0000000000E+20
 30
1.0000000000E+20
  9
$PEXTMAX
 10
-1.0000000000E+20
 20
-1.0000000000E+20
 30
-1.0000000000E+20
  9
$PLIMMIN
 10
0.0
 20
0.0
  9
$PLIMMAX
 10
420.0
 20
297.0
  9
$UNITMODE
 70
     0
  9
$VISRETAIN
 70
     1
  9
$PLINEGEN
 70
     0
  9
$PSLTSCALE
 70
     1
  9
$TREEDEPTH
 70
  3020
  9
$CMLSTYLE
  2
Standard
  9
$CMLJUST
 70
     0
  9
$CMLSCALE
 40
20.0
  9
$PROXYGRAPHICS
 70
     1
  9
$MEASUREMENT
 70
     1
  9
$CELWEIGHT
370
    -1
  9
$ENDCAPS
280
     0
  9
$JOINSTYLE
280
     0
  9
$LWDISPLAY
290
     1
  9
$INSUNITS
 70
     4
  9
$HYPERLINKBASE
  1

  9
$STYLESHEET
  1

  9
$XEDIT
290
     1
  9
$CEPSNTYPE
380
     0
  9
$PSTYLEMODE
290
     1
  9
$FINGERPRINTGUID
  2
{4F162BAB-AA6B-4AA4-8180-86CE5E635275}
  9
$VERSIONGUID
  2
{FAEB1C32-E019-11D5-929B-00C0DF256EC4}
  9
$EXTNAMES
290
     1
  9
$PSVPSCALE
 40
0.0
  9
$OLESTARTUP
290
     0
  0
ENDSEC
  0
SECTION
  2
CLASSES
  0
CLASS
  1
ACDBDICTIONARYWDFLT
  2
AcDbDictionaryWithDefault
  3
ObjectDBX Classes
 90
        0
280
     0
281
     0
  0
CLASS
  1
VISUALSTYLE
  2
AcDbVisualStyle
  3
ObjectDBX Classes
 90
     4095
280
     0
281
     0
  0
CLASS
  1
MATERIAL
  2
AcDbMaterial
  3
ObjectDBX Classes
 90
     1153
280
     0
281
     0
  0
CLASS
  1
ACDBPLACEHOLDER
  2
AcDbPlaceHolder
  3
ObjectDBX Classes
 90
        0
280
     0
281
     0
  0
CLASS
  1
LAYOUT
  2
AcDbLayout
  3
ObjectDBX Classes
 90
        0
280
     0
281
     0
  0
ENDSEC
  0
SECTION
  2
TABLES
  0
TABLE
  2
VPORT
  5
8
330
0
100
AcDbSymbolTable
 70
     1
  0
VPORT
  5
29
330
8
100
AcDbSymbolTableRecord
100
AcDbViewportTableRecord
  2
*Active
 70
     0
 10
0.0
 20
0.0
 11
1.0
 21
1.0
 12
105.0
 22
148.5
 13
0.0
 23
0.0
 14
10.0
 24
10.0
 15
10.0
 25
10.0
 16
0.0
 26
0.0
 36
1.0
 17
0.0
 27
0.0
 37
0.0
 40
297.0
 41
0.7070707071
 42
50.0
 43
0.0
 44
0.0
 50
0.0
 51
0.0
 71
     0
 72
  2000
 73
     1
 74
     3
 75
     0
 76
     0
 77
     0
 78
     0
281
     0
 65
     1
110
0.0
120
0.0
130
0.0
111
1.0
121
0.0
131
0.0
112
0.0
122
1.0
132
0.0
 79
     0
146
0.0
  0
ENDTAB
  0
TABLE
  2
LTYPE
  5
5
330
0
100
AcDbSymbolTable
 70
     6
  0
LTYPE
  5
14
330
5
100
AcDbSymbolTableRecord
100
AcDbLinetypeTableRecord
  2
ByBlock
 70
     0
  3

 72
    65
 73
     0
 40
0.0
  0
LTYPE
  5
15
330
5
100
AcDbSymbolTableRecord
100
AcDbLinetypeTableRecord
  2
ByLayer
 70
     0
  3

 72
    65
 73
     0
 40
0.0
  0
LTYPE
  5
16
330
5
100
AcDbSymbolTableRecord
100
AcDbLinetypeTableRecord
  2
Continuous
 70
     0
  3
Solid line
 72
    65
 73
     0
 40
0.0
  0
LTYPE
  5
3F
330
5
100
AcDbSymbolTableRecord
100
AcDbLinetypeTableRecord
  2
HIDDEN
 70
     0
  3
Hidden __ __ __ __ __ __ __ __ __ __ __ __ __ __
 72
    65
 73
     2
 40
1.905
 49
1.27
 74
     0
 49
-0.635
 74
     0
  0
LTYPE
  5
40
330
5
100
AcDbSymbolTableRecord
100
AcDbLinetypeTableRecord
  2
PHANTOM
 70
     0
  3
Phantom ______  __  __  ______  __  __  ______
 72
    65
 73
     6
 40
12.7
 49
6.35
 74
     0
 49
-1.27
 74
     0
 49
1.27
 74
     0
 49
-1.27
 74
     0
 49
1.27
 74
     0
 49
-1.27
 74
     0
  0
LTYPE
  5
41
330
5
100
AcDbSymbolTableRecord
100
AcDbLinetypeTableRecord
  2
CENTER
 70
     0
  3
Center ____ _ ____ _ ____ _ ____ _ ____ _ ____
 72
    65
 73
     4
 40
10.16
 49
6.35
 74
     0
 49
-1.27
 74
     0
 49
1.27
 74
     0
 49
-1.27
 74
     0
  0
LTYPE
  5
42
330
5
100
AcDbSymbolTableRecord
100
AcDbLinetypeTableRecord
  2
CENTERX2
 70
     0
  3
Center (2x) ________  __  ________  __  _____
 72
    65
 73
     4
 40
20.32
 49
12.7
 74
     0
 49
-2.54
 74
     0
 49
2.54
 74
     0
 49
-2.54
 74
     0
  0
LTYPE
  5
43
330
5
100
AcDbSymbolTableRecord
100
AcDbLinetypeTableRecord
  2
DOT2
 70
     0
  3
Dot (.5x) ........................................
 72
    65
 73
     2
 40
0.635
 49
0.0
 74
     0
 49
-0.635
 74
     0
  0
ENDTAB
  0
TABLE
  2
LAYER
  5
2
330
0
100
AcDbSymbolTable
 70
     1
  0
LAYER
  5
10
330
2
100
AcDbSymbolTableRecord
100
AcDbLayerTableRecord
  2
0
 70
     0
 62
     7
  6
Continuous
370
    -3
390
F
  0
ENDTAB
  0
TABLE
  2
STYLE
  5
3
330
0
100
AcDbSymbolTable
 70
     4
  0
STYLE
  5
11
330
3
100
AcDbSymbolTableRecord
100
AcDbTextStyleTableRecord
  2
Standard
 70
     0
 40
0.0
 41
1.0
 50
0.0
 71
     0
 42
3.5
  3
txt
  4
bigfont
  0
STYLE
  5
5C
330
3
100
AcDbSymbolTableRecord
100
AcDbTextStyleTableRecord
  2
SLDTEXTSTYLE0
 70
     0
 40
0.0
 41
0.7
 50
0.0
 71
     0
 42
0.2
  3
TXT
  4
bigfont
  0
STYLE
  5
C4
330
3
100
AcDbSymbolTableRecord
100
AcDbTextStyleTableRecord
  2
SLDTEXTSTYLE1
 70
     0
 40
0.0
 41
0.6090909091
 50
0.0
 71
     0
 42
0.2
  3
TXT
  4
bigfont
  0
STYLE
  5
217
330
3
100
AcDbSymbolTableRecord
100
AcDbTextStyleTableRecord
  2
SLDTEXTSTYLE2
 70
     0
 40
0.0
 41
0.75
 50
0.0
 71
     0
 42
0.2
  3
TXT
  4
bigfont
  0
ENDTAB
  0
TABLE
  2
VIEW
  5
6
330
0
100
AcDbSymbolTable
 70
     0
  0
ENDTAB
  0
TABLE
  2
UCS
  5
7
330
0
100
AcDbSymbolTable
 70
     0
  0
ENDTAB
  0
TABLE
  2
APPID
  5
9
330
0
100
AcDbSymbolTable
 70
     1
  0
APPID
  5
12
330
9
100
AcDbSymbolTableRecord
100
AcDbRegAppTableRecord
  2
ACAD
 70
     0
  0
ENDTAB
  0
TABLE
  2
DIMSTYLE
  5
A
330
0
100
AcDbSymbolTable
 70
    10
100
AcDbDimStyleTable
  0
DIMSTYLE
105
27
330
A
100
AcDbSymbolTableRecord
100
AcDbDimStyleTableRecord
  2
ISO-25
 70
     0
 41
2.5
 42
0.625
 43
3.75
 44
1.25
 73
     0
 74
     0
 77
     1
 78
     8
140
2.5
141
2.5
143
0.0393700787
147
0.625
171
     3
172
     1
178
     0
271
     2
272
     2
274
     3
278
    44
283
     0
284
     8
340
11
  0
DIMSTYLE
105
5D
102
{ACAD_REACTORS
330
5B
102
}
330
A
100
AcDbSymbolTableRecord
100
AcDbDimStyleTableRecord
  2
SLDDIMSTYLE0
 70
     0
 41
1.5
 44
0.0
 45
0.000000001
 78
    12
 79
     3
140
3.5
141
0.0
147
0.875
172
     1
173
     1
178
     0
271
     2
272
     2
276
     2
284
    12
340
5C
341
5E
343
5E
344
61
  0
DIMSTYLE
105
72
102
{ACAD_REACTORS
330
71
330
7C
102
}
330
A
100
AcDbSymbolTableRecord
100
AcDbDimStyleTableRecord
  2
SLDDIMSTYLE1
 70
     0
 41
1.5
 44
0.0
 73
     0
 74
     0
 77
     3
 78
    12
 79
     3
140
3.5
147
0.875
173
     1
178
     0
179
     2
272
     2
276
     2
284
    12
340
5C
341
61
343
61
344
61
  0
DIMSTYLE
105
87
102
{ACAD_REACTORS
330
86
102
}
330
A
100
AcDbSymbolTableRecord
100
AcDbDimStyleTableRecord
  2
SLDDIMSTYLE2
 70
     0
 41
1.5
 44
0.0
 45
0.000000001
 47
0.1
 71
     1
 78
    12
 79
     3
140
3.5
141
0.0
147
0.875
172
     1
173
     1
178
     0
271
     2
272
     1
276
     2
284
     8
340
5C
341
5E
343
5E
344
61
  0
DIMSTYLE
105
F2
102
{ACAD_REACTORS
330
F1
102
}
330
A
100
AcDbSymbolTableRecord
100
AcDbDimStyleTableRecord
  2
SLDDIMSTYLE3
 70
     0
 41
1.5
 44
0.0
 45
0.000000001
 73
     0
 74
     0
 77
     3
 78
    12
 79
     3
140
3.5
147
0.875
173
     1
178
     0
271
     1
272
     2
276
     2
284
    12
340
5C
341
61
343
61
344
61
  0
DIMSTYLE
105
FE
102
{ACAD_REACTORS
330
FD
330
10B
330
117
330
1DE
102
}
330
A
100
AcDbSymbolTableRecord
100
AcDbDimStyleTableRecord
  2
SLDDIMSTYLE4
 70
     0
 41
1.5
 44
0.0
 45
0.000000001
 73
     0
 74
     0
 77
     3
 78
    12
 79
     3
140
3.5
147
0.875
172
     1
173
     1
178
     0
271
     1
272
     1
276
     2
284
    12
289
     0
340
5C
341
61
343
61
344
61
  0
DIMSTYLE
105
125
102
{ACAD_REACTORS
330
124
102
}
330
A
100
AcDbSymbolTableRecord
100
AcDbDimStyleTableRecord
  2
SLDDIMSTYLE5
 70
     0
 41
1.5
 44
0.0
 45
0.000000001
 47
0.05
 48
0.05
 71
     1
 73
     0
 74
     0
 77
     3
 78
    12
 79
     3
140
3.5
147
0.875
172
     1
173
     1
178
     0
271
     2
272
     2
276
     2
284
     8
289
     0
340
5C
341
61
343
61
344
61
  0
DIMSTYLE
105
17A
102
{ACAD_REACTORS
330
179
102
}
330
A
100
AcDbSymbolTableRecord
100
AcDbDimStyleTableRecord
  2
SLDDIMSTYLE6
 70
     0
 41
1.5
 44
0.0
 45
0.000000001
 47
0.2
 48
0.2
 71
     1
 78
    12
 79
     3
140
3.5
141
0.0
147
0.875
172
     1
173
     1
178
     0
271
     2
272
     1
276
     2
284
     8
340
5C
341
5E
343
5E
344
61
  0
DIMSTYLE
105
187
102
{ACAD_REACTORS
330
186
330
191
102
}
330
A
100
AcDbSymbolTableRecord
100
AcDbDimStyleTableRecord
  2
SLDDIMSTYLE7
 70
     0
 41
1.5
 44
0.0
 73
     0
 74
     0
 77
     3
 78
    12
 79
     3
140
3.5
147
0.875
173
     1
178
     0
179
     2
272
     2
276
     2
284
    12
340
5C
341
61
343
61
344
61
  0
DIMSTYLE
105
19C
330
A
100
AcDbSymbolTableRecord
100
AcDbDimStyleTableRecord
  2
SLDDIMSTYLE8
 70
     0
 41
1.5
 44
0.0
 45
0.000000001
140
0.0
146
1.5
147
0.0
173
     1
178
     0
271
     0
272
     0
276
     2
340
11
341
61
343
61
344
61
  0
ENDTAB
  0
TABLE
  2
BLOCK_RECORD
  5
1
330
0
100
AcDbSymbolTable
 70
    22
  0
BLOCK_RECORD
  5
1F
330
1
100
AcDbSymbolTableRecord
100
AcDbBlockTableRecord
  2
*Model_Space
340
22
  0
BLOCK_RECORD
  5
1B
330
1
100
AcDbSymbolTableRecord
100
AcDbBlockTableRecord
  2
*Paper_Space
340
1E
  0
BLOCK_RECORD
  5
23
330
1
100
AcDbSymbolTableRecord
100
AcDbBlockTableRecord
  2
*Paper_Space0
340
26
  0
BLOCK_RECORD
  5
5E
330
1
100
AcDbSymbolTableRecord
100
AcDbBlockTableRecord
  2
_NONE
340
0
  0
BLOCK_RECORD
  5
61
330
1
100
AcDbSymbolTableRecord
100
AcDbBlockTableRecord
  2
_OPEN30
340
0
102
{BLKREFS
331
6A
331
77
331
78
331
81
331
82
331
8B
331
F6
331
F7
331
102
331
103
331
10F
331
110
331
11B
331
11C
331
129
331
12A
331
133
331
135
331
17E
331
18C
331
18D
331
196
331
197
331
1E2
331
1E3
102
}
  0
BLOCK_RECORD
  5
67
330
1
100
AcDbSymbolTableRecord
100
AcDbBlockTableRecord
  2
_D
340
0
  0
BLOCK_RECORD
  5
73
330
1
100
AcDbSymbolTableRecord
100
AcDbBlockTableRecord
  2
_D_1
340
0
  0
BLOCK_RECORD
  5
7D
330
1
100
AcDbSymbolTableRecord
100
AcDbBlockTableRecord
  2
_D_2
340
0
  0
BLOCK_RECORD
  5
88
330
1
100
AcDbSymbolTableRecord
100
AcDbBlockTableRecord
  2
_D_3
340
0
  0
BLOCK_RECORD
  5
97
330
1
100
AcDbSymbolTableRecord
100
AcDbBlockTableRecord
  2
SW_NOTE_0
340
0
102
{BLKREFS
331
9D
102
}
  0
BLOCK_RECORD
  5
9E
330
1
100
AcDbSymbolTableRecord
100
AcDbBlockTableRecord
  2
SW_NOTE_1
340
0
102
{BLKREFS
331
A3
102
}
  0
BLOCK_RECORD
  5
A6
330
1
100
AcDbSymbolTableRecord
100
AcDbBlockTableRecord
  2
SW_NOTE_2
340
0
102
{BLKREFS
331
AB
102
}
  0
BLOCK_RECORD
  5
C1
330
1
100
AcDbSymbolTableRecord
100
AcDbBlockTableRecord
  2
SW_NOTE_3
340
0
102
{BLKREFS
331
C7
102
}
  0
BLOCK_RECORD
  5
F3
330
1
100
AcDbSymbolTableRecord
100
AcDbBlockTableRecord
  2
_D_4
340
0
  0
BLOCK_RECORD
  5
FF
330
1
100
AcDbSymbolTableRecord
100
AcDbBlockTableRecord
  2
_D_5
340
0
  0
BLOCK_RECORD
  5
10C
330
1
100
AcDbSymbolTableRecord
100
AcDbBlockTableRecord
  2
_D_6
340
0
  0
BLOCK_RECORD
  5
118
330
1
100
AcDbSymbolTableRecord
100
AcDbBlockTableRecord
  2
_D_7
340
0
  0
BLOCK_RECORD
  5
126
330
1
100
AcDbSymbolTableRecord
100
AcDbBlockTableRecord
  2
_D_8
340
0
  0
BLOCK_RECORD
  5
17B
330
1
100
AcDbSymbolTableRecord
100
AcDbBlockTableRecord
  2
_D_9
340
0
  0
BLOCK_RECORD
  5
188
330
1
100
AcDbSymbolTableRecord
100
AcDbBlockTableRecord
  2
_D_10
340
0
  0
BLOCK_RECORD
  5
192
330
1
100
AcDbSymbolTableRecord
100
AcDbBlockTableRecord
  2
_D_11
340
0
  0
BLOCK_RECORD
  5
1A0
330
1
100
AcDbSymbolTableRecord
100
AcDbBlockTableRecord
  2
SW_NOTE_4
340
0
102
{BLKREFS
331
1AA
102
}
  0
BLOCK_RECORD
  5
1DF
330
1
100
AcDbSymbolTableRecord
100
AcDbBlockTableRecord
  2
_D_12
340
0
  0
BLOCK_RECORD
  5
214
330
1
100
AcDbSymbolTableRecord
100
AcDbBlockTableRecord
  2
SW_NOTE_5
340
0
102
{BLKREFS
331
21A
102
}
  0
ENDTAB
  0
ENDSEC
  0
SECTION
  2
BLOCKS
  0
BLOCK
  5
20
330
1F
100
AcDbEntity
  8
0
100
AcDbBlockBegin
  2
*Model_Space
 70
     0
 10
0.0
 20
0.0
 30
0.0
  3
*Model_Space
  1

  0
ENDBLK
  5
21
330
1F
100
AcDbEntity
  8
0
100
AcDbBlockEnd
  0
BLOCK
  5
1C
330
1B
100
AcDbEntity
 67
     1
  8
0
100
AcDbBlockBegin
  2
*Paper_Space
 70
     0
 10
0.0
 20
0.0
 30
0.0
  3
*Paper_Space
  1

  0
ENDBLK
  5
1D
330
1B
100
AcDbEntity
 67
     1
  8
0
100
AcDbBlockEnd
  0
BLOCK
  5
24
330
23
100
AcDbEntity
  8
0
100
AcDbBlockBegin
  2
*Paper_Space0
 70
     0
 10
0.0
 20
0.0
 30
0.0
  3
*Paper_Space0
  1

  0
ENDBLK
  5
25
330
23
100
AcDbEntity
  8
0
100
AcDbBlockEnd
  0
BLOCK
  5
5F
330
5E
100
AcDbEntity
  8
0
100
AcDbBlockBegin
  2
_NONE
 70
     0
 10
0.0
 20
0.0
 30
0.0
  3
_NONE
  1

  0
ENDBLK
  5
60
330
5E
100
AcDbEntity
  8
0
100
AcDbBlockEnd
  0
BLOCK
  5
62
330
61
100
AcDbEntity
  8
0
100
AcDbBlockBegin
  2
_OPEN30
 70
     0
 10
0.0
 20
0.0
 30
0.0
  3
_OPEN30
  1

  0
LINE
  5
64
330
61
100
AcDbEntity
  8
0
  6
ByBlock
 62
     0
370
    -2
100
AcDbLine
 10
-1.0
 20
0.267949
 30
0.0
 11
0.0
 21
0.0
 31
0.0
  0
LINE
  5
65
330
61
100
AcDbEntity
  8
0
  6
ByBlock
 62
     0
370
    -2
100
AcDbLine
 10
0.0
 20
0.0
 30
0.0
 11
-1.0
 21
-0.267949
 31
0.0
  0
LINE
  5
66
330
61
100
AcDbEntity
  8
0
  6
ByBlock
 62
     0
370
    -2
100
AcDbLine
 10
0.0
 20
0.0
 30
0.0
 11
-1.0
 21
0.0
 31
0.0
  0
ENDBLK
  5
63
330
61
100
AcDbEntity
  8
0
100
AcDbBlockEnd
  0
BLOCK
  5
68
330
67
100
AcDbEntity
  8
0
100
AcDbBlockBegin
  2
_D
 70
     0
 10
0.0
 20
0.0
 30
0.0
  3
_D
  1

  0
INSERT
  5
6A
330
67
100
AcDbEntity
  8
0
  6
Continuous
 62
     7
370
     0
100
AcDbBlockReference
  2
_OPEN30
 10
49.9766744497
 20
125.5145647134
 30
0.1
 41
1.5
 42
1.5
 50
46.2077717297
  0
LINE
  5
6B
330
67
100
AcDbEntity
  8
0
  6
Continuous
 62
     7
370
     0
100
AcDbLine
 10
49.9766744497
 20
125.5145647134
 30
0.0
 11
45.4145098546
 21
120.755891542
 31
0.0
  0
LINE
  5
6C
330
67
100
AcDbEntity
  8
0
  6
Continuous
 62
     7
370
     0
100
AcDbLine
 10
53.4922644025
 20
129.1815835685
 30
0.0
 11
49.9766744497
 21
125.5145647134
 31
0.0
  0
LINE
  5
6D
330
67
100
AcDbEntity
  8
0
  6
Continuous
 62
     7
370
     0
100
AcDbLine
 10
45.4145098546
 20
120.755891542
 30
0.0
 11
21.5966622361
 21
120.755891542
 31
0.0
  0
MTEXT
  5
6E
330
67
100
AcDbEntity
  8
0
  6
Continuous
 62
     7
370
     0
100
AcDbMText
 10
21.5966622361
 20
125.2676288641
 30
0.1
 40
3.5
 41
0.0
 71
     1
 72
     1
  1
%%c
  7
SLDTEXTSTYLE0
 73
     1
 44
1.0
  0
MTEXT
  5
6F
330
67
100
AcDbEntity
  8
0
  6
Continuous
 62
     7
370
     0
100
AcDbMText
 10
25.466592984
 20
125.2676288641
 30
0.1
 40
3.5
 41
0.0
 71
     1
 72
     1
  1
5.08
  7
SLDTEXTSTYLE0
 73
     1
 44
1.0
  0
MTEXT
  5
70
330
67
100
AcDbEntity
  8
0
  6
Continuous
 62
     7
370
     0
100
AcDbMText
 10
34.8533983359
 20
125.2676288641
 30
0.1
 40
3.5
 41
0.0
 71
     1
 72
     1
  1
±0.1
  7
SLDTEXTSTYLE0
 73
     1
 44
1.0
  0
ENDBLK
  5
69
330
67
100
AcDbEntity
  8
0
100
AcDbBlockEnd
  0
BLOCK
  5
74
330
73
100
AcDbEntity
  8
0
100
AcDbBlockBegin
  2
_D_1
 70
     0
 10
0.0
 20
0.0
 30
0.0
  3
_D_1
  1

  0
ARC
  5
76
330
73
100
AcDbEntity
  8
0
  6
Continuous
 62
     7
370
     0
100
AcDbCircle
 10
51.7344694261
 20
127.3480741409
 30
0.0
 40
16.68740954512809
100
AcDbArc
 50
0.0
 51
45.0
  0
INSERT
  5
77
330
73
100
AcDbEntity
  8
0
  6
Continuous
 62
     7
370
     0
100
AcDbBlockReference
  2
_OPEN30
 10
68.4218789712
 20
127.3480741409
 30
0.1
 41
1.5
 42
1.5
 50
272.5682030927
  0
INSERT
  5
78
330
73
100
AcDbEntity
  8
0
  6
Continuous
 62
     7
370
     0
100
AcDbBlockReference
  2
_OPEN30
 10
63.5342498759
 20
139.1478545907
 30
0.1
 41
1.5
 42
1.5
 50
132.4317969073
  0
LINE
  5
79
330
73
100
AcDbEntity
  8
0
  6
Continuous
 62
     7
370
     0
100
AcDbLine
 10
56.6741111514
 20
127.3480741409
 30
0.0
 11
69.4218789712
 21
127.3480741409
 31
0.0
  0
LINE
  5
7A
330
73
100
AcDbEntity
  8
0
  6
Continuous
 62
     7
370
     0
100
AcDbLine
 10
54.2376274315
 20
129.8512321463
 30
0.0
 11
64.2413566571
 21
139.8549613719
 31
0.0
  0
MTEXT
  5
7B
330
73
100
AcDbEntity
  8
0
  6
Continuous
 62
     7
370
     0
100
AcDbMText
 10
70.6572227797
 20
138.2754933162
 30
0.1
 40
3.5
 41
0.0
 71
     1
 72
     1
  1
45°
  7
SLDTEXTSTYLE0
 11
0.2751694437706613
 21
-0.9613957443295372
 31
0.0
 73
     1
 44
1.0
  0
ENDBLK
  5
75
330
73
100
AcDbEntity
  8
0
100
AcDbBlockEnd
  0
BLOCK
  5
7E
330
7D
100
AcDbEntity
  8
0
100
AcDbBlockBegin
  2
_D_2
 70
     0
 10
0.0
 20
0.0
 30
0.0
  3
_D_2
  1

  0
ARC
  5
80
330
7D
100
AcDbEntity
  8
0
  6
Continuous
 62
     7
370
     0
100
AcDbCircle
 10
51.7344694261
 20
127.3480741409
 30
0.0
 40
16.55045093580952
100
AcDbArc
 50
315.0
 51
0.0
  0
INSERT
  5
81
330
7D
100
AcDbEntity
  8
0
  6
Continuous
 62
     7
370
     0
100
AcDbBlockReference
  2
_OPEN30
 10
63.4374055145
 20
115.6451380525
 30
0.1
 41
1.5
 42
1.5
 50
227.5893404481
  0
INSERT
  5
82
330
7D
100
AcDbEntity
  8
0
  6
Continuous
 62
     7
370
     0
100
AcDbBlockReference
  2
_OPEN30
 10
68.2849203619
 20
127.3480741409
 30
0.1
 41
1.5
 42
1.5
 50
87.4106595519
  0
LINE
  5
83
330
7D
100
AcDbEntity
  8
0
  6
Continuous
 62
     7
370
     0
100
AcDbLine
 10
54.2376274315
 20
124.8449161355
 30
0.0
 11
64.1445122957
 21
114.9380312713
 31
0.0
  0
LINE
  5
84
330
7D
100
AcDbEntity
  8
0
  6
Continuous
 62
     7
370
     0
100
AcDbLine
 10
56.6741111514
 20
127.3480741409
 30
0.0
 11
69.2849203619
 21
127.3480741409
 31
0.0
  0
MTEXT
  5
85
330
7D
100
AcDbEntity
  8
0
  6
Continuous
 62
     7
370
     0
100
AcDbMText
 10
62.1024631488
 20
119.2542110945
 30
0.1
 40
3.5
 41
0.0
 71
     1
 72
     1
  1
45°
  7
SLDTEXTSTYLE0
 11
0.2456779600317648
 21
0.9693515048498303
 31
0.0
 73
     1
 44
1.0
  0
ENDBLK
  5
7F
330
7D
100
AcDbEntity
  8
0
100
AcDbBlockEnd
  0
BLOCK
  5
89
330
88
100
AcDbEntity
  8
0
100
AcDbBlockBegin
  2
_D_3
 70
     0
 10
0.0
 20
0.0
 30
0.0
  3
_D_3
  1

  0
INSERT
  5
8B
330
88
100
AcDbEntity
  8
0
  6
Continuous
 62
     7
370
     0
100
AcDbBlockReference
  2
_OPEN30
 10
49.7753002795
 20
129.4252259582
 30
0.1
 41
1.5
 42
1.5
 50
300.1258688982
  0
LINE
  5
8C
330
88
100
AcDbEntity
  8
0
  6
Continuous
 62
     7
370
     0
100
AcDbLine
 10
49.7753002795
 20
129.4252259582
 30
0.0
 11
47.0527034694
 21
134.1170683174
 31
0.0
  0
LINE
  5
8D
330
88
100
AcDbEntity
  8
0
  6
Continuous
 62
     7
370
     0
100
AcDbLine
 10
50.1015361243
 20
128.8630247721
 30
0.0
 11
49.7753002795
 21
129.4252259582
 31
0.0
  0
LINE
  5
8E
330
88
100
AcDbEntity
  8
0
  6
Continuous
 62
     7
370
     0
100
AcDbLine
 10
47.0527034694
 20
134.1170683174
 30
0.0
 11
19.9584686214
 21
134.1170683174
 31
0.0
  0
MTEXT
  5
8F
330
88
100
AcDbEntity
  8
0
  6
Continuous
 62
     7
370
     0
100
AcDbMText
 10
19.9584686214
 20
138.628806105
 30
0.1
 40
3.5
 41
0.0
 71
     1
 72
     1
  1
3-
  7
SLDTEXTSTYLE0
 73
     1
 44
1.0
  0
MTEXT
  5
90
330
88
100
AcDbEntity
  8
0
  6
Continuous
 62
     7
370
     0
100
AcDbMText
 10
24.0320796163
 20
138.628806105
 30
0.1
 40
3.5
 41
0.0
 71
     1
 72
     1
  1
%%c
  7
SLDTEXTSTYLE0
 73
     1
 44
1.0
  0
MTEXT
  5
91
330
88
100
AcDbEntity
  8
0
  6
Continuous
 62
     7
370
     0
100
AcDbMText
 10
27.9020103642
 20
138.628806105
 30
0.1
 40
3.5
 41
0.0
 71
     1
 72
     1
  1
0.65
  7
SLDTEXTSTYLE0
 73
     1
 44
1.0
  0
MTEXT
  5
92
330
88
100
AcDbEntity
  8
0
  6
Continuous
 62
     7
370
     0
100
AcDbMText
 10
38.4919402504
 20
138.628806105
 30
0.1
 40
3.5
 41
0.0
 71
     1
 72
     1
  1

  7
SLDTEXTSTYLE0
 73
     1
 44
1.0
  0
MTEXT
  5
93
330
88
100
AcDbEntity
  8
0
  6
Continuous
 62
     7
370
     0
100
AcDbMText
 10
38.5284000093
 20
142.7024171
 30
0.1
 40
3.5
 41
0.0
 71
     1
 72
     1
  1
+
  7
SLDTEXTSTYLE0
 73
     1
 44
1.0
  0
MTEXT
  5
94
330
88
100
AcDbEntity
  8
0
  6
Continuous
 62
     7
370
     0
100
AcDbMText
 10
40.1301360771
 20
138.628806105
 30
0.1
 40
3.5
 41
0.0
 71
     1
 72
     1
  1

  7
SLDTEXTSTYLE0
 73
     1
 44
1.0
  0
MTEXT
  5
95
330
88
100
AcDbEntity
  8
0
  6
Continuous
 62
     7
370
     0
100
AcDbMText
 10
40.5652043426
 20
142.7024171
 30
0.1
 40
3.5
 41
0.0
 71
     1
 72
     1
  1
0.1
  7
SLDTEXTSTYLE0
 73
     1
 44
1.0
  0
MTEXT
  5
96
330
88
100
AcDbEntity
  8
0
  6
Continuous
 62
     7
370
     0
100
AcDbMText
 10
40.5652043426
 20
138.628806105
 30
0.1
 40
3.5
 41
0.0
 71
     1
 72
     1
  1
0
  7
SLDTEXTSTYLE0
 73
     1
 44
1.0
  0
ENDBLK
  5
8A
330
88
100
AcDbEntity
  8
0
100
AcDbBlockEnd
  0
BLOCK
  5
98
330
97
100
AcDbEntity
  8
0
100
AcDbBlockBegin
  2
SW_NOTE_0
 70
     0
 10
0.0
 20
0.0
 30
0.0
  3
SW_NOTE_0
  1

  0
MTEXT
  5
9A
330
97
100
AcDbEntity
  8
0
  6
Continuous
 62
     0
370
     0
100
AcDbMText
 10
0.0
 20
4.5117370892
 30
0.0
 40
3.5
 41
0.0
 71
     1
 72
     1
  1
Recommended
  7
SLDTEXTSTYLE0
 73
     1
 44
1.0
  0
MTEXT
  5
9B
330
97
100
AcDbEntity
  8
0
  6
Continuous
 62
     0
370
     0
100
AcDbMText
 10
0.0
 20
0.0117372829
 30
0.0
 40
3.5
 41
0.0
 71
     1
 72
     1
  1
panel mouting hole
  7
SLDTEXTSTYLE0
 73
     1
 44
1.0
  0
MTEXT
  5
9C
330
97
100
AcDbEntity
  8
0
  6
Continuous
 62
     0
370
     0
100
AcDbMText
 10
0.0
 20
-4.4882625234
 30
0.0
 40
3.5
 41
0.0
 71
     1
 72
     1
  1
dimensions
  7
SLDTEXTSTYLE0
 73
     1
 44
1.0
  0
ENDBLK
  5
99
330
97
100
AcDbEntity
  8
0
100
AcDbBlockEnd
  0
BLOCK
  5
9F
330
9E
100
AcDbEntity
  8
0
100
AcDbBlockBegin
  2
SW_NOTE_1
 70
     0
 10
0.0
 20
0.0
 30
0.0
  3
SW_NOTE_1
  1

  0
MTEXT
  5
A1
330
9E
100
AcDbEntity
  8
0
  6
Continuous
 62
     0
370
     0
100
AcDbMText
 10
0.0
 20
4.5117370892
 30
0.0
 40
3.5
 41
0.0
 71
     1
 72
     1
  1
Recommended
  7
SLDTEXTSTYLE0
 73
     1
 44
1.0
  0
MTEXT
  5
A2
330
9E
100
AcDbEntity
  8
0
  6
Continuous
 62
     0
370
     0
100
AcDbMText
 10
0.0
 20
0.0117372829
 30
0.0
 40
3.5
 41
0.0
 71
     1
 72
     1
  1
PC board pattern
  7
SLDTEXTSTYLE0
 73
     1
 44
1.0
  0
ENDBLK
  5
A0
330
9E
100
AcDbEntity
  8
0
100
AcDbBlockEnd
  0
BLOCK
  5
A7
330
A6
100
AcDbEntity
  8
0
100
AcDbBlockBegin
  2
SW_NOTE_2
 70
     0
 10
0.0
 20
0.0
 30
0.0
  3
SW_NOTE_2
  1

  0
MTEXT
  5
A9
330
A6
100
AcDbEntity
  8
0
  6
Continuous
 62
     0
370
     0
100
AcDbMText
 10
0.0
 20
4.7749217527
 30
0.0
 40
3.7041666667
 41
0.0
 71
     1
 72
     1
  1
Note1 : As for panel mouting hole, tapering or making
  7
SLDTEXTSTYLE0
 73
     1
 44
1.0
  0
MTEXT
  5
AA
330
A6
100
AcDbEntity
  8
0
  6
Continuous
 62
     0
370
     0
100
AcDbMText
 10
14.0063802083
 20
-0.1639670765
 30
0.0
 40
3.7041666667
 41
0.0
 71
     1
 72
     1
  1
a large size hole should be done.
  7
SLDTEXTSTYLE0
 73
     1
 44
1.0
  0
ENDBLK
  5
A8
330
A6
100
AcDbEntity
  8
0
100
AcDbBlockEnd
  0
BLOCK
  5
C2
330
C1
100
AcDbEntity
  8
0
100
AcDbBlockBegin
  2
SW_NOTE_3
 70
     0
 10
0.0
 20
0.0
 30
0.0
  3
SW_NOTE_3
  1

  0
MTEXT
  5
C5
330
C1
100
AcDbEntity
  8
0
  6
Continuous
 62
     0
370
     0
100
AcDbMText
 10
0.0
 20
4.7749217527
 30
0.0
 40
3.7041666667
 41
0.0
 71
     1
 72
     1
  1
±0.5     mm
  7
SLDTEXTSTYLE1
 73
     1
 44
1.0
  0
MTEXT
  5
C6
330
C1
100
AcDbEntity
  8
0
  6
Continuous
 62
     0
370
     0
100
AcDbMText
 10
0.0
 20
-0.1639670765
 30
0.0
 40
3.7041666667
 41
0.0
 71
     1
 72
     1
  1
(±0.020 inch)
  7
SLDTEXTSTYLE0
 73
     1
 44
1.0
  0
ENDBLK
  5
C3
330
C1
100
AcDbEntity
  8
0
100
AcDbBlockEnd
  0
BLOCK
  5
F4
330
F3
100
AcDbEntity
  8
0
100
AcDbBlockBegin
  2
_D_4
 70
     0
 10
0.0
 20
0.0
 30
0.0
  3
_D_4
  1

  0
INSERT
  5
F6
330
F3
100
AcDbEntity
  8
0
  6
Continuous
 62
     7
370
     0
100
AcDbBlockReference
  2
_OPEN30
 10
164.6899686257
 20
205.8981986649
 30
0.1
 41
1.5
 42
1.5
 50
90.0
  0
INSERT
  5
F7
330
F3
100
AcDbEntity
  8
0
  6
Continuous
 62
     7
370
     0
100
AcDbBlockReference
  2
_OPEN30
 10
164.6899686257
 20
201.3481996649
 30
0.1
 41
1.5
 42
1.5
 50
270.0
  0
LINE
  5
F8
330
F3
100
AcDbEntity
  8
0
  6
Continuous
 62
     7
370
     0
100
AcDbLine
 10
152.9616846766
 20
205.8981986649
 30
0.0
 11
165.6899686257
 21
205.8981986649
 31
0.0
  0
LINE
  5
F9
330
F3
100
AcDbEntity
  8
0
  6
Continuous
 62
     7
370
     0
100
AcDbLine
 10
149.4782073756
 20
201.3481996649
 30
0.0
 11
165.6899686257
 21
201.3481996649
 31
0.0
  0
LINE
  5
FA
330
F3
100
AcDbEntity
  8
0
  6
Continuous
 62
     7
370
     0
100
AcDbLine
 10
164.6899686257
 20
205.8981986649
 30
0.0
 11
164.6899686257
 21
201.3481996649
 31
0.0
  0
LINE
  5
FB
330
F3
100
AcDbEntity
  8
0
  6
Continuous
 62
     7
370
     0
100
AcDbLine
 10
164.6899686257
 20
201.3481996649
 30
0.0
 11
164.6899686257
 21
192.517417815
 31
0.0
  0
MTEXT
  5
FC
330
F3
100
AcDbEntity
  8
0
  6
Continuous
 62
     7
370
     0
100
AcDbMText
 10
160.1782317693
 20
192.517417815
 30
0.1
 40
3.5
 41
0.0
 71
     1
 72
     1
  1
4.5
  7
SLDTEXTSTYLE0
 11
-7.044195017643634E-15
 21
1.0
 31
0.0
 73
     1
 44
1.0
  0
ENDBLK
  5
F5
330
F3
100
AcDbEntity
  8
0
100
AcDbBlockEnd
  0
BLOCK
  5
100
330
FF
100
AcDbEntity
  8
0
100
AcDbBlockBegin
  2
_D_5
 70
     0
 10
0.0
 20
0.0
 30
0.0
  3
_D_5
  1

  0
INSERT
  5
102
330
FF
100
AcDbEntity
  8
0
  6
Continuous
 62
     7
370
     0
100
AcDbBlockReference
  2
_OPEN30
 10
140.8636709218
 20
193.613087215
 30
0.1
 41
1.5
 42
1.5
 50
359.6360363418
  0
INSERT
  5
103
330
FF
100
AcDbEntity
  8
0
  6
Continuous
 62
     7
370
     0
100
AcDbBlockReference
  2
_OPEN30
 10
151.883199447
 20
193.543086215
 30
0.1
 41
1.5
 42
1.5
 50
179.6360363418
  0
LINE
  5
104
330
FF
100
AcDbEntity
  8
0
  6
Continuous
 62
     7
370
     0
100
AcDbLine
 10
140.93580383
 20
204.9682198411
 30
0.0
 11
140.8573186003
 21
192.6131073912
 31
0.0
  0
LINE
  5
105
330
FF
100
AcDbEntity
  8
0
  6
Continuous
 62
     7
370
     0
100
AcDbLine
 10
151.9553323551
 20
204.8982188411
 30
0.0
 11
151.8768471255
 21
192.5431063912
 31
0.0
  0
LINE
  5
106
330
FF
100
AcDbEntity
  8
0
  6
Continuous
 62
     7
370
     0
100
AcDbLine
 10
140.8636709218
 20
193.613087215
 30
0.0
 11
137.8637314504
 21
193.6321441794
 31
0.0
  0
LINE
  5
107
330
FF
100
AcDbEntity
  8
0
  6
Continuous
 62
     7
370
     0
100
AcDbLine
 10
140.8636709218
 20
193.613087215
 30
0.0
 11
151.883199447
 21
193.543086215
 31
0.0
  0
LINE
  5
108
330
FF
100
AcDbEntity
  8
0
  6
Continuous
 62
     7
370
     0
100
AcDbLine
 10
151.883199447
 20
193.543086215
 30
0.0
 11
154.8831389184
 21
193.5240292505
 31
0.0
  0
MTEXT
  5
109
330
FF
100
AcDbEntity
  8
0
  6
Continuous
 62
     7
370
     0
100
AcDbMText
 10
139.7037669574
 20
198.1322838
 30
0.1
 40
3.5
 41
0.0
 71
     1
 72
     1
  1
%%c
  7
SLDTEXTSTYLE0
 11
0.9999798238024278
 21
-0.006352321470567602
 31
0.0
 73
     1
 44
1.0
  0
MTEXT
  5
10A
330
FF
100
AcDbEntity
  8
0
  6
Continuous
 62
     7
370
     0
100
AcDbMText
 10
143.5736196248
 20
198.1077007559
 30
0.1
 40
3.5
 41
0.0
 71
     1
 72
     1
  1
11
  7
SLDTEXTSTYLE0
 11
0.9999798238024278
 21
-0.006352321470567602
 31
0.0
 73
     1
 44
1.0
  0
ENDBLK
  5
101
330
FF
100
AcDbEntity
  8
0
100
AcDbBlockEnd
  0
BLOCK
  5
10D
330
10C
100
AcDbEntity
  8
0
100
AcDbBlockBegin
  2
_D_6
 70
     0
 10
0.0
 20
0.0
 30
0.0
  3
_D_6
  1

  0
INSERT
  5
10F
330
10C
100
AcDbEntity
  8
0
  6
Continuous
 62
     7
370
     0
100
AcDbBlockReference
  2
_OPEN30
 10
164.6899686257
 20
205.9681996649
 30
0.1
 41
1.5
 42
1.5
 50
90.0
  0
INSERT
  5
110
330
10C
100
AcDbEntity
  8
0
  6
Continuous
 62
     7
370
     0
100
AcDbBlockReference
  2
_OPEN30
 10
164.6899686257
 20
221.0681996649
 30
0.1
 41
1.5
 42
1.5
 50
270.0
  0
LINE
  5
111
330
10C
100
AcDbEntity
  8
0
  6
Continuous
 62
     7
370
     0
100
AcDbLine
 10
152.9721561514
 20
205.9681996649
 30
0.0
 11
165.6899686257
 21
205.9681996649
 31
0.0
  0
LINE
  5
112
330
10C
100
AcDbEntity
  8
0
  6
Continuous
 62
     7
370
     0
100
AcDbLine
 10
151.5171561514
 20
221.0681996649
 30
0.0
 11
165.6899686257
 21
221.0681996649
 31
0.0
  0
LINE
  5
113
330
10C
100
AcDbEntity
  8
0
  6
Continuous
 62
     7
370
     0
100
AcDbLine
 10
164.6899686257
 20
205.9681996649
 30
0.0
 11
164.6899686257
 21
202.9681996649
 31
0.0
  0
LINE
  5
114
330
10C
100
AcDbEntity
  8
0
  6
Continuous
 62
     7
370
     0
100
AcDbLine
 10
164.6899686257
 20
205.9681996649
 30
0.0
 11
164.6899686257
 21
221.0681996649
 31
0.0
  0
LINE
  5
115
330
10C
100
AcDbEntity
  8
0
  6
Continuous
 62
     7
370
     0
100
AcDbLine
 10
164.6899686257
 20
221.0681996649
 30
0.0
 11
164.6899686257
 21
224.0681996649
 31
0.0
  0
MTEXT
  5
116
330
10C
100
AcDbEntity
  8
0
  6
Continuous
 62
     7
370
     0
100
AcDbMText
 10
160.1782317693
 20
208.8429663593
 30
0.1
 40
3.5
 41
0.0
 71
     1
 72
     1
  1
15.1
  7
SLDTEXTSTYLE0
 11
6.123233995736766E-17
 21
1.0
 31
0.0
 73
     1
 44
1.0
  0
ENDBLK
  5
10E
330
10C
100
AcDbEntity
  8
0
100
AcDbBlockEnd
  0
BLOCK
  5
119
330
118
100
AcDbEntity
  8
0
100
AcDbBlockBegin
  2
_D_7
 70
     0
 10
0.0
 20
0.0
 30
0.0
  3
_D_7
  1

  0
INSERT
  5
11B
330
118
100
AcDbEntity
  8
0
  6
Continuous
 62
     7
370
     0
100
AcDbBlockReference
  2
_OPEN30
 10
150.9171561514
 20
227.2601459534
 30
0.1
 41
1.5
 42
1.5
 50
180.0
  0
INSERT
  5
11C
330
118
100
AcDbEntity
  8
0
  6
Continuous
 62
     7
370
     0
100
AcDbBlockReference
  2
_OPEN30
 10
141.9971561514
 20
227.2601459534
 30
0.1
 41
1.5
 42
1.5
 50
0.0
  0
LINE
  5
11D
330
118
100
AcDbEntity
  8
0
  6
Continuous
 62
     7
370
     0
100
AcDbLine
 10
150.9171561514
 20
221.6681996649
 30
0.0
 11
150.9171561514
 21
228.2601459534
 31
0.0
  0
LINE
  5
11E
330
118
100
AcDbEntity
  8
0
  6
Continuous
 62
     7
370
     0
100
AcDbLine
 10
141.9971561514
 20
221.6681996649
 30
0.0
 11
141.9971561514
 21
228.2601459534
 31
0.0
  0
LINE
  5
11F
330
118
100
AcDbEntity
  8
0
  6
Continuous
 62
     7
370
     0
100
AcDbLine
 10
150.9171561514
 20
227.2601459534
 30
0.0
 11
153.9171561514
 21
227.2601459534
 31
0.0
  0
LINE
  5
120
330
118
100
AcDbEntity
  8
0
  6
Continuous
 62
     7
370
     0
100
AcDbLine
 10
150.9171561514
 20
227.2601459534
 30
0.0
 11
141.9971561514
 21
227.2601459534
 31
0.0
  0
LINE
  5
121
330
118
100
AcDbEntity
  8
0
  6
Continuous
 62
     7
370
     0
100
AcDbLine
 10
141.9971561514
 20
227.2601459534
 30
0.0
 11
138.9971561514
 21
227.2601459534
 31
0.0
  0
MTEXT
  5
122
330
118
100
AcDbEntity
  8
0
  6
Continuous
 62
     7
370
     0
100
AcDbMText
 10
139.0163414624
 20
231.7718832755
 30
0.1
 40
3.5
 41
0.0
 71
     1
 72
     1
  1
%%c
  7
SLDTEXTSTYLE0
 73
     1
 44
1.0
  0
MTEXT
  5
123
330
118
100
AcDbEntity
  8
0
  6
Continuous
 62
     7
370
     0
100
AcDbMText
 10
142.8862722103
 20
231.7718832755
 30
0.1
 40
3.5
 41
0.0
 71
     1
 72
     1
  1
8.9
  7
SLDTEXTSTYLE0
 73
     1
 44
1.0
  0
ENDBLK
  5
11A
330
118
100
AcDbEntity
  8
0
100
AcDbBlockEnd
  0
BLOCK
  5
127
330
126
100
AcDbEntity
  8
0
100
AcDbBlockBegin
  2
_D_8
 70
     0
 10
0.0
 20
0.0
 30
0.0
  3
_D_8
  1

  0
INSERT
  5
129
330
126
100
AcDbEntity
  8
0
  6
Continuous
 62
     7
370
     0
100
AcDbBlockReference
  2
_OPEN30
 10
144.4361049272
 20
202.4742968376
 30
0.1
 41
1.5
 42
1.5
 50
0.0
  0
INSERT
  5
12A
330
126
100
AcDbEntity
  8
0
  6
Continuous
 62
     7
370
     0
100
AcDbBlockReference
  2
_OPEN30
 10
144.8861049272
 20
202.4742968376
 30
0.1
 41
1.5
 42
1.5
 50
180.0
  0
LINE
  5
12B
330
126
100
AcDbEntity
  8
0
  6
Continuous
 62
     7
370
     0
100
AcDbLine
 10
144.4361049272
 20
202.4742968376
 30
0.0
 11
110.0945965464
 21
202.4742968376
 31
0.0
  0
LINE
  5
12C
330
126
100
AcDbEntity
  8
0
  6
Continuous
 62
     7
370
     0
100
AcDbLine
 10
144.4361049272
 20
202.4742968376
 30
0.0
 11
144.8861049272
 21
202.4742968376
 31
0.0
  0
LINE
  5
12D
330
126
100
AcDbEntity
  8
0
  6
Continuous
 62
     7
370
     0
100
AcDbLine
 10
144.8861049272
 20
202.4742968376
 30
0.0
 11
147.8861049272
 21
202.4742968376
 31
0.0
  0
MTEXT
  5
12E
330
126
100
AcDbEntity
  8
0
  6
Continuous
 62
     7
370
     0
100
AcDbMText
 10
110.0945965464
 20
206.9860341596
 30
0.1
 40
3.5
 41
0.0
 71
     1
 72
     1
  1
%%c
  7
SLDTEXTSTYLE0
 73
     1
 44
1.0
  0
MTEXT
  5
12F
330
126
100
AcDbEntity
  8
0
  6
Continuous
 62
     7
370
     0
100
AcDbMText
 10
113.9645272943
 20
206.9860341596
 30
0.1
 40
3.5
 41
0.0
 71
     1
 72
     1
  1
0.45
  7
SLDTEXTSTYLE0
 73
     1
 44
1.0
  0
MTEXT
  5
130
330
126
100
AcDbEntity
  8
0
  6
Continuous
 62
     7
370
     0
100
AcDbMText
 10
124.5544576461
 20
206.9860341596
 30
0.1
 40
3.5
 41
0.0
 71
     1
 72
     1
  1
±0.05
  7
SLDTEXTSTYLE0
 73
     1
 44
1.0
  0
ENDBLK
  5
128
330
126
100
AcDbEntity
  8
0
100
AcDbBlockEnd
  0
BLOCK
  5
17C
330
17B
100
AcDbEntity
  8
0
100
AcDbBlockBegin
  2
_D_9
 70
     0
 10
0.0
 20
0.0
 30
0.0
  3
_D_9
  1

  0
INSERT
  5
17E
330
17B
100
AcDbEntity
  8
0
  6
Continuous
 62
     7
370
     0
100
AcDbBlockReference
  2
_OPEN30
 10
144.6359985099
 20
162.4410029938
 30
0.1
 41
1.5
 42
1.5
 50
315.8066235818
  0
LINE
  5
17F
330
17B
100
AcDbEntity
  8
0
  6
Continuous
 62
     7
370
     0
100
AcDbLine
 10
144.6359985099
 20
162.4410029938
 30
0.0
 11
135.6031187177
 21
171.2230632612
 31
0.0
  0
LINE
  5
180
330
17B
100
AcDbEntity
  8
0
  6
Continuous
 62
     7
370
     0
100
AcDbLine
 10
148.278313793
 20
158.8998253113
 30
0.0
 11
144.6359985099
 21
162.4410029938
 31
0.0
  0
LINE
  5
181
330
17B
100
AcDbEntity
  8
0
  6
Continuous
 62
     7
370
     0
100
AcDbLine
 10
135.6031187177
 20
171.2230632612
 30
0.0
 11
100.2109636426
 21
171.2230632612
 31
0.0
  0
MTEXT
  5
182
330
17B
100
AcDbEntity
  8
0
  6
Continuous
 62
     7
370
     0
100
AcDbMText
 10
100.2109636426
 20
175.7348005832
 30
0.1
 40
3.5
 41
0.0
 71
     1
 72
     1
  1
P.D.C.
  7
SLDTEXTSTYLE0
 73
     1
 44
1.0
  0
MTEXT
  5
183
330
17B
100
AcDbEntity
  8
0
  6
Continuous
 62
     7
370
     0
100
AcDbMText
 10
110.545685409
 20
175.7348005832
 30
0.1
 40
3.5
 41
0.0
 71
     1
 72
     1
  1
%%c
  7
SLDTEXTSTYLE0
 73
     1
 44
1.0
  0
MTEXT
  5
184
330
17B
100
AcDbEntity
  8
0
  6
Continuous
 62
     7
370
     0
100
AcDbMText
 10
114.4156166225
 20
175.7348005832
 30
0.1
 40
3.5
 41
0.0
 71
     1
 72
     1
  1
5.08
  7
SLDTEXTSTYLE0
 73
     1
 44
1.0
  0
MTEXT
  5
185
330
17B
100
AcDbEntity
  8
0
  6
Continuous
 62
     7
370
     0
100
AcDbMText
 10
125.00554744
 20
175.7348005832
 30
0.1
 40
3.5
 41
0.0
 71
     1
 72
     1
  1
±0.2
  7
SLDTEXTSTYLE0
 73
     1
 44
1.0
  0
ENDBLK
  5
17D
330
17B
100
AcDbEntity
  8
0
100
AcDbBlockEnd
  0
BLOCK
  5
189
330
188
100
AcDbEntity
  8
0
100
AcDbBlockBegin
  2
_D_10
 70
     0
 10
0.0
 20
0.0
 30
0.0
  3
_D_10
  1

  0
ARC
  5
18B
330
188
100
AcDbEntity
  8
0
  6
Continuous
 62
     7
370
     0
100
AcDbCircle
 10
146.4571561514
 20
160.6704141525
 30
0.0
 40
23.90862276355114
100
AcDbArc
 50
225.0
 51
270.0
  0
INSERT
  5
18C
330
188
100
AcDbEntity
  8
0
  6
Continuous
 62
     7
370
     0
100
AcDbBlockReference
  2
_OPEN30
 10
129.5512068665
 20
143.7644648676
 30
0.1
 41
1.5
 42
1.5
 50
136.7949836098
  0
INSERT
  5
18D
330
188
100
AcDbEntity
  8
0
  6
Continuous
 62
     7
370
     0
100
AcDbBlockReference
  2
_OPEN30
 10
146.4571561514
 20
136.761791389
 30
0.1
 41
1.5
 42
1.5
 50
358.2050163902
  0
LINE
  5
18E
330
188
100
AcDbEntity
  8
0
  6
Continuous
 62
     7
370
     0
100
AcDbLine
 10
143.953998146
 20
158.1672561471
 30
0.0
 11
128.8441000853
 21
143.0573580864
 31
0.0
  0
LINE
  5
18F
330
188
100
AcDbEntity
  8
0
  6
Continuous
 62
     7
370
     0
100
AcDbLine
 10
146.4571561514
 20
152.2692413204
 30
0.0
 11
146.4571561514
 21
135.761791389
 31
0.0
  0
MTEXT
  5
190
330
188
100
AcDbEntity
  8
0
  6
Continuous
 62
     7
370
     0
100
AcDbMText
 10
132.062981871
 20
146.630392577
 30
0.1
 40
3.5
 41
0.0
 71
     1
 72
     1
  1
45°
  7
SLDTEXTSTYLE0
 11
0.8622046918899933
 21
-0.5065600352207837
 31
0.0
 73
     1
 44
1.0
  0
ENDBLK
  5
18A
330
188
100
AcDbEntity
  8
0
100
AcDbBlockEnd
  0
BLOCK
  5
193
330
192
100
AcDbEntity
  8
0
100
AcDbBlockBegin
  2
_D_11
 70
     0
 10
0.0
 20
0.0
 30
0.0
  3
_D_11
  1

  0
ARC
  5
195
330
192
100
AcDbEntity
  8
0
  6
Continuous
 62
     7
370
     0
100
AcDbCircle
 10
146.4571561514
 20
160.6704141525
 30
0.0
 40
23.93973569458947
100
AcDbArc
 50
270.0
 51
315.0
  0
INSERT
  5
196
330
192
100
AcDbEntity
  8
0
  6
Continuous
 62
     7
370
     0
100
AcDbBlockReference
  2
_OPEN30
 10
146.4571561514
 20
136.730678458
 30
0.1
 41
1.5
 42
1.5
 50
181.7926568743
  0
INSERT
  5
197
330
192
100
AcDbEntity
  8
0
  6
Continuous
 62
     7
370
     0
100
AcDbBlockReference
  2
_OPEN30
 10
163.3851056009
 20
143.7424647031
 30
0.1
 41
1.5
 42
1.5
 50
43.2073431257
  0
LINE
  5
198
330
192
100
AcDbEntity
  8
0
  6
Continuous
 62
     7
370
     0
100
AcDbLine
 10
146.4571561514
 20
152.2692413204
 30
0.0
 11
146.4571561514
 21
135.730678458
 31
0.0
  0
LINE
  5
199
330
192
100
AcDbEntity
  8
0
  6
Continuous
 62
     7
370
     0
100
AcDbLine
 10
148.9603141568
 20
158.1672561471
 30
0.0
 11
164.0922123821
 21
143.0353579219
 31
0.0
  0
MTEXT
  5
19A
330
192
100
AcDbEntity
  8
0
  6
Continuous
 62
     7
370
     0
100
AcDbMText
 10
145.9457011888
 20
140.5393230534
 30
0.1
 40
3.5
 41
0.0
 71
     1
 72
     1
  1
45°
  7
SLDTEXTSTYLE0
 11
0.9711345185266339
 21
0.2385324861020885
 31
0.0
 73
     1
 44
1.0
  0
ENDBLK
  5
194
330
192
100
AcDbEntity
  8
0
100
AcDbBlockEnd
  0
BLOCK
  5
1A1
330
1A0
100
AcDbEntity
  8
0
100
AcDbBlockBegin
  2
SW_NOTE_4
 70
     0
 10
0.0
 20
0.0
 30
0.0
  3
SW_NOTE_4
  1

  0
LINE
  5
1A3
330
1A0
100
AcDbEntity
  8
0
  6
Continuous
 62
     0
370
     0
100
AcDbLine
 10
0.0
 20
0.0
 30
0.0
 11
6.6
 21
0.0
 31
0.0
  0
LINE
  5
1A4
330
1A0
100
AcDbEntity
  8
0
  6
Continuous
 62
     0
370
     0
100
AcDbLine
 10
6.6
 20
0.0
 30
0.0
 11
0.0
 21
0.0
 31
0.0
  0
LINE
  5
1A5
330
1A0
100
AcDbEntity
  8
0
  6
Continuous
 62
     0
370
     0
100
AcDbLine
 10
0.0
 20
0.0
 30
0.0
 11
6.6
 21
0.0
 31
0.0
  0
LINE
  5
1A6
330
1A0
100
AcDbEntity
  8
0
  6
Continuous
 62
     0
370
     0
100
AcDbLine
 10
6.6
 20
0.0
 30
0.0
 11
0.0
 21
0.0
 31
0.0
  0
LINE
  5
1A7
330
1A0
100
AcDbEntity
  8
0
  6
Continuous
 62
     0
370
     0
100
AcDbLine
 10
0.0
 20
0.0
 30
0.0
 11
6.6
 21
0.0
 31
0.0
  0
LINE
  5
1A8
330
1A0
100
AcDbEntity
  8
0
  6
Continuous
 62
     0
370
     0
100
AcDbLine
 10
6.6
 20
0.0
 30
0.0
 11
0.0
 21
0.0
 31
0.0
  0
MTEXT
  5
1A9
330
1A0
100
AcDbEntity
  8
0
  6
Continuous
 62
     0
370
     0
100
AcDbMText
 10
0.0517597881
 20
4.5479949069
 30
0.0
 40
3.5
 41
0.0
 71
     1
 72
     1
  1
Vdd
  7
SLDTEXTSTYLE0
 73
     1
 44
1.0
  0
ENDBLK
  5
1A2
330
1A0
100
AcDbEntity
  8
0
100
AcDbBlockEnd
  0
BLOCK
  5
1E0
330
1DF
100
AcDbEntity
  8
0
100
AcDbBlockBegin
  2
_D_12
 70
     0
 10
0.0
 20
0.0
 30
0.0
  3
_D_12
  1

  0
INSERT
  5
1E2
330
1DF
100
AcDbEntity
  8
0
  6
Continuous
 62
     7
370
     0
100
AcDbBlockReference
  2
_OPEN30
 10
47.5927852907
 20
197.9964964387
 30
0.1
 41
1.5
 42
1.5
 50
0.0
  0
INSERT
  5
1E3
330
1DF
100
AcDbEntity
  8
0
  6
Continuous
 62
     7
370
     0
100
AcDbBlockReference
  2
_OPEN30
 10
56.9927852907
 20
197.9964964387
 30
0.1
 41
1.5
 42
1.5
 50
180.0
  0
LINE
  5
1E4
330
1DF
100
AcDbEntity
  8
0
  6
Continuous
 62
     7
370
     0
100
AcDbLine
 10
47.5927852907
 20
191.3434294547
 30
0.0
 11
47.5927852907
 21
198.9964964387
 31
0.0
  0
LINE
  5
1E5
330
1DF
100
AcDbEntity
  8
0
  6
Continuous
 62
     7
370
     0
100
AcDbLine
 10
56.9927852907
 20
191.3434294547
 30
0.0
 11
56.9927852907
 21
198.9964964387
 31
0.0
  0
LINE
  5
1E6
330
1DF
100
AcDbEntity
  8
0
  6
Continuous
 62
     7
370
     0
100
AcDbLine
 10
47.5927852907
 20
197.9964964387
 30
0.0
 11
44.5927852907
 21
197.9964964387
 31
0.0
  0
LINE
  5
1E7
330
1DF
100
AcDbEntity
  8
0
  6
Continuous
 62
     7
370
     0
100
AcDbLine
 10
47.5927852907
 20
197.9964964387
 30
0.0
 11
56.9927852907
 21
197.9964964387
 31
0.0
  0
LINE
  5
1E8
330
1DF
100
AcDbEntity
  8
0
  6
Continuous
 62
     7
370
     0
100
AcDbLine
 10
56.9927852907
 20
197.9964964387
 30
0.0
 11
59.9927852907
 21
197.9964964387
 31
0.0
  0
MTEXT
  5
1E9
330
1DF
100
AcDbEntity
  8
0
  6
Continuous
 62
     7
370
     0
100
AcDbMText
 10
45.6264244502
 20
202.5082337607
 30
0.1
 40
3.5
 41
0.0
 71
     1
 72
     1
  1
%%c
  7
SLDTEXTSTYLE0
 73
     1
 44
1.0
  0
MTEXT
  5
1EA
330
1DF
100
AcDbEntity
  8
0
  6
Continuous
 62
     7
370
     0
100
AcDbMText
 10
49.4963551981
 20
202.5082337607
 30
0.1
 40
3.5
 41
0.0
 71
     1
 72
     1
  1
9.4
  7
SLDTEXTSTYLE0
 73
     1
 44
1.0
  0
ENDBLK
  5
1E1
330
1DF
100
AcDbEntity
  8
0
100
AcDbBlockEnd
  0
BLOCK
  5
215
330
214
100
AcDbEntity
  8
0
100
AcDbBlockBegin
  2
SW_NOTE_5
 70
     0
 10
0.0
 20
0.0
 30
0.0
  3
SW_NOTE_5
  1

  0
MTEXT
  5
218
330
214
100
AcDbEntity
  8
0
  6
Continuous
 62
     0
370
     0
100
AcDbMText
 10
9.5703125
 20
4.5117370892
 30
0.0
 40
3.5
 41
0.0
 71
     2
 72
     1
  1
SECTION
  7
SLDTEXTSTYLE2
 73
     1
 44
1.0
  0
MTEXT
  5
219
330
214
100
AcDbEntity
  8
0
  6
Continuous
 62
     0
370
     0
100
AcDbMText
 10
24.089236781
 20
4.9638203919
 30
0.0
 40
3.5
 41
0.0
 71
     2
 72
     1
  1
A-A
  7
SLDTEXTSTYLE0
 73
     1
 44
1.0
  0
ENDBLK
  5
216
330
214
100
AcDbEntity
  8
0
100
AcDbBlockEnd
  0
ENDSEC
  0
SECTION
  2
ENTITIES
  0
LINE
  5
44
330
1F
100
AcDbEntity
  8
0
  6
CENTERX2
 62
     7
370
     0
100
AcDbLine
 10
51.7344694261
 20
132.1994093112
 30
0.0
 11
51.7344694261
 21
122.3963818466
 31
0.0
  0
LINE
  5
45
330
1F
100
AcDbEntity
  8
0
  6
CENTERX2
 62
     7
370
     0
100
AcDbLine
 10
48.1413527515
 20
127.3480741409
 30
0.0
 11
55.6741111514
 21
127.3480741409
 31
0.0
  0
LINE
  5
46
330
1F
100
AcDbEntity
  8
0
  6
CENTERX2
 62
     7
370
     0
100
AcDbLine
 10
53.5305206503
 20
125.5520229167
 30
0.0
 11
49.9384182019
 21
129.1441253651
 31
0.0
  0
LINE
  5
47
330
1F
100
AcDbEntity
  8
0
  6
CENTERX2
 62
     7
370
     0
100
AcDbLine
 10
49.9384182019
 20
125.5520229167
 30
0.0
 11
53.5305206503
 21
129.1441253651
 31
0.0
  0
LINE
  5
48
330
1F
100
AcDbEntity
  8
0
  6
Continuous
 62
     7
370
    30
100
AcDbLine
 10
5.0
 20
25.0
 30
0.0
 11
205.0
 21
25.0
 31
0.0
  0
LINE
  5
49
330
1F
100
AcDbEntity
  8
0
  6
Continuous
 62
     7
370
    30
100
AcDbLine
 10
5.0
 20
292.0
 30
0.0
 11
205.0
 21
292.0
 31
0.0
  0
LINE
  5
4A
330
1F
100
AcDbEntity
  8
0
  6
Continuous
 62
     7
370
    30
100
AcDbLine
 10
5.0
 20
292.0
 30
0.0
 11
5.0
 21
7.0
 31
0.0
  0
LINE
  5
4B
330
1F
100
AcDbEntity
  8
0
  6
Continuous
 62
     7
370
    30
100
AcDbLine
 10
5.0
 20
7.0
 30
0.0
 11
205.0
 21
7.0
 31
0.0
  0
LINE
  5
4C
330
1F
100
AcDbEntity
  8
0
  6
Continuous
 62
     7
370
    30
100
AcDbLine
 10
205.0
 20
292.0
 30
0.0
 11
205.0
 21
7.0
 31
0.0
  0
LINE
  5
4D
330
1F
100
AcDbEntity
  8
0
  6
Continuous
 62
     7
370
    30
100
AcDbLine
 10
5.0
 20
40.0
 30
0.0
 11
205.0
 21
40.0
 31
0.0
  0
LINE
  5
4E
330
1F
100
AcDbEntity
  8
0
  6
Continuous
 62
     7
370
    30
100
AcDbLine
 10
5.0
 20
47.0
 30
0.0
 11
205.0
 21
47.0
 31
0.0
  0
LINE
  5
4F
330
1F
100
AcDbEntity
  8
0
  6
Continuous
 62
     7
370
    30
100
AcDbLine
 10
145.0
 20
47.0
 30
0.0
 11
145.0
 21
25.0
 31
0.0
  0
LINE
  5
50
330
1F
100
AcDbEntity
  8
0
  6
Continuous
 62
     7
370
    30
100
AcDbLine
 10
145.0
 20
32.5
 30
0.0
 11
205.0
 21
32.5
 31
0.0
  0
LINE
  5
51
330
1F
100
AcDbEntity
  8
0
  6
Continuous
 62
     7
370
    30
100
AcDbLine
 10
175.0
 20
40.0
 30
0.0
 11
175.0
 21
32.5
 31
0.0
  0
LINE
  5
52
330
1F
100
AcDbEntity
  8
0
  6
Continuous
 62
     7
370
     0
100
AcDbLine
 10
128.9292008689
 20
63.0961638737
 30
0.0
 11
200.9292008689
 21
63.0961638737
 31
0.0
  0
LINE
  5
53
330
1F
100
AcDbEntity
  8
0
  6
Continuous
 62
     7
370
     0
100
AcDbLine
 10
128.9292008689
 20
63.0961638737
 30
0.0
 11
128.9292008689
 21
49.0961638737
 31
0.0
  0
LINE
  5
54
330
1F
100
AcDbEntity
  8
0
  6
Continuous
 62
     7
370
     0
100
AcDbLine
 10
128.9292008689
 20
49.0961638737
 30
0.0
 11
200.9292008689
 21
49.0961638737
 31
0.0
  0
LINE
  5
55
330
1F
100
AcDbEntity
  8
0
  6
Continuous
 62
     7
370
     0
100
AcDbLine
 10
200.9292008689
 20
63.0961638737
 30
0.0
 11
200.9292008689
 21
49.0961638737
 31
0.0
  0
LINE
  5
56
330
1F
100
AcDbEntity
  8
0
  6
Continuous
 62
     7
370
     0
100
AcDbLine
 10
5.0
 20
292.0
 30
0.0
 11
5.0
 21
262.0
 31
0.0
  0
CIRCLE
  5
57
330
1F
100
AcDbEntity
  8
0
  6
CENTER
 62
     7
370
     0
100
AcDbCircle
 10
51.7344694261
 20
127.3480741409
 30
0.0
 40
2.539999999999171
  0
CIRCLE
  5
58
330
1F
100
AcDbEntity
  8
0
  6
CENTER
 62
     7
370
    30
100
AcDbCircle
 10
53.5305206503
 20
129.1441253651
 30
0.0
 40
0.3249999999991608
  0
CIRCLE
  5
59
330
1F
100
AcDbEntity
  8
0
  6
CENTER
 62
     7
370
    30
100
AcDbCircle
 10
53.5305206503
 20
125.5520229167
 30
0.0
 40
0.3249999999991525
  0
CIRCLE
  5
5A
330
1F
100
AcDbEntity
  8
0
  6
CENTER
 62
     7
370
    30
100
AcDbCircle
 10
49.9384182019
 20
129.1441253651
 30
0.0
 40
0.3249999999992069
  0
DIMENSION
  5
5B
330
1F
100
AcDbEntity
  8
0
  6
Continuous
 62
     7
370
     0
100
AcDbDimension
  2
_D
 10
53.4922644025
 20
129.1815835685
 30
0.0
 11
32.7118360454
 21
123.2926971215
 31
0.0
 70
   163
  1
<>±0.1
 71
     1
 42
-1.0
  3
SLDDIMSTYLE0
100
AcDbDiametricDimension
 15
49.9766744497
 25
125.5145647134
 35
0.0
 40
0.0
  0
DIMENSION
  5
71
330
1F
100
AcDbEntity
  8
0
  6
Continuous
 62
     7
370
     0
100
AcDbDimension
  2
_D_1
 10
49.9384182019
 20
125.5520229167
 30
0.0
 11
67.7776739467
 21
131.9399393434
 31
0.0
 70
   162
  1
<>
 71
     1
 42
-1.0
  3
SLDDIMSTYLE1
100
AcDb2LineAngularDimension
 13
55.6741111514
 23
127.3480741409
 33
0.0
 14
48.1413527515
 24
127.3480741409
 34
0.0
 15
53.5305206503
 25
129.1441253651
 35
0.0
 16
67.1516255555
 26
133.7340693029
 36
0.0
  0
DIMENSION
  5
7C
330
1F
100
AcDbEntity
  8
0
  6
Continuous
 62
     7
370
     0
100
AcDbDimension
  2
_D_2
 10
55.6741111514
 20
127.3480741409
 30
0.0
 11
67.7776739467
 21
123.2819931174
 31
0.0
 70
   162
  1
<>
 71
     1
 42
-1.0
  3
SLDDIMSTYLE1
100
AcDb2LineAngularDimension
 13
53.5305206503
 23
125.5520229167
 33
0.0
 14
49.9384182019
 24
129.1441253651
 34
0.0
 15
48.1413527515
 25
127.3480741409
 35
0.0
 16
67.0250922995
 26
121.0144907696
 36
0.0
  0
DIMENSION
  5
86
330
1F
100
AcDbEntity
  8
0
  6
Continuous
 62
     7
370
     0
100
AcDbDimension
  2
_D_3
 10
50.1015361243
 20
128.8630247721
 30
0.0
 11
32.7118360454
 21
138.190679778
 31
0.0
 70
   163
  1
3-<>
 71
     1
 42
-1.0
  3
SLDDIMSTYLE2
100
AcDbDiametricDimension
 15
49.7753002795
 25
129.4252259582
 35
0.0
 40
0.0
  0
INSERT
  5
9D
330
1F
100
AcDbEntity
  8
0
  6
Continuous
 62
     7
370
     0
100
AcDbBlockReference
  2
SW_NOTE_0
 10
39.5858397134
 20
221.665013705
 30
0.0
  0
INSERT
  5
A3
330
1F
100
AcDbEntity
  8
0
  6
Continuous
 62
     7
370
     0
100
AcDbBlockReference
  2
SW_NOTE_1
 10
37.8428782836
 20
151.0387237338
 30
0.0
  0
MTEXT
  5
A4
330
1F
100
AcDbEntity
  8
0
  6
Continuous
 62
     7
370
     0
100
AcDbMText
 10
21.0246323175
 20
134.6605119484
 30
0.0
 40
3.5
 41
0.0
 71
     1
 72
     1
  1
(3-0.026 dia.)
  7
SLDTEXTSTYLE0
 73
     1
 44
1.0
  0
MTEXT
  5
A5
330
1F
100
AcDbEntity
  8
0
  6
Continuous
 62
     7
370
     0
100
AcDbMText
 10
26.6075170968
 20
121.3170013724
 30
0.0
 40
3.5
 41
0.0
 71
     1
 72
     1
  1
(0.2 dia.)
  7
SLDTEXTSTYLE0
 73
     1
 44
1.0
  0
INSERT
  5
AB
330
1F
100
AcDbEntity
  8
0
  6
Continuous
 62
     7
370
     0
100
AcDbBlockReference
  2
SW_NOTE_2
 10
14.4013275638
 20
80.8202119492
 30
0.0
  0
MTEXT
  5
AC
330
1F
100
AcDbEntity
  8
0
  6
Continuous
 62
     7
370
     0
100
AcDbMText
 10
110.1980690378
 20
171.0597870188
 30
0.0
 40
3.5
 41
0.0
 71
     1
 72
     1
  1
(0.2 dia.)
  7
SLDTEXTSTYLE0
 73
     1
 44
1.0
  0
MTEXT
  5
AD
330
1F
100
AcDbEntity
  8
0
  6
Continuous
 62
     7
370
     0
100
AcDbMText
 10
43.513413442
 20
206.4739358247
 30
0.0
 40
3.5
 41
0.0
 71
     1
 72
     1
  1
(0.370 dia.)
  7
SLDTEXTSTYLE0
 73
     1
 44
1.0
  0
MTEXT
  5
AE
330
1F
100
AcDbEntity
  8
0
  6
Continuous
 62
     7
370
     0
100
AcDbMText
 10
114.7121840616
 20
202.8395273857
 30
0.0
 40
3.5
 41
0.0
 71
     1
 72
     1
  1
(0.018 dia.)
  7
SLDTEXTSTYLE0
 73
     1
 44
1.0
  0
MTEXT
  5
AF
330
1F
100
AcDbEntity
  8
0
  6
Continuous
 62
     7
370
     0
100
AcDbMText
 10
137.6012116821
 20
192.9668449488
 30
0.0
 40
3.5
 41
0.0
 71
     1
 72
     1
  1
(0.433 dia.)
  7
SLDTEXTSTYLE0
 73
     1
 44
1.0
  0
MTEXT
  5
B0
330
1F
100
AcDbEntity
  8
0
  6
Continuous
 62
     7
370
     0
100
AcDbMText
 10
164.4002481619
 20
207.2970428071
 30
0.0
 40
3.5
 41
0.0
 71
     1
 72
     1
  1
(0.594)
  7
SLDTEXTSTYLE0
 11
-3.269436733918102E-15
 21
1.0
 31
0.0
 73
     1
 44
1.0
  0
MTEXT
  5
B1
330
1F
100
AcDbEntity
  8
0
  6
Continuous
 62
     7
370
     0
100
AcDbMText
 10
164.3502235813
 20
189.3751414924
 30
0.0
 40
3.5
 41
0.0
 71
     1
 72
     1
  1
(0.177)
  7
SLDTEXTSTYLE0
 11
-3.269436733918102E-15
 21
1.0
 31
0.0
 73
     1
 44
1.0
  0
MTEXT
  5
B2
330
1F
100
AcDbEntity
  8
0
  6
Continuous
 62
     7
370
     0
100
AcDbMText
 10
136.5311510485
 20
235.394348822
 30
0.0
 40
3.5
 41
0.0
 71
     1
 72
     1
  1
(0.350 dia.)
  7
SLDTEXTSTYLE0
 73
     1
 44
1.0
  0
MTEXT
  5
B3
330
1F
100
AcDbEntity
  8
0
  6
Continuous
 62
     7
370
     0
100
AcDbMText
 10
139.7521685218
 20
141.6323789279
 30
0.0
 40
2.1166666667
 41
0.0
 71
     1
 72
     1
  1
±4°
  7
SLDTEXTSTYLE0
 11
0.9396926207859081
 21
-0.3420201433256695
 31
0.0
 73
     1
 44
1.0
  0
MTEXT
  5
B4
330
1F
100
AcDbEntity
  8
0
  6
Continuous
 62
     7
370
     0
100
AcDbMText
 10
155.3113000733
 20
141.9683843615
 30
0.0
 40
2.1166666667
 41
0.0
 71
     1
 72
     1
  1
±4°
  7
SLDTEXTSTYLE0
 11
0.8660254037844382
 21
0.5000000000000009
 31
0.0
 73
     1
 44
1.0
  0
MTEXT
  5
B5
330
1F
100
AcDbEntity
  8
0
  6
Continuous
 62
     7
370
     0
100
AcDbMText
 10
6.3280684874
 20
6.445181383
 30
0.0
 40
2.38125
 41
0.0
 71
     1
 72
     1
  1
(JIS A-4)
  7
SLDTEXTSTYLE0
 73
     1
 44
1.0
  0
MTEXT
  5
B6
330
1F
100
AcDbEntity
  8
0
  6
Continuous
 62
     7
370
     0
100
AcDbMText
 10
64.7360648843
 20
6.445181383
 30
0.0
 40
2.38125
 41
0.0
 71
     1
 72
     1
  1
All Right Reserved Copyrigh, (C) Panasonic Corporation
  7
SLDTEXTSTYLE0
 73
     1
 44
1.0
  0
MTEXT
  5
B7
330
1F
100
AcDbEntity
  8
0
  6
Continuous
 62
     7
370
     0
100
AcDbMText
 10
76.198799667
 20
22.8890928843
 30
0.0
 40
4.2333333333
 41
0.0
 71
     1
 72
     1
  1
Panasonic Corporation
  7
SLDTEXTSTYLE0
 73
     1
 44
1.0
  0
MTEXT
  5
B8
330
1F
100
AcDbEntity
  8
0
  6
Continuous
 62
     7
370
     0
100
AcDbMText
 10
75.2830248209
 20
16.0597678541
 30
0.0
 40
4.2333333333
 41
0.0
 71
     1
 72
     1
  1
Eco Solutions Company
  7
SLDTEXTSTYLE0
 73
     1
 44
1.0
  0
MTEXT
  5
B9
330
1F
100
AcDbEntity
  8
0
  6
Continuous
 62
     7
370
     0
100
AcDbMText
 10
7.399505626
 20
37.9517125752
 30
0.0
 40
4.2333333333
 41
0.0
 71
     1
 72
     1
  1
Name PIR MOTION SENSOR 'PaPIRs' NaPiOn series
  7
SLDTEXTSTYLE0
 73
     1
 44
1.0
  0
MTEXT
  5
BA
330
1F
100
AcDbEntity
  8
0
  6
Continuous
 62
     7
370
     0
100
AcDbMText
 10
45.6461656106
 20
32.440197735
 30
0.0
 40
4.2333333333
 41
0.0
 71
     1
 72
     1
  1
(Spot detection type)
  7
SLDTEXTSTYLE0
 73
     1
 44
1.0
  0
MTEXT
  5
BB
330
1F
100
AcDbEntity
  8
0
  6
Continuous
 62
     7
370
     0
100
AcDbMText
 10
148.4473581884
 20
46.0655805192
 30
0.0
 40
4.2333333333
 41
0.0
 71
     1
 72
     1
  1
Date July.27.2016
  7
SLDTEXTSTYLE0
 73
     1
 44
1.0
  0
MTEXT
  5
BC
330
1F
100
AcDbEntity
  8
0
  6
Continuous
 62
     7
370
     0
100
AcDbMText
 10
147.8956185945
 20
38.8622472622
 30
0.0
 40
4.2333333333
 41
0.0
 71
     1
 72
     1
  1
Scale 1:1
  7
SLDTEXTSTYLE0
 73
     1
 44
1.0
  0
MTEXT
  5
BD
330
1F
100
AcDbEntity
  8
0
  6
Continuous
 62
     7
370
     0
100
AcDbMText
 10
177.1188186671
 20
38.8622472622
 30
0.0
 40
4.2333333333
 41
0.0
 71
     1
 72
     1
  1
Unit mm
  7
SLDTEXTSTYLE0
 73
     1
 44
1.0
  0
MTEXT
  5
BE
330
1F
100
AcDbEntity
  8
0
  6
Continuous
 62
     7
370
     0
100
AcDbMText
 10
147.8956185945
 20
31.5452447955
 30
0.0
 40
4.2333333333
 41
0.0
 71
     1
 72
     1
  1
Tolerance
  7
SLDTEXTSTYLE0
 73
     1
 44
1.0
  0
MTEXT
  5
BF
330
1F
100
AcDbEntity
  8
0
  6
Continuous
 62
     7
370
     0
100
AcDbMText
 10
7.399505626
 20
46.2820908805
 30
0.0
 40
4.2333333333
 41
0.0
 71
     1
 72
     1
  1
Parts No. AMN*311*
  7
SLDTEXTSTYLE0
 73
     1
 44
1.0
  0
MTEXT
  5
C0
330
1F
100
AcDbEntity
  8
0
  6
Continuous
 62
     7
370
     0
100
AcDbMText
 10
130.1376779536
 20
58.3504872146
 30
0.0
 40
3.7041666667
 41
0.0
 71
     1
 72
     1
  1
General tolerance
  7
SLDTEXTSTYLE0
 73
     1
 44
1.0
  0
INSERT
  5
C7
330
1F
100
AcDbEntity
  8
0
  6
Continuous
 62
     7
370
     0
100
AcDbBlockReference
  2
SW_NOTE_3
 10
170.2884828494
 20
55.669968554
 30
0.0
  0
LINE
  5
C8
330
1F
100
AcDbEntity
  8
0
  6
Continuous
 62
     7
370
    30
100
AcDbLine
 10
148.0282073458
 20
205.9681998005
 30
0.0
 11
148.0282073458
 21
201.3482000118
 31
0.0
  0
LINE
  5
C9
330
1F
100
AcDbEntity
  8
0
  6
Continuous
 62
     7
370
    30
100
AcDbLine
 10
148.4782073962
 20
201.3482000118
 30
0.0
 11
148.4782073962
 21
205.9681998005
 31
0.0
  0
LINE
  5
CA
330
1F
100
AcDbEntity
  8
0
  6
Continuous
 62
     7
370
    30
100
AcDbLine
 10
144.4361049066
 20
205.9681998005
 30
0.0
 11
144.4361049066
 21
201.3482000118
 31
0.0
  0
LINE
  5
CB
330
1F
100
AcDbEntity
  8
0
  6
Continuous
 62
     7
370
    30
100
AcDbLine
 10
144.8861049571
 20
201.3482000118
 30
0.0
 11
144.8861049571
 21
205.9681998005
 31
0.0
  0
LINE
  5
CC
330
1F
100
AcDbEntity
  8
0
  6
Continuous
 62
     7
370
    30
100
AcDbLine
 10
151.972156003
 20
205.9681998005
 30
0.0
 11
150.9171561188
 21
220.6681995092
 31
0.0
  0
LINE
  5
CD
330
1F
100
AcDbEntity
  8
0
  6
Continuous
 62
     7
370
    30
100
AcDbLine
 10
141.9971561841
 20
220.6681995092
 30
0.0
 11
140.9421562998
 21
205.9681998005
 31
0.0
  0
ARC
  5
CE
330
1F
100
AcDbEntity
  8
0
  6
Continuous
 62
     7
370
    30
100
AcDbCircle
 10
142.3971561514
 20
220.6681996649
 30
0.0
 40
0.4000000000000057
100
AcDbArc
 50
90.0
 51
180.0
  0
ARC
  5
CF
330
1F
100
AcDbEntity
  8
0
  6
Continuous
 62
     7
370
    30
100
AcDbCircle
 10
150.5171561514
 20
220.6681996649
 30
0.0
 40
0.4000000000000057
100
AcDbArc
 50
0.0
 51
90.0
  0
LINE
  5
D0
330
1F
100
AcDbEntity
  8
0
  6
Continuous
 62
     7
370
    30
100
AcDbLine
 10
146.3071561443
 20
206.848199982
 30
0.0
 11
146.3071561443
 21
207.5681998765
 31
0.0
  0
LINE
  5
D1
330
1F
100
AcDbEntity
  8
0
  6
Continuous
 62
     7
370
    30
100
AcDbLine
 10
146.6071561586
 20
206.848199982
 30
0.0
 11
146.6071561586
 21
207.5681998765
 31
0.0
  0
LINE
  5
D2
330
1F
100
AcDbEntity
  8
0
  6
Continuous
 62
     7
370
    30
100
AcDbLine
 10
146.3071561443
 20
207.5681998765
 30
0.0
 11
146.6071561586
 21
207.5681998765
 31
0.0
  0
LINE
  5
D3
330
1F
100
AcDbEntity
  8
0
  6
Continuous
 62
     7
370
    30
100
AcDbLine
 10
146.6071561586
 20
206.848199982
 30
0.0
 11
146.3071561443
 21
206.848199982
 31
0.0
  0
LINE
  5
D4
330
1F
100
AcDbEntity
  8
0
  6
Continuous
 62
     7
370
    30
100
AcDbLine
 10
146.8571561413
 20
206.848199982
 30
0.0
 11
146.8571561413
 21
207.5681998765
 31
0.0
  0
LINE
  5
D5
330
1F
100
AcDbEntity
  8
0
  6
Continuous
 62
     7
370
    30
100
AcDbLine
 10
146.6071561586
 20
207.5681998765
 30
0.0
 11
146.8571561413
 21
207.5681998765
 31
0.0
  0
LINE
  5
D6
330
1F
100
AcDbEntity
  8
0
  6
Continuous
 62
     7
370
    30
100
AcDbLine
 10
146.8571561413
 20
206.848199982
 30
0.0
 11
146.6071561586
 21
206.848199982
 31
0.0
  0
LINE
  5
D7
330
1F
100
AcDbEntity
  8
0
  6
Continuous
 62
     7
370
    30
100
AcDbLine
 10
146.0571561615
 20
206.848199982
 30
0.0
 11
146.0571561615
 21
207.5681998765
 31
0.0
  0
LINE
  5
D8
330
1F
100
AcDbEntity
  8
0
  6
Continuous
 62
     7
370
    30
100
AcDbLine
 10
146.0571561615
 20
207.5681998765
 30
0.0
 11
146.3071561443
 21
207.5681998765
 31
0.0
  0
LINE
  5
D9
330
1F
100
AcDbEntity
  8
0
  6
Continuous
 62
     7
370
    30
100
AcDbLine
 10
146.3071561443
 20
206.848199982
 30
0.0
 11
146.0571561615
 21
206.848199982
 31
0.0
  0
LINE
  5
DA
330
1F
100
AcDbEntity
  8
0
  6
Continuous
 62
     7
370
    30
100
AcDbLine
 10
146.8571561413
 20
207.5681998765
 30
0.0
 11
146.917102727
 21
207.5681998765
 31
0.0
  0
LINE
  5
DB
330
1F
100
AcDbEntity
  8
0
  6
Continuous
 62
     7
370
    30
100
AcDbLine
 10
146.9542067348
 20
206.848199982
 30
0.0
 11
146.8571561413
 21
206.848199982
 31
0.0
  0
LINE
  5
DC
330
1F
100
AcDbEntity
  8
0
  6
Continuous
 62
     7
370
    30
100
AcDbLine
 10
145.996513354
 20
207.5681998765
 30
0.0
 11
146.0571561615
 21
207.5681998765
 31
0.0
  0
LINE
  5
DD
330
1F
100
AcDbEntity
  8
0
  6
Continuous
 62
     7
370
    30
100
AcDbLine
 10
146.0571561615
 20
206.848199982
 30
0.0
 11
145.9596315249
 21
206.848199982
 31
0.0
  0
LINE
  5
DE
330
1F
100
AcDbEntity
  8
0
  6
Continuous
 62
     7
370
    30
100
AcDbLine
 10
148.4123063124
 20
201.3482000118
 30
0.0
 11
148.4782073962
 21
201.3482000118
 31
0.0
  0
LINE
  5
DF
330
1F
100
AcDbEntity
  8
0
  6
Continuous
 62
     7
370
    30
100
AcDbLine
 10
148.0282073458
 20
201.3482000118
 30
0.0
 11
148.4123063124
 21
201.3482000118
 31
0.0
  0
LINE
  5
E0
330
1F
100
AcDbEntity
  8
0
  6
Continuous
 62
     7
370
    30
100
AcDbLine
 10
144.8202039896
 20
201.3482000118
 30
0.0
 11
144.8861049571
 21
201.3482000118
 31
0.0
  0
LINE
  5
E1
330
1F
100
AcDbEntity
  8
0
  6
Continuous
 62
     7
370
    30
100
AcDbLine
 10
144.4361049066
 20
201.3482000118
 30
0.0
 11
144.8202039896
 21
201.3482000118
 31
0.0
  0
LINE
  5
E2
330
1F
100
AcDbEntity
  8
0
  6
Continuous
 62
     7
370
    30
100
AcDbLine
 10
146.6071561586
 20
207.8181994518
 30
0.0
 11
146.6071561586
 21
207.5681998765
 31
0.0
  0
LINE
  5
E3
330
1F
100
AcDbEntity
  8
0
  6
Continuous
 62
     7
370
    30
100
AcDbLine
 10
146.8571561413
 20
207.8181994518
 30
0.0
 11
146.8571561413
 21
207.5681998765
 31
0.0
  0
LINE
  5
E4
330
1F
100
AcDbEntity
  8
0
  6
Continuous
 62
     7
370
    30
100
AcDbLine
 10
146.3071561443
 20
207.8181994518
 30
0.0
 11
146.3071561443
 21
207.5681998765
 31
0.0
  0
LINE
  5
E5
330
1F
100
AcDbEntity
  8
0
  6
Continuous
 62
     7
370
    30
100
AcDbLine
 10
146.0571561615
 20
207.8181994518
 30
0.0
 11
146.0571561615
 21
207.5681998765
 31
0.0
  0
LINE
  5
E6
330
1F
100
AcDbEntity
  8
0
  6
Continuous
 62
     7
370
    30
100
AcDbLine
 10
146.9177989488
 20
207.5681998765
 30
0.0
 11
146.8571561413
 21
207.5681998765
 31
0.0
  0
LINE
  5
E7
330
1F
100
AcDbEntity
  8
0
  6
Continuous
 62
     7
370
    30
100
AcDbLine
 10
146.0571561615
 20
207.5681998765
 30
0.0
 11
145.9972095759
 21
207.5681998765
 31
0.0
  0
LINE
  5
E8
330
1F
100
AcDbEntity
  8
0
  6
Continuous
 62
     7
370
    30
100
AcDbLine
 10
150.9171561188
 20
220.6681995092
 30
0.0
 11
141.9971561841
 21
220.6681995092
 31
0.0
  0
LINE
  5
E9
330
1F
100
AcDbEntity
  8
0
  6
Continuous
 62
     7
370
    30
100
AcDbLine
 10
146.9071561437
 20
207.8181994518
 30
0.0
 11
146.0071561592
 21
207.8181994518
 31
0.0
  0
SPLINE
  5
EA
330
1F
100
AcDbEntity
  8
0
  6
Continuous
 62
     7
370
    30
100
AcDbSpline
210
0.0
220
0.0
230
1.0
 70
    24
 71
     3
 72
     8
 73
     4
 74
     0
 42
0.00000001
 43
0.00000001
 12
1.0
 22
0.0
 32
0.0
 13
1.0
 23
0.0
 33
0.0
 40
0.000000200720882
 40
0.000000200720882
 40
0.000000200720882
 40
0.000000200720882
 40
0.0018568255271882
 40
0.0018568255271882
 40
0.0018568255271882
 40
0.0018568255271882
 10
146.0071561514261
 20
207.8181996648724
 30
0.0
 10
145.9754902259828
 20
207.2015474325539
 30
0.0
 10
145.9438235388326
 20
206.5848803669994
 30
0.0
 10
145.9121561514261
 20
205.9681996648724
 30
0.0
  0
LINE
  5
EB
330
1F
100
AcDbEntity
  8
0
  6
Continuous
 62
     7
370
    30
100
AcDbLine
 10
145.9121561343
 20
205.9681998005
 30
0.0
 11
140.9421562998
 21
205.9681998005
 31
0.0
  0
SPLINE
  5
EC
330
1F
100
AcDbEntity
  8
0
  6
Continuous
 62
     7
370
    30
100
AcDbSpline
210
0.0
220
0.0
230
1.0
 70
    24
 71
     3
 72
     8
 73
     4
 74
     0
 42
0.00000001
 43
0.00000001
 12
1.0
 22
0.0
 32
0.0
 13
1.0
 23
0.0
 33
0.0
 40
0.000000200711615
 40
0.000000200711615
 40
0.000000200711615
 40
0.000000200711615
 40
0.0018568255179212
 40
0.0018568255179212
 40
0.0018568255179212
 40
0.0018568255179212
 10
147.0021561514261
 20
205.9681996648724
 30
0.0
 10
146.9704887640196
 20
206.5848803669994
 30
0.0
 10
146.9388220768695
 20
207.2015474325539
 30
0.0
 10
146.9071561514261
 20
207.8181996648724
 30
0.0
  0
LINE
  5
ED
330
1F
100
AcDbEntity
  8
0
  6
Continuous
 62
     7
370
    30
100
AcDbLine
 10
151.972156003
 20
205.9681998005
 30
0.0
 11
147.0021561686
 21
205.9681998005
 31
0.0
  0
LINE
  5
EE
330
1F
100
AcDbEntity
  8
0
  6
Continuous
 62
     7
370
    30
100
AcDbLine
 10
142.3971559702
 20
221.068199761
 30
0.0
 11
150.5171563326
 21
221.068199761
 31
0.0
  0
LINE
  5
EF
330
1F
100
AcDbEntity
  8
0
  6
CENTERX2
 62
     7
370
     0
100
AcDbLine
 10
146.4571561514
 20
225.6345304505
 30
0.0
 11
146.4571561514
 21
196.6500962308
 31
0.0
  0
CIRCLE
  5
F0
330
1F
100
AcDbEntity
  8
0
  6
Continuous
 62
     7
370
     0
100
AcDbCircle
 10
151.9616846766
 20
205.8981986649
 30
0.0
 40
0.0001000000000033
  0
DIMENSION
  5
F1
330
1F
100
AcDbEntity
  8
0
  6
Continuous
 62
     7
370
     0
100
AcDbDimension
  2
_D_4
 10
164.6899686257
 20
201.3481996649
 30
0.0
 11
164.6899686257
 21
196.1924178586
 31
0.0
 70
   160
  1
<>
 71
     2
 42
-1.0
  3
SLDDIMSTYLE3
100
AcDbAlignedDimension
 13
151.9616846766
 23
205.8981986649
 33
0.0
 14
148.4782073756
 24
201.3481996649
 34
0.0
 50
90.0
100
AcDbRotatedDimension
  0
DIMENSION
  5
FD
330
1F
100
AcDbEntity
  8
0
  6
Continuous
 62
     7
370
     0
100
AcDbDimension
  2
_D_5
 10
151.883199447
 20
193.543086215
 30
0.0
 11
144.8717727536
 21
193.5876259499
 31
0.0
 70
   160
  1
%%c<>
 71
     2
 42
-1.0
  3
SLDDIMSTYLE4
100
AcDbAlignedDimension
 13
140.9421561514
 23
205.9681996649
 33
0.0
 14
151.9616846766
 24
205.8981986649
 34
0.0
 50
-0.3639636582
100
AcDbRotatedDimension
  0
DIMENSION
  5
10B
330
1F
100
AcDbEntity
  8
0
  6
Continuous
 62
     7
370
     0
100
AcDbDimension
  2
_D_6
 10
164.6899686257
 20
221.0681996649
 30
0.0
 11
164.6899686257
 21
213.536369268
 31
0.0
 70
   160
  1
<>
 71
     2
 42
-1.0
  3
SLDDIMSTYLE4
100
AcDbAlignedDimension
 13
151.9721561514
 23
205.9681996649
 33
0.0
 14
150.5171561514
 24
221.0681996649
 34
0.0
 50
90.0
100
AcDbRotatedDimension
  0
DIMENSION
  5
117
330
1F
100
AcDbEntity
  8
0
  6
Continuous
 62
     7
370
     0
100
AcDbDimension
  2
_D_7
 10
141.9971561514
 20
227.2601459534
 30
0.0
 11
144.6263073456
 21
227.2601459534
 31
0.0
 70
   160
  1
%%c<>
 71
     2
 42
-1.0
  3
SLDDIMSTYLE4
100
AcDbAlignedDimension
 13
150.9171561514
 23
220.6681996649
 33
0.0
 14
141.9971561514
 24
220.6681996649
 34
0.0
100
AcDbRotatedDimension
  0
DIMENSION
  5
124
330
1F
100
AcDbEntity
  8
0
  6
Continuous
 62
     7
370
     0
100
AcDbDimension
  2
_D_8
 10
144.8861049272
 20
202.4742968376
 30
0.0
 11
122.8479649017
 21
202.4742968376
 31
0.0
 70
   160
  1
%%c<>
 71
     2
 42
-1.0
  3
SLDDIMSTYLE5
100
AcDbAlignedDimension
 13
144.4361049272
 23
201.3481996649
 33
0.0
 14
144.8861049272
 24
201.3481996649
 34
0.0
100
AcDbRotatedDimension
  0
LINE
  5
131
330
1F
100
AcDbEntity
  8
0
  6
Continuous
 62
     7
370
     0
100
AcDbLine
 10
135.3007037891
 20
219.9681996649
 30
0.0
 11
158.435033459
 21
219.9681996649
 31
0.0
  0
LINE
  5
132
330
1F
100
AcDbEntity
  8
0
  6
Continuous
 62
     7
370
     0
100
AcDbLine
 10
137.3007037891
 20
213.9681996649
 30
0.0
 11
137.3007037891
 21
219.9681996649
 31
0.0
  0
INSERT
  5
133
330
1F
100
AcDbEntity
  8
0
  6
Continuous
 62
     7
370
     0
100
AcDbBlockReference
  2
_OPEN30
 10
137.3007037891
 20
219.9681996649
 30
0.0
 41
3.0
 42
3.0
 50
90.0
  0
LINE
  5
134
330
1F
100
AcDbEntity
  8
0
  6
Continuous
 62
     7
370
     0
100
AcDbLine
 10
156.435033459
 20
213.9681996649
 30
0.0
 11
156.435033459
 21
219.9681996649
 31
0.0
  0
INSERT
  5
135
330
1F
100
AcDbEntity
  8
0
  6
Continuous
 62
     7
370
     0
100
AcDbBlockReference
  2
_OPEN30
 10
156.435033459
 20
219.9681996649
 30
0.0
 41
3.0
 42
3.0
 50
90.0
  0
MTEXT
  5
136
330
1F
100
AcDbEntity
  8
0
  6
Continuous
 62
     7
100
AcDbMText
 10
136.0652058473
 20
214.580502405
 30
0.0
 40
3.5
 41
0.0
 71
     1
 72
     1
  1
A
  7
SLDTEXTSTYLE0
 73
     1
 44
1.0
  0
MTEXT
  5
137
330
1F
100
AcDbEntity
  8
0
  6
Continuous
 62
     7
100
AcDbMText
 10
155.0990699616
 20
214.5513093619
 30
0.0
 40
3.5
 41
0.0
 71
     1
 72
     1
  1
A
  7
SLDTEXTSTYLE0
 73
     1
 44
1.0
  0
CIRCLE
  5
138
330
1F
100
AcDbEntity
  8
0
  6
Continuous
 62
     7
370
    30
100
AcDbCircle
 10
146.4571561514
 20
262.2944477245
 30
0.0
 40
4.060000000000002
  0
CIRCLE
  5
139
330
1F
100
AcDbEntity
  8
0
  6
Continuous
 62
     7
370
    30
100
AcDbCircle
 10
146.4571561514
 20
262.2944477245
 30
0.0
 40
4.45999999999998
  0
ARC
  5
13A
330
1F
100
AcDbEntity
  8
0
  6
Continuous
 62
     7
370
    30
100
AcDbCircle
 10
146.4571561514
 20
262.2944477245
 30
0.0
 40
5.382227891156449
100
AcDbArc
 50
265.2039870586
 51
274.7960129414
  0
SPLINE
  5
13B
330
1F
100
AcDbEntity
  8
0
  6
Continuous
 62
     7
370
    30
100
AcDbSpline
210
0.0
220
0.0
230
1.0
 70
     8
 71
     3
 72
     8
 73
     4
 74
     0
 42
0.00000001
 43
0.00000001
 12
1.0
 22
0.0
 32
0.0
 13
1.0
 23
0.0
 33
0.0
 40
0.000000200720882
 40
0.000000200720882
 40
0.000000200720882
 40
0.000000200720882
 40
0.0018568255271882
 40
0.0018568255271882
 40
0.0018568255271882
 40
0.0018568255271882
 10
146.0071561514261
 20
256.9310647368385
 30
0.0
 10
145.9754902259828
 20
256.8893097460876
 30
0.0
 10
145.9438235388326
 20
256.8477738928175
 30
0.0
 10
145.9121561514261
 20
256.806442622462
 30
0.0
  0
ARC
  5
13C
330
1F
100
AcDbEntity
  8
0
  6
Continuous
 62
     7
370
    30
100
AcDbCircle
 10
146.4571561514
 20
262.2944477245
 30
0.0
 40
5.515000000000025
100
AcDbArc
 50
95.6713052782
 51
264.3286947218
  0
SPLINE
  5
13D
330
1F
100
AcDbEntity
  8
0
  6
Continuous
 62
     7
370
    30
100
AcDbSpline
210
0.0
220
0.0
230
1.0
 70
     8
 71
     3
 72
     8
 73
     4
 74
     0
 42
0.00000001
 43
0.00000001
 12
1.0
 22
0.0
 32
0.0
 13
1.0
 23
0.0
 33
0.0
 40
0.000000200711615
 40
0.000000200711615
 40
0.000000200711615
 40
0.000000200711615
 40
0.0018568255179212
 40
0.0018568255179212
 40
0.0018568255179212
 40
0.0018568255179212
 10
145.9121561514261
 20
267.7824528265389
 30
0.0
 10
145.9438235388326
 20
267.7411215561834
 30
0.0
 10
145.9754902259828
 20
267.6995857029134
 30
0.0
 10
146.0071561514261
 20
267.6578307121625
 30
0.0
  0
ARC
  5
13E
330
1F
100
AcDbEntity
  8
0
  6
Continuous
 62
     7
370
    30
100
AcDbCircle
 10
146.4571561514
 20
262.2944477245
 30
0.0
 40
5.382227891156449
100
AcDbArc
 50
85.2039870586
 51
94.7960129414
  0
SPLINE
  5
13F
330
1F
100
AcDbEntity
  8
0
  6
Continuous
 62
     7
370
    30
100
AcDbSpline
210
0.0
220
0.0
230
1.0
 70
     8
 71
     3
 72
     8
 73
     4
 74
     0
 42
0.00000001
 43
0.00000001
 12
1.0
 22
0.0
 32
0.0
 13
1.0
 23
0.0
 33
0.0
 40
0.000000200720882
 40
0.000000200720882
 40
0.000000200720882
 40
0.000000200720882
 40
0.0018568255271882
 40
0.0018568255271882
 40
0.0018568255271882
 40
0.0018568255271882
 10
146.9071561514261
 20
267.6578307121625
 30
0.0
 10
146.9388220768695
 20
267.6995857029134
 30
0.0
 10
146.9704887640196
 20
267.7411215561834
 30
0.0
 10
147.0021561514261
 20
267.7824528265389
 30
0.0
  0
ARC
  5
140
330
1F
100
AcDbEntity
  8
0
  6
Continuous
 62
     7
370
    30
100
AcDbCircle
 10
146.4571561514
 20
262.2944477245
 30
0.0
 40
5.515000000000025
100
AcDbArc
 50
275.6713052782
 51
84.3286947218
  0
SPLINE
  5
141
330
1F
100
AcDbEntity
  8
0
  6
Continuous
 62
     7
370
    30
100
AcDbSpline
210
0.0
220
0.0
230
1.0
 70
     8
 71
     3
 72
     8
 73
     4
 74
     0
 42
0.00000001
 43
0.00000001
 12
1.0
 22
0.0
 32
0.0
 13
1.0
 23
0.0
 33
0.0
 40
0.000000200711615
 40
0.000000200711615
 40
0.000000200711615
 40
0.000000200711615
 40
0.0018568255179212
 40
0.0018568255179212
 40
0.0018568255179212
 40
0.0018568255179212
 10
147.0021561514261
 20
256.806442622462
 30
0.0
 10
146.9704887640196
 20
256.8477738928175
 30
0.0
 10
146.9388220768695
 20
256.8893097460876
 30
0.0
 10
146.9071561514261
 20
256.9310647368385
 30
0.0
  0
LINE
  5
142
330
1F
100
AcDbEntity
  8
0
  6
CENTERX2
 62
     7
370
     0
100
AcDbLine
 10
138.5804067477
 20
262.2944477245
 30
0.0
 11
154.3630533881
 21
262.2944477245
 31
0.0
  0
LINE
  5
143
330
1F
100
AcDbEntity
  8
0
  6
CENTERX2
 62
     7
370
     0
100
AcDbLine
 10
146.4571561514
 20
254.9908985233
 30
0.0
 11
146.4571561514
 21
269.5731748558
 31
0.0
  0
ARC
  5
144
330
1F
100
AcDbEntity
  8
0
  6
Continuous
 62
     7
370
    30
100
AcDbCircle
 10
141.9131595953
 20
159.659909181
 30
0.0
 40
0.2000000000000061
100
AcDbArc
 50
285.0
 51
12.5451104446
  0
ARC
  5
145
330
1F
100
AcDbEntity
  8
0
  6
Continuous
 62
     7
370
    30
100
AcDbCircle
 10
151.0011527076
 20
161.6809191241
 30
0.0
 40
0.2000000000000061
100
AcDbArc
 50
105.0
 51
192.5451104446
  0
ARC
  5
146
330
1F
100
AcDbEntity
  8
0
  6
Continuous
 62
     7
370
    30
100
AcDbCircle
 10
151.0011527076
 20
159.659909181
 30
0.0
 40
0.2000000000000173
100
AcDbArc
 50
167.4359383495
 51
255.0
  0
ARC
  5
147
330
1F
100
AcDbEntity
  8
0
  6
Continuous
 62
     7
370
    30
100
AcDbCircle
 10
141.9131595953
 20
161.6809191241
 30
0.0
 40
0.2000000000000173
100
AcDbArc
 50
347.4359383495
 51
75.0
  0
ARC
  5
148
330
1F
100
AcDbEntity
  8
0
  6
Continuous
 62
     7
370
    30
100
AcDbCircle
 10
146.4571561514
 20
160.6704141525
 30
0.0
 40
4.454999999999996
100
AcDbArc
 50
347.4628805909
 51
12.5367636741
  0
ARC
  5
149
330
1F
100
AcDbEntity
  8
0
  6
Continuous
 62
     7
370
    30
100
AcDbCircle
 10
146.4571561514
 20
160.6704141525
 30
0.0
 40
4.454999999999992
100
AcDbArc
 50
167.4615789697
 51
192.5378023021
  0
ARC
  5
14A
330
1F
100
AcDbEntity
  8
0
  6
Continuous
 62
     7
370
    30
100
AcDbCircle
 10
145.8071561514
 20
165.4262001023
 30
0.0
 40
0.25
100
AcDbArc
 50
277.7827143854
 51
0.0
  0
LINE
  5
14B
330
1F
100
AcDbEntity
  8
0
  6
Continuous
 62
     7
370
    30
100
AcDbLine
 10
146.0571561615
 20
165.7704143366
 30
0.0
 11
146.0571561615
 21
165.426200307
 31
0.0
  0
ARC
  5
14C
330
1F
100
AcDbEntity
  8
0
  6
Continuous
 62
     7
370
    30
100
AcDbCircle
 10
146.3071561514
 20
165.7704141525
 30
0.0
 40
0.25
100
AcDbArc
 50
90.0
 51
180.0
  0
LINE
  5
14D
330
1F
100
AcDbEntity
  8
0
  6
Continuous
 62
     7
370
    30
100
AcDbLine
 10
146.6071561586
 20
166.0204143776
 30
0.0
 11
146.3071561443
 21
166.0204143776
 31
0.0
  0
ARC
  5
14E
330
1F
100
AcDbEntity
  8
0
  6
Continuous
 62
     7
370
    30
100
AcDbCircle
 10
146.6071561514
 20
165.7704141525
 30
0.0
 40
0.25
100
AcDbArc
 50
0.0
 51
90.0
  0
LINE
  5
14F
330
1F
100
AcDbEntity
  8
0
  6
Continuous
 62
     7
370
    30
100
AcDbLine
 10
146.8571561413
 20
165.426200307
 30
0.0
 11
146.8571561413
 21
165.7704143366
 31
0.0
  0
ARC
  5
150
330
1F
100
AcDbEntity
  8
0
  6
Continuous
 62
     7
370
    30
100
AcDbCircle
 10
147.1071561514
 20
165.4262001023
 30
0.0
 40
0.2500000000000284
100
AcDbArc
 50
180.0
 51
262.2172856146
  0
ARC
  5
151
330
1F
100
AcDbEntity
  8
0
  6
Continuous
 62
     7
370
    30
100
AcDbCircle
 10
146.4571561514
 20
160.6704141525
 30
0.0
 40
4.550000000000007
100
AcDbArc
 50
14.6568599166
 51
82.2172856146
  0
ARC
  5
152
330
1F
100
AcDbEntity
  8
0
  6
Continuous
 62
     7
370
    30
100
AcDbCircle
 10
146.4571561514
 20
160.6704141525
 30
0.0
 40
4.550000000000001
100
AcDbArc
 50
194.6568599166
 51
345.3431400834
  0
ARC
  5
153
330
1F
100
AcDbEntity
  8
0
  6
Continuous
 62
     7
370
    30
100
AcDbCircle
 10
146.4571561514
 20
160.6704141525
 30
0.0
 40
4.550000000000007
100
AcDbArc
 50
97.7827143854
 51
165.3431400834
  0
CIRCLE
  5
154
330
1F
100
AcDbEntity
  8
0
  6
Continuous
 62
     7
370
    30
100
AcDbCircle
 10
148.2532073756
 20
158.8743629283
 30
0.0
 40
0.7500000000000061
  0
CIRCLE
  5
155
330
1F
100
AcDbEntity
  8
0
  6
Continuous
 62
     7
370
    30
100
AcDbCircle
 10
148.2532073756
 20
162.4664653768
 30
0.0
 40
0.7500000000000061
  0
CIRCLE
  5
156
330
1F
100
AcDbEntity
  8
0
  6
Continuous
 62
     7
370
    30
100
AcDbCircle
 10
144.6611049272
 20
158.8743629283
 30
0.0
 40
0.7500000000000061
  0
CIRCLE
  5
157
330
1F
100
AcDbEntity
  8
0
  6
Continuous
 62
     7
370
    30
100
AcDbCircle
 10
148.2532073756
 20
158.8743629283
 30
0.0
 40
0.2250000000000058
  0
CIRCLE
  5
158
330
1F
100
AcDbEntity
  8
0
  6
Continuous
 62
     7
370
    30
100
AcDbCircle
 10
148.2532073756
 20
162.4664653768
 30
0.0
 40
0.2249999999999857
  0
CIRCLE
  5
159
330
1F
100
AcDbEntity
  8
0
  6
Continuous
 62
     7
370
    30
100
AcDbCircle
 10
144.6611049272
 20
158.8743629283
 30
0.0
 40
0.2250000000000058
  0
LINE
  5
15A
330
1F
100
AcDbEntity
  8
0
  6
Continuous
 62
     7
370
    30
100
AcDbLine
 10
146.0071561592
 20
156.0422396799
 30
0.0
 11
146.0071561592
 21
155.3070312878
 31
0.0
  0
SPLINE
  5
15B
330
1F
100
AcDbEntity
  8
0
  6
Continuous
 62
     7
370
    30
100
AcDbSpline
210
0.0
220
0.0
230
1.0
 70
     8
 71
     3
 72
     8
 73
     4
 74
     0
 42
0.00000001
 43
0.00000001
 12
1.0
 22
0.0
 32
0.0
 13
1.0
 23
0.0
 33
0.0
 40
0.000000200711615
 40
0.000000200711615
 40
0.000000200711615
 40
0.000000200711615
 40
0.0018568255179212
 40
0.0018568255179212
 40
0.0018568255179212
 40
0.0018568255179212
 10
145.9121561514261
 20
155.1824090505091
 30
0.0
 10
145.9438235388326
 20
155.2237403208646
 30
0.0
 10
145.9754902259828
 20
155.2652761741346
 30
0.0
 10
146.0071561514261
 20
155.3070311648855
 30
0.0
  0
LINE
  5
15C
330
1F
100
AcDbEntity
  8
0
  6
Continuous
 62
     7
370
    30
100
AcDbLine
 10
145.9121561343
 20
156.0524628078
 30
0.0
 11
145.9121561343
 21
155.1824091514
 31
0.0
  0
ARC
  5
15D
330
1F
100
AcDbEntity
  8
0
  6
Continuous
 62
     7
370
    30
100
AcDbCircle
 10
146.4571561514
 20
160.6704141525
 30
0.0
 40
4.650000000000032
100
AcDbArc
 50
263.2692178478
 51
264.4465558043
  0
ARC
  5
15E
330
1F
100
AcDbEntity
  8
0
  6
Continuous
 62
     7
370
    30
100
AcDbCircle
 10
146.4571561514
 20
160.6704141525
 30
0.0
 40
4.650000000000024
100
AcDbArc
 50
276.7307821522
 51
83.2692178478
  0
LINE
  5
15F
330
1F
100
AcDbEntity
  8
0
  6
Continuous
 62
     7
370
    30
100
AcDbLine
 10
147.0021561686
 20
166.1584191536
 30
0.0
 11
147.0021561686
 21
165.2883654972
 31
0.0
  0
ARC
  5
160
330
1F
100
AcDbEntity
  8
0
  6
Continuous
 62
     7
370
    30
100
AcDbCircle
 10
146.4571561514
 20
160.6704141525
 30
0.0
 40
5.515000000000025
100
AcDbArc
 50
275.6713052782
 51
84.3286947218
  0
LINE
  5
161
330
1F
100
AcDbEntity
  8
0
  6
Continuous
 62
     7
370
    30
100
AcDbLine
 10
147.0021561686
 20
156.0524628078
 30
0.0
 11
147.0021561686
 21
155.1824091514
 31
0.0
  0
ARC
  5
162
330
1F
100
AcDbEntity
  8
0
  6
Continuous
 62
     7
370
    30
100
AcDbCircle
 10
146.4571561514
 20
160.6704141525
 30
0.0
 40
4.650000000000024
100
AcDbArc
 50
96.7307821522
 51
263.2692178478
  0
ARC
  5
163
330
1F
100
AcDbEntity
  8
0
  6
Continuous
 62
     7
370
    30
100
AcDbCircle
 10
146.4571561514
 20
160.6704141525
 30
0.0
 40
5.515000000000025
100
AcDbArc
 50
95.6713052782
 51
264.3286947218
  0
LINE
  5
164
330
1F
100
AcDbEntity
  8
0
  6
Continuous
 62
     7
370
    30
100
AcDbLine
 10
145.9121561343
 20
166.1584191536
 30
0.0
 11
145.9121561343
 21
165.2883654972
 31
0.0
  0
LINE
  5
165
330
1F
100
AcDbEntity
  8
0
  6
Continuous
 62
     7
370
    30
100
AcDbLine
 10
146.9071561437
 20
156.0422396799
 30
0.0
 11
146.9071561437
 21
155.3070312878
 31
0.0
  0
ARC
  5
166
330
1F
100
AcDbEntity
  8
0
  6
Continuous
 62
     7
370
    30
100
AcDbCircle
 10
146.4571561514
 20
160.6704141525
 30
0.0
 40
4.650000000000035
100
AcDbArc
 50
275.5534441957
 51
276.7307821522
  0
SPLINE
  5
167
330
1F
100
AcDbEntity
  8
0
  6
Continuous
 62
     7
370
    30
100
AcDbSpline
210
0.0
220
0.0
230
1.0
 70
     8
 71
     3
 72
     8
 73
     4
 74
     0
 42
0.00000001
 43
0.00000001
 12
1.0
 22
0.0
 32
0.0
 13
1.0
 23
0.0
 33
0.0
 40
0.000000200720882
 40
0.000000200720882
 40
0.000000200720882
 40
0.000000200720882
 40
0.0018568255271882
 40
0.0018568255271882
 40
0.0018568255271882
 40
0.0018568255271882
 10
146.9071561514261
 20
155.3070311648855
 30
0.0
 10
146.9388220768695
 20
155.2652761741346
 30
0.0
 10
146.9704887640196
 20
155.2237403208646
 30
0.0
 10
147.0021561514261
 20
155.1824090505091
 30
0.0
  0
LINE
  5
168
330
1F
100
AcDbEntity
  8
0
  6
Continuous
 62
     7
370
    30
100
AcDbLine
 10
146.0071561592
 20
166.0337970173
 30
0.0
 11
146.0071561592
 21
165.2985886251
 31
0.0
  0
ARC
  5
169
330
1F
100
AcDbEntity
  8
0
  6
Continuous
 62
     7
370
    30
100
AcDbCircle
 10
146.4571561514
 20
160.6704141525
 30
0.0
 40
4.649999999999975
100
AcDbArc
 50
95.5534441957
 51
96.7307821522
  0
SPLINE
  5
16A
330
1F
100
AcDbEntity
  8
0
  6
Continuous
 62
     7
370
    30
100
AcDbSpline
210
0.0
220
0.0
230
1.0
 70
     8
 71
     3
 72
     8
 73
     4
 74
     0
 42
0.00000001
 43
0.00000001
 12
1.0
 22
0.0
 32
0.0
 13
1.0
 23
0.0
 33
0.0
 40
0.000000200720882
 40
0.000000200720882
 40
0.000000200720882
 40
0.000000200720882
 40
0.0018568255271882
 40
0.0018568255271882
 40
0.0018568255271882
 40
0.0018568255271882
 10
146.0071561514261
 20
166.0337971402095
 30
0.0
 10
145.9754902259828
 20
166.0755521309604
 30
0.0
 10
145.9438235388326
 20
166.1170879842304
 30
0.0
 10
145.9121561514261
 20
166.1584192545859
 30
0.0
  0
LINE
  5
16B
330
1F
100
AcDbEntity
  8
0
  6
Continuous
 62
     7
370
    30
100
AcDbLine
 10
146.9071561437
 20
166.0337970173
 30
0.0
 11
146.9071561437
 21
165.2985886251
 31
0.0
  0
ARC
  5
16C
330
1F
100
AcDbEntity
  8
0
  6
Continuous
 62
     7
370
    30
100
AcDbCircle
 10
146.4571561514
 20
160.6704141525
 30
0.0
 40
4.649999999999978
100
AcDbArc
 50
83.2692178478
 51
84.4465558043
  0
SPLINE
  5
16D
330
1F
100
AcDbEntity
  8
0
  6
Continuous
 62
     7
370
    30
100
AcDbSpline
210
0.0
220
0.0
230
1.0
 70
     8
 71
     3
 72
     8
 73
     4
 74
     0
 42
0.00000001
 43
0.00000001
 12
1.0
 22
0.0
 32
0.0
 13
1.0
 23
0.0
 33
0.0
 40
0.000000200711615
 40
0.000000200711615
 40
0.000000200711615
 40
0.000000200711615
 40
0.0018568255179212
 40
0.0018568255179212
 40
0.0018568255179212
 40
0.0018568255179212
 10
147.0021561514261
 20
166.1584192545859
 30
0.0
 10
146.9704887640196
 20
166.1170879842304
 30
0.0
 10
146.9388220768695
 20
166.0755521309604
 30
0.0
 10
146.9071561514261
 20
166.0337971402095
 30
0.0
  0
ARC
  5
16E
330
1F
100
AcDbEntity
  8
0
  6
Continuous
 62
     7
370
    30
100
AcDbCircle
 10
146.4571561514
 20
160.6704141525
 30
0.0
 40
5.382227891156421
100
AcDbArc
 50
85.2039870586
 51
94.7960129414
  0
ARC
  5
16F
330
1F
100
AcDbEntity
  8
0
  6
Continuous
 62
     7
370
    30
100
AcDbCircle
 10
146.4571561514
 20
160.6704141525
 30
0.0
 40
5.382227891156478
100
AcDbArc
 50
265.2039870586
 51
274.7960129414
  0
SPLINE
  5
170
330
1F
100
AcDbEntity
  8
0
  6
Continuous
 62
     7
370
    30
100
AcDbSpline
210
0.0
220
0.0
230
1.0
 70
     8
 71
     3
 72
     8
 73
     4
 74
     0
 42
0.00000001
 43
0.00000001
 12
1.0
 22
0.0
 32
0.0
 13
1.0
 23
0.0
 33
0.0
 40
0.0
 40
0.0
 40
0.0
 40
0.0
 40
1.0
 40
1.0
 40
1.0
 40
1.0
 10
141.9189102146291
 20
159.6570909972092
 30
0.0
 10
142.0342671529248
 20
159.6852935964729
 30
0.0
 10
142.1083751054993
 20
159.7033213565955
 30
0.0
 10
142.108390379285
 20
159.7033250760511
 30
0.0
  0
SPLINE
  5
171
330
1F
100
AcDbEntity
  8
0
  6
Continuous
 62
     7
370
    30
100
AcDbSpline
210
0.0
220
0.0
230
1.0
 70
     8
 71
     3
 72
     8
 73
     4
 74
     0
 42
0.00000001
 43
0.00000001
 12
1.0
 22
0.0
 32
0.0
 13
1.0
 23
0.0
 33
0.0
 40
0.0
 40
0.0
 40
0.0
 40
0.0
 40
1.0
 40
1.0
 40
1.0
 40
1.0
 10
150.9954020882232
 20
161.6837373078858
 30
0.0
 10
150.8800451499275
 20
161.6555347086221
 30
0.0
 10
150.805937197353
 20
161.6375069484995
 30
0.0
 10
150.8059219235673
 20
161.6375032290439
 30
0.0
  0
SPLINE
  5
172
330
1F
100
AcDbEntity
  8
0
  6
Continuous
 62
     7
370
    30
100
AcDbSpline
210
0.0
220
0.0
230
1.0
 70
     8
 71
     3
 72
    10
 73
     6
 74
     0
 42
0.00000001
 43
0.00000001
 12
1.0
 22
0.0
 32
0.0
 13
1.0
 23
0.0
 33
0.0
 40
0.0
 40
0.0
 40
0.0
 40
0.0
 40
0.3213654625294048
 40
0.6436729678317582
 40
0.9999999999999999
 40
0.9999999999999999
 40
0.9999999999999999
 40
0.9999999999999999
 10
150.805987868351
 20
159.7033090586698
 30
0.0
 10
150.8102559122518
 20
159.7022696369119
 30
0.0
 10
150.8188045112916
 20
159.700187746461
 30
0.0
 10
150.8848409178658
 20
159.6841004546176
 30
0.0
 10
150.9573369891301
 20
159.6663900576266
 30
0.0
 10
150.9954021162215
 20
159.6570909535436
 30
0.0
  0
SPLINE
  5
173
330
1F
100
AcDbEntity
  8
0
  6
Continuous
 62
     7
370
    30
100
AcDbSpline
210
0.0
220
0.0
230
1.0
 70
     8
 71
     3
 72
    10
 73
     6
 74
     0
 42
0.00000001
 43
0.00000001
 12
1.0
 22
0.0
 32
0.0
 13
1.0
 23
0.0
 33
0.0
 40
0.0
 40
0.0
 40
0.0
 40
0.0
 40
0.3213654625294048
 40
0.6436729678317582
 40
0.9999999999999999
 40
0.9999999999999999
 40
0.9999999999999999
 40
0.9999999999999999
 10
142.1083244345012
 20
161.6375192464253
 30
0.0
 10
142.1040563906005
 20
161.6385586681831
 30
0.0
 10
142.0955077915607
 20
161.640640558634
 30
0.0
 10
142.0294713849864
 20
161.6567278504774
 30
0.0
 10
141.9569753137222
 20
161.6744382474683
 30
0.0
 10
141.9189101866308
 20
161.6837373515515
 30
0.0
  0
LINE
  5
174
330
1F
100
AcDbEntity
  8
0
  6
CENTERX2
 62
     7
370
     0
100
AcDbLine
 10
138.2924352452
 20
160.6704141525
 30
0.0
 11
154.6289954737
 21
160.6704141525
 31
0.0
  0
LINE
  5
175
330
1F
100
AcDbEntity
  8
0
  6
CENTERX2
 62
     7
370
     0
100
AcDbLine
 10
146.4571561514
 20
153.2692413204
 30
0.0
 11
146.4571561514
 21
168.1996813414
 31
0.0
  0
LINE
  5
176
330
1F
100
AcDbEntity
  8
0
  6
Continuous
 62
     7
370
     0
100
AcDbLine
 10
146.4571561514
 20
160.6704141525
 30
0.0
 11
144.6611049272
 21
158.8743629283
 31
0.0
  0
LINE
  5
177
330
1F
100
AcDbEntity
  8
0
  6
Continuous
 62
     7
370
     0
100
AcDbLine
 10
148.2532073756
 20
158.8743629283
 30
0.0
 11
146.4571561514
 21
160.6704141525
 31
0.0
  0
CIRCLE
  5
178
330
1F
100
AcDbEntity
  8
0
  6
Continuous
 62
     7
370
     0
100
AcDbCircle
 10
146.4571561514
 20
160.6704141525
 30
0.0
 40
2.54000000000001
  0
DIMENSION
  5
179
330
1F
100
AcDbEntity
  8
0
  6
Continuous
 62
     7
370
     0
100
AcDbDimension
  2
_D_9
 10
148.278313793
 20
158.8998253113
 30
0.0
 11
117.1132911801
 21
173.7598688406
 31
0.0
 70
   163
  1
P.D.C.<>
 71
     1
 42
-1.0
  3
SLDDIMSTYLE6
100
AcDbDiametricDimension
 15
144.6359985099
 25
162.4410029938
 35
0.0
 40
0.0
  0
DIMENSION
  5
186
330
1F
100
AcDbEntity
  8
0
  6
Continuous
 62
     7
370
     0
100
AcDbDimension
  2
_D_10
 10
146.4571561514
 20
168.1996813414
 30
0.0
 11
134.3460033622
 21
140.0562874292
 31
0.0
 70
   162
  1
<>
 71
     1
 42
-1.0
  3
SLDDIMSTYLE7
100
AcDb2LineAngularDimension
 13
146.4571561514
 23
160.6704141525
 33
0.0
 14
144.6611049272
 24
158.8743629283
 34
0.0
 15
146.4571561514
 25
153.2692413204
 35
0.0
 16
137.3077223291
 26
138.5817269308
 36
0.0
  0
DIMENSION
  5
191
330
1F
100
AcDbEntity
  8
0
  6
Continuous
 62
     7
370
     0
100
AcDbDimension
  2
_D_11
 10
146.4571561514
 20
160.6704141525
 30
0.0
 11
152.1675608233
 21
137.4217104551
 31
0.0
 70
   162
  1
<>
 71
     1
 42
-1.0
  3
SLDDIMSTYLE7
100
AcDb2LineAngularDimension
 13
146.4571561514
 23
153.2692413204
 33
0.0
 14
146.4571561514
 24
168.1996813414
 34
0.0
 15
148.2532073756
 25
158.8743629283
 35
0.0
 16
155.6184963769
 26
138.5529823306
 36
0.0
  0
MTEXT
  5
19B
330
1F
100
AcDbEntity
  8
0
  6
Continuous
 62
     7
370
     0
100
AcDbMText
 10
128.5254045477
 20
159.5388069058
 30
0.0
 40
3.5
 41
0.0
 71
     1
 72
     1
  1
GND
  7
SLDTEXTSTYLE0
 73
     1
 44
1.0
  0
LEADER
  5
19D
330
1F
100
AcDbEntity
  8
0
  6
Continuous
 62
     7
370
     0
100
AcDbLeader
  3
SLDDIMSTYLE8
 76
     3
 10
144.553261037
 20
158.6768921828
 30
0.0
 10
137.0
 20
155.0
 30
0.0
 10
128.5
 20
155.0
 30
0.0
  0
MTEXT
  5
19E
330
1F
100
AcDbEntity
  8
0
  6
Continuous
 62
     7
370
     0
100
AcDbMText
 10
157.245051017
 20
159.5388069058
 30
0.0
 40
3.5
 41
0.0
 71
     1
 72
     1
  1
OUT
  7
SLDTEXTSTYLE0
 73
     1
 44
1.0
  0
LEADER
  5
19F
330
1F
100
AcDbEntity
  8
0
  6
Continuous
 62
     7
370
     0
100
AcDbLeader
  3
SLDDIMSTYLE8
 76
     3
 10
148.4626337592
 20
158.7921097224
 30
0.0
 10
156.7
 20
155.0
 30
0.0
 10
165.1
 20
155.0
 30
0.0
  0
INSERT
  5
1AA
330
1F
100
AcDbEntity
  8
0
  6
Continuous
 62
     7
370
     0
100
AcDbBlockReference
  2
SW_NOTE_4
 10
155.1
 20
170.9
 30
0.0
  0
LEADER
  5
1AB
330
1F
100
AcDbEntity
  8
0
  6
Continuous
 62
     7
370
     0
100
AcDbLeader
  3
SLDDIMSTYLE8
 76
     2
 10
148.4534033447
 20
162.5691618907
 30
0.0
 10
155.1
 20
170.9
 30
0.0
  0
LINE
  5
1AC
330
1F
100
AcDbEntity
  8
0
  6
Continuous
 62
     7
370
    30
100
AcDbLine
 10
53.863836485
 20
175.2434295903
 30
0.0
 11
53.863836485
 21
170.6234298016
 31
0.0
  0
LINE
  5
1AD
330
1F
100
AcDbEntity
  8
0
  6
Continuous
 62
     7
370
    30
100
AcDbLine
 10
54.3138365355
 20
170.6234298016
 30
0.0
 11
54.3138365355
 21
175.2434295903
 31
0.0
  0
LINE
  5
1AE
330
1F
100
AcDbEntity
  8
0
  6
Continuous
 62
     7
370
    30
100
AcDbLine
 10
50.2717340458
 20
175.2434295903
 30
0.0
 11
50.2717340458
 21
170.6234298016
 31
0.0
  0
LINE
  5
1AF
330
1F
100
AcDbEntity
  8
0
  6
Continuous
 62
     7
370
    30
100
AcDbLine
 10
50.7217340963
 20
170.6234298016
 30
0.0
 11
50.7217340963
 21
175.2434295903
 31
0.0
  0
LINE
  5
1B0
330
1F
100
AcDbEntity
  8
0
  6
Continuous
 62
     7
370
    30
100
AcDbLine
 10
57.8077851422
 20
175.2434295903
 30
0.0
 11
56.752785258
 21
189.943429299
 31
0.0
  0
LINE
  5
1B1
330
1F
100
AcDbEntity
  8
0
  6
Continuous
 62
     7
370
    30
100
AcDbLine
 10
47.8327853233
 20
189.943429299
 30
0.0
 11
46.7777854391
 21
175.2434295903
 31
0.0
  0
ARC
  5
1B2
330
1F
100
AcDbEntity
  8
0
  6
Continuous
 62
     7
370
    30
100
AcDbCircle
 10
48.2327852907
 20
189.9434294547
 30
0.0
 40
0.4000000000000057
100
AcDbArc
 50
90.0
 51
180.0
  0
ARC
  5
1B3
330
1F
100
AcDbEntity
  8
0
  6
Continuous
 62
     7
370
    30
100
AcDbCircle
 10
56.3527852907
 20
189.9434294547
 30
0.0
 40
0.4000000000000057
100
AcDbArc
 50
0.0
 51
90.0
  0
LINE
  5
1B4
330
1F
100
AcDbEntity
  8
0
  6
Continuous
 62
     7
370
    30
100
AcDbLine
 10
52.1427852835
 20
176.1234297718
 30
0.0
 11
52.1427852835
 21
176.8434296663
 31
0.0
  0
LINE
  5
1B5
330
1F
100
AcDbEntity
  8
0
  6
Continuous
 62
     7
370
    30
100
AcDbLine
 10
52.4427852978
 20
176.1234297718
 30
0.0
 11
52.4427852978
 21
176.8434296663
 31
0.0
  0
LINE
  5
1B6
330
1F
100
AcDbEntity
  8
0
  6
Continuous
 62
     7
370
    30
100
AcDbLine
 10
52.4427852978
 20
176.1234297718
 30
0.0
 11
52.1427852835
 21
176.1234297718
 31
0.0
  0
LINE
  5
1B7
330
1F
100
AcDbEntity
  8
0
  6
Continuous
 62
     7
370
    30
100
AcDbLine
 10
52.1427852835
 20
176.8434296663
 30
0.0
 11
52.4427852978
 21
176.8434296663
 31
0.0
  0
LINE
  5
1B8
330
1F
100
AcDbEntity
  8
0
  6
Continuous
 62
     7
370
    30
100
AcDbLine
 10
52.6927852805
 20
176.1234297718
 30
0.0
 11
52.6927852805
 21
176.8434296663
 31
0.0
  0
LINE
  5
1B9
330
1F
100
AcDbEntity
  8
0
  6
Continuous
 62
     7
370
    30
100
AcDbLine
 10
52.6927852805
 20
176.1234297718
 30
0.0
 11
52.4427852978
 21
176.1234297718
 31
0.0
  0
LINE
  5
1BA
330
1F
100
AcDbEntity
  8
0
  6
Continuous
 62
     7
370
    30
100
AcDbLine
 10
52.4427852978
 20
176.8434296663
 30
0.0
 11
52.6927852805
 21
176.8434296663
 31
0.0
  0
LINE
  5
1BB
330
1F
100
AcDbEntity
  8
0
  6
Continuous
 62
     7
370
    30
100
AcDbLine
 10
51.8927853008
 20
176.1234297718
 30
0.0
 11
51.8927853008
 21
176.8434296663
 31
0.0
  0
LINE
  5
1BC
330
1F
100
AcDbEntity
  8
0
  6
Continuous
 62
     7
370
    30
100
AcDbLine
 10
52.1427852835
 20
176.1234297718
 30
0.0
 11
51.8927853008
 21
176.1234297718
 31
0.0
  0
LINE
  5
1BD
330
1F
100
AcDbEntity
  8
0
  6
Continuous
 62
     7
370
    30
100
AcDbLine
 10
51.8927853008
 20
176.8434296663
 30
0.0
 11
52.1427852835
 21
176.8434296663
 31
0.0
  0
LINE
  5
1BE
330
1F
100
AcDbEntity
  8
0
  6
Continuous
 62
     7
370
    30
100
AcDbLine
 10
52.789835874
 20
176.1234297718
 30
0.0
 11
52.6927852805
 21
176.1234297718
 31
0.0
  0
LINE
  5
1BF
330
1F
100
AcDbEntity
  8
0
  6
Continuous
 62
     7
370
    30
100
AcDbLine
 10
52.6927852805
 20
176.8434296663
 30
0.0
 11
52.7527318662
 21
176.8434296663
 31
0.0
  0
LINE
  5
1C0
330
1F
100
AcDbEntity
  8
0
  6
Continuous
 62
     7
370
    30
100
AcDbLine
 10
51.8927853008
 20
176.1234297718
 30
0.0
 11
51.7952606641
 21
176.1234297718
 31
0.0
  0
LINE
  5
1C1
330
1F
100
AcDbEntity
  8
0
  6
Continuous
 62
     7
370
    30
100
AcDbLine
 10
51.8321424932
 20
176.8434296663
 30
0.0
 11
51.8927853008
 21
176.8434296663
 31
0.0
  0
LINE
  5
1C2
330
1F
100
AcDbEntity
  8
0
  6
Continuous
 62
     7
370
    30
100
AcDbLine
 10
54.2479354516
 20
170.6234298016
 30
0.0
 11
54.3138365355
 21
170.6234298016
 31
0.0
  0
LINE
  5
1C3
330
1F
100
AcDbEntity
  8
0
  6
Continuous
 62
     7
370
    30
100
AcDbLine
 10
53.863836485
 20
170.6234298016
 30
0.0
 11
54.2479354516
 21
170.6234298016
 31
0.0
  0
LINE
  5
1C4
330
1F
100
AcDbEntity
  8
0
  6
Continuous
 62
     7
370
    30
100
AcDbLine
 10
50.6558331289
 20
170.6234298016
 30
0.0
 11
50.7217340963
 21
170.6234298016
 31
0.0
  0
LINE
  5
1C5
330
1F
100
AcDbEntity
  8
0
  6
Continuous
 62
     7
370
    30
100
AcDbLine
 10
50.2717340458
 20
170.6234298016
 30
0.0
 11
50.6558331289
 21
170.6234298016
 31
0.0
  0
LINE
  5
1C6
330
1F
100
AcDbEntity
  8
0
  6
Continuous
 62
     7
370
    30
100
AcDbLine
 10
52.4427852978
 20
177.0934292416
 30
0.0
 11
52.4427852978
 21
176.8434296663
 31
0.0
  0
LINE
  5
1C7
330
1F
100
AcDbEntity
  8
0
  6
Continuous
 62
     7
370
    30
100
AcDbLine
 10
52.6927852805
 20
177.0934292416
 30
0.0
 11
52.6927852805
 21
176.8434296663
 31
0.0
  0
LINE
  5
1C8
330
1F
100
AcDbEntity
  8
0
  6
Continuous
 62
     7
370
    30
100
AcDbLine
 10
52.1427852835
 20
177.0934292416
 30
0.0
 11
52.1427852835
 21
176.8434296663
 31
0.0
  0
LINE
  5
1C9
330
1F
100
AcDbEntity
  8
0
  6
Continuous
 62
     7
370
    30
100
AcDbLine
 10
51.8927853008
 20
177.0934292416
 30
0.0
 11
51.8927853008
 21
176.8434296663
 31
0.0
  0
LINE
  5
1CA
330
1F
100
AcDbEntity
  8
0
  6
Continuous
 62
     7
370
    30
100
AcDbLine
 10
52.7534280881
 20
176.8434296663
 30
0.0
 11
52.6927852805
 21
176.8434296663
 31
0.0
  0
LINE
  5
1CB
330
1F
100
AcDbEntity
  8
0
  6
Continuous
 62
     7
370
    30
100
AcDbLine
 10
51.8927853008
 20
176.8434296663
 30
0.0
 11
51.8328387151
 21
176.8434296663
 31
0.0
  0
LINE
  5
1CC
330
1F
100
AcDbEntity
  8
0
  6
Continuous
 62
     7
370
    30
100
AcDbLine
 10
56.752785258
 20
189.943429299
 30
0.0
 11
47.8327853233
 21
189.943429299
 31
0.0
  0
LINE
  5
1CD
330
1F
100
AcDbEntity
  8
0
  6
Continuous
 62
     7
370
    30
100
AcDbLine
 10
52.7427852829
 20
177.0934292416
 30
0.0
 11
51.8427852984
 21
177.0934292416
 31
0.0
  0
SPLINE
  5
1CE
330
1F
100
AcDbEntity
  8
0
  6
Continuous
 62
     7
370
    30
100
AcDbSpline
210
0.0
220
0.0
230
1.0
 70
    24
 71
     3
 72
     8
 73
     4
 74
     0
 42
0.00000001
 43
0.00000001
 12
1.0
 22
0.0
 32
0.0
 13
1.0
 23
0.0
 33
0.0
 40
0.000000200720882
 40
0.000000200720882
 40
0.000000200720882
 40
0.000000200720882
 40
0.0018568255271882
 40
0.0018568255271882
 40
0.0018568255271882
 40
0.0018568255271882
 10
51.84278529065373
 20
177.0934294547118
 30
0.0
 10
51.81111936521035
 20
176.4767772223934
 30
0.0
 10
51.77945267806025
 20
175.8601101568388
 30
0.0
 10
51.74778529065374
 20
175.2434294547118
 30
0.0
  0
LINE
  5
1CF
330
1F
100
AcDbEntity
  8
0
  6
Continuous
 62
     7
370
    30
100
AcDbLine
 10
51.7477852735
 20
175.2434295903
 30
0.0
 11
46.7777854391
 21
175.2434295903
 31
0.0
  0
SPLINE
  5
1D0
330
1F
100
AcDbEntity
  8
0
  6
Continuous
 62
     7
370
    30
100
AcDbSpline
210
0.0
220
0.0
230
1.0
 70
    24
 71
     3
 72
     8
 73
     4
 74
     0
 42
0.00000001
 43
0.00000001
 12
1.0
 22
0.0
 32
0.0
 13
1.0
 23
0.0
 33
0.0
 40
0.000000200711615
 40
0.000000200711615
 40
0.000000200711615
 40
0.000000200711615
 40
0.0018568255179212
 40
0.0018568255179212
 40
0.0018568255179212
 40
0.0018568255179212
 10
52.83778529065373
 20
175.2434294547118
 30
0.0
 10
52.80611790324721
 20
175.8601101568388
 30
0.0
 10
52.77445121609711
 20
176.4767772223934
 30
0.0
 10
52.74278529065373
 20
177.0934294547118
 30
0.0
  0
LINE
  5
1D1
330
1F
100
AcDbEntity
  8
0
  6
Continuous
 62
     7
370
    30
100
AcDbLine
 10
57.8077851422
 20
175.2434295903
 30
0.0
 11
52.8377853078
 21
175.2434295903
 31
0.0
  0
LINE
  5
1D2
330
1F
100
AcDbEntity
  8
0
  6
Continuous
 62
     7
370
    30
100
AcDbLine
 10
48.2327851095
 20
190.3434295508
 30
0.0
 11
56.3527854719
 21
190.3434295508
 31
0.0
  0
LINE
  5
1D3
330
1F
100
AcDbEntity
  8
0
  6
CENTERX2
 62
     7
370
     0
100
AcDbLine
 10
52.2927852907
 20
194.9303894934
 30
0.0
 11
52.2927852907
 21
165.4808335327
 31
0.0
  0
LINE
  5
1D4
330
1F
100
AcDbEntity
  8
0
  6
Continuous
 62
     7
370
     0
100
AcDbLine
 10
56.9927852907
 20
190.3434294547
 30
0.0
 11
61.9927852907
 21
190.3434294547
 31
0.0
  0
LINE
  5
1D5
330
1F
100
AcDbEntity
  8
0
  6
Continuous
 62
     7
370
     0
100
AcDbLine
 10
56.9927852907
 20
190.3434294547
 30
0.0
 11
56.9927852907
 21
188.8434294547
 31
0.0
  0
LINE
  5
1D6
330
1F
100
AcDbEntity
  8
0
  6
Continuous
 62
     7
370
     0
100
AcDbLine
 10
56.9927852907
 20
188.8434294547
 30
0.0
 11
61.9927852907
 21
188.8434294547
 31
0.0
  0
LINE
  5
1D7
330
1F
100
AcDbEntity
  8
0
  6
Continuous
 62
     7
370
     0
100
AcDbLine
 10
47.5927852907
 20
188.8434294547
 30
0.0
 11
42.5927852907
 21
188.8434294547
 31
0.0
  0
LINE
  5
1D8
330
1F
100
AcDbEntity
  8
0
  6
Continuous
 62
     7
370
     0
100
AcDbLine
 10
47.5927852907
 20
190.3434294547
 30
0.0
 11
47.5927852907
 21
188.8434294547
 31
0.0
  0
LINE
  5
1D9
330
1F
100
AcDbEntity
  8
0
  6
Continuous
 62
     7
370
     0
100
AcDbLine
 10
47.5927852907
 20
190.3434294547
 30
0.0
 11
42.5927852907
 21
190.3434294547
 31
0.0
  0
SPLINE
  5
1DA
330
1F
100
AcDbEntity
  8
0
  6
Continuous
 62
     7
370
     0
100
AcDbSpline
210
0.0
220
0.0
230
1.0
 70
     8
 71
     3
 72
     8
 73
     4
 74
     0
 42
0.00000001
 43
0.00000001
 12
1.0
 22
0.0
 32
0.0
 13
1.0
 23
0.0
 33
0.0
 40
0.0
 40
0.0
 40
0.0
 40
0.0
 40
1.0
 40
1.0
 40
1.0
 40
1.0
 10
61.99278529065374
 20
190.3434294547119
 30
0.0
 10
61.40276991082774
 20
189.8234472094721
 30
0.0
 10
62.53426360953929
 20
189.4441835934746
 30
0.0
 10
61.99278529065374
 20
188.8434294547119
 30
0.0
  0
SPLINE
  5
1DB
330
1F
100
AcDbEntity
  8
0
  6
Continuous
 62
     7
370
     0
100
AcDbSpline
210
0.0
220
0.0
230
1.0
 70
     8
 71
     3
 72
     8
 73
     4
 74
     0
 42
0.00000001
 43
0.00000001
 12
1.0
 22
0.0
 32
0.0
 13
1.0
 23
0.0
 33
0.0
 40
0.0
 40
0.0
 40
0.0
 40
0.0
 40
1.0
 40
1.0
 40
1.0
 40
1.0
 10
42.59278529065373
 20
190.3434294547119
 30
0.0
 10
43.18280067047972
 20
189.8234472094721
 30
0.0
 10
42.05130697176818
 20
189.4441835934746
 30
0.0
 10
42.59278529065373
 20
188.8434294547119
 30
0.0
  0
HATCH
  5
1DC
330
1F
100
AcDbEntity
  8
0
  6
Continuous
 62
     7
100
AcDbHatch
 10
0.0
 20
0.0
 30
0.0
210
0.0
220
0.0
230
1.0
  2
ANSI31
 70
     0
 71
     0
 91
        1
 92
        0
 93
        4
 72
     1
 10
47.59278529065373
 20
190.3434294547119
 11
42.59278529065373
 21
190.3434294547119
 72
     4
 94
        3
 73
     1
 74
     0
 95
        8
 96
        4
 40
0.0
 40
0.0
 40
0.0
 40
0.0
 40
1.0
 40
1.0
 40
1.0
 40
1.0
 10
42.59278529065373
 20
190.3434294547119
 42
1.0
 10
43.18280067047972
 20
189.8234472094721
 42
1.0
 10
42.05130697176818
 20
189.4441835934746
 42
1.0
 10
42.59278529065373
 20
188.8434294547119
 42
1.0
 72
     1
 10
42.59278529065373
 20
188.8434294547119
 11
47.59278529065373
 21
188.8434294547119
 72
     1
 10
47.59278529065373
 20
188.8434294547119
 11
47.59278529065373
 21
190.3434294547119
 97
        0
 75
     0
 76
     1
 52
0.0
 41
0.25
 77
     0
 78
     1
 53
45.0
 43
0.0
 44
0.0
 45
-0.561266007566822
 46
0.5612660075668221
 79
     0
 98
        1
 10
0.0
 20
0.0
  0
HATCH
  5
1DD
330
1F
100
AcDbEntity
  8
0
  6
Continuous
 62
     7
100
AcDbHatch
 10
0.0
 20
0.0
 30
0.0
210
0.0
220
0.0
230
1.0
  2
ANSI31
 70
     0
 71
     0
 91
        1
 92
        0
 93
        4
 72
     4
 94
        3
 73
     1
 74
     0
 95
        8
 96
        4
 40
0.0
 40
0.0
 40
0.0
 40
0.0
 40
1.0
 40
1.0
 40
1.0
 40
1.0
 10
61.99278529065374
 20
188.8434294547119
 42
1.0
 10
62.53426360953929
 20
189.4441835934746
 42
1.0
 10
61.40276991082774
 20
189.8234472094721
 42
1.0
 10
61.99278529065374
 20
190.3434294547119
 42
1.0
 72
     1
 10
61.99278529065374
 20
190.3434294547119
 11
56.99278529065374
 21
190.3434294547119
 72
     1
 10
56.99278529065374
 20
190.3434294547119
 11
56.99278529065374
 21
188.8434294547119
 72
     1
 10
56.99278529065374
 20
188.8434294547119
 11
61.99278529065374
 21
188.8434294547119
 97
        0
 75
     0
 76
     1
 52
0.0
 41
0.25
 77
     0
 78
     1
 53
45.0
 43
0.0
 44
0.0
 45
-0.561266007566822
 46
0.5612660075668221
 79
     0
 98
        1
 10
0.0
 20
0.0
  0
DIMENSION
  5
1DE
330
1F
100
AcDbEntity
  8
0
  6
Continuous
 62
     7
370
     0
100
AcDbDimension
  2
_D_12
 10
56.9927852907
 20
197.9964964387
 30
0.0
 11
51.2363903334
 21
197.9964964387
 31
0.0
 70
   160
  1
%%c<>
 71
     2
 42
-1.0
  3
SLDDIMSTYLE4
100
AcDbAlignedDimension
 13
47.5927852907
 23
190.3434294547
 33
0.0
 14
56.9927852907
 24
190.3434294547
 34
0.0
100
AcDbRotatedDimension
  0
SPLINE
  5
1EB
330
1F
100
AcDbEntity
  8
0
  6
Continuous
 62
     7
370
    30
100
AcDbSpline
210
0.0
220
0.0
230
1.0
 70
     8
 71
     3
 72
    14
 73
    10
 74
     0
 42
0.00000001
 43
0.00000001
 12
1.0
 22
0.0
 32
0.0
 13
1.0
 23
0.0
 33
0.0
 40
0.0
 40
0.0
 40
0.0
 40
0.0
 40
0.2499999999999999
 40
0.2499999999999999
 40
0.4999999999999998
 40
0.4999999999999998
 40
0.7499999999999999
 40
0.7499999999999999
 40
1.0
 40
1.0
 40
1.0
 40
1.0
 10
147.3820541842184
 20
111.1813809736208
 30
0.0
 10
147.3849048378258
 20
111.016911331074
 30
0.0
 10
147.3880567604117
 20
110.8433401495708
 30
0.0
 10
147.3944028141152
 20
110.4955565383499
 30
0.0
 10
147.3976203312464
 20
110.3197969540686
 30
0.0
 10
147.4042319377209
 20
109.964622645575
 30
0.0
 10
147.4076146464424
 20
109.7863961988772
 30
0.0
 10
147.4146441338547
 20
109.4403275910008
 30
0.0
 10
147.4183307076934
 20
109.2706185780902
 30
0.0
 10
147.4223739989988
 20
109.103538536158
 30
0.0
  0
SPLINE
  5
1EC
330
1F
100
AcDbEntity
  8
0
  6
Continuous
 62
     7
370
    30
100
AcDbSpline
210
0.0
220
0.0
230
1.0
 70
    24
 71
     3
 72
    12
 73
     8
 74
     0
 42
0.00000001
 43
0.00000001
 12
1.0
 22
0.0
 32
0.0
 13
1.0
 23
0.0
 33
0.0
 40
0.0
 40
0.0
 40
0.0
 40
0.0
 40
0.5
 40
0.5
 40
0.75
 40
0.75
 40
1.0
 40
1.0
 40
1.0
 40
1.0
 10
149.1360544350136
 20
111.1813809736208
 30
0.0
 10
148.8506272164073
 20
111.1813809736208
 30
0.0
 10
148.5606418272337
 20
111.1813809736208
 30
0.0
 10
148.1154353938826
 20
111.1813809736208
 30
0.0
 10
147.9639971890817
 20
111.1813809736208
 30
0.0
 10
147.6688122038933
 20
111.1813809736208
 30
0.0
 10
147.5240367233713
 20
111.1813809736208
 30
0.0
 10
147.3820541842184
 20
111.1813809736208
 30
0.0
  0
SPLINE
  5
1ED
330
1F
100
AcDbEntity
  8
0
  6
Continuous
 62
     7
370
    30
100
AcDbSpline
210
0.0
220
0.0
230
1.0
 70
     8
 71
     3
 72
    20
 73
    16
 74
     0
 42
0.00000001
 43
0.00000001
 12
1.0
 22
0.0
 32
0.0
 13
1.0
 23
0.0
 33
0.0
 40
0.0
 40
0.0
 40
0.0
 40
0.0
 40
0.125
 40
0.125
 40
0.25
 40
0.25
 40
0.375
 40
0.375
 40
0.5
 40
0.5
 40
0.625
 40
0.625
 40
0.75
 40
0.75
 40
1.0
 40
1.0
 40
1.0
 40
1.0
 10
149.1360545310614
 20
111.1813810933007
 30
0.0
 10
149.2766979861157
 20
111.068867102077
 30
0.0
 10
149.3965389407205
 20
110.9296666182766
 30
0.0
 10
149.5754033408807
 20
110.6177491529394
 30
0.0
 10
149.6349017828039
 20
110.4438406976163
 30
0.0
 10
149.6814773333363
 20
110.0878672411244
 30
0.0
 10
149.6686410863092
 20
109.9045448804515
 30
0.0
 10
149.5697680049051
 20
109.5585804188954
 30
0.0
 10
149.4835447775562
 20
109.3957339935938
 30
0.0
 10
149.2525396785451
 20
109.1195017793032
 30
0.0
 10
149.1085755825857
 20
109.0064204389856
 30
0.0
 10
148.7859152739108
 20
108.8451430472764
 30
0.0
 10
148.608994740041
 20
108.7977561699954
 30
0.0
 10
148.0700286986851
 20
108.7600427770399
 30
0.0
 10
147.7029006141487
 20
108.8778516969019
 30
0.0
 10
147.4223738678845
 20
109.1035383727108
 30
0.0
  0
SPLINE
  5
1EE
330
1F
100
AcDbEntity
  8
0
  6
Continuous
 62
     7
370
    30
100
AcDbSpline
210
0.0
220
0.0
230
1.0
 70
     8
 71
     3
 72
    14
 73
    10
 74
     0
 42
0.00000001
 43
0.00000001
 12
1.0
 22
0.0
 32
0.0
 13
1.0
 23
0.0
 33
0.0
 40
0.0
 40
0.0
 40
0.0
 40
0.0
 40
0.2499999999999999
 40
0.2499999999999999
 40
0.4999999999999999
 40
0.4999999999999999
 40
0.7499999999999999
 40
0.7499999999999999
 40
1.0
 40
1.0
 40
1.0
 40
1.0
 10
145.5322581186338
 20
111.1813809736208
 30
0.0
 10
145.5294074650265
 20
111.3458506161676
 30
0.0
 10
145.5262555424405
 20
111.5194217976707
 30
0.0
 10
145.5199094887371
 20
111.8672054088917
 30
0.0
 10
145.5166919716059
 20
112.042964993173
 30
0.0
 10
145.5100803651314
 20
112.3981393016665
 30
0.0
 10
145.5066976564099
 20
112.5763657483644
 30
0.0
 10
145.4996681689976
 20
112.9224343562408
 30
0.0
 10
145.4959815951588
 20
113.0921433691514
 30
0.0
 10
145.4919383038535
 20
113.2592234110836
 30
0.0
  0
SPLINE
  5
1EF
330
1F
100
AcDbEntity
  8
0
  6
Continuous
 62
     7
370
    30
100
AcDbSpline
210
0.0
220
0.0
230
1.0
 70
    24
 71
     3
 72
    12
 73
     8
 74
     0
 42
0.00000001
 43
0.00000001
 12
1.0
 22
0.0
 32
0.0
 13
1.0
 23
0.0
 33
0.0
 40
0.0
 40
0.0
 40
0.0
 40
0.0
 40
0.25
 40
0.25
 40
0.5
 40
0.5
 40
1.0
 40
1.0
 40
1.0
 40
1.0
 10
145.5322581186338
 20
111.1813809736208
 30
0.0
 10
145.3904628235977
 20
111.1813809736208
 30
0.0
 10
145.2462660051348
 20
111.1813809736208
 30
0.0
 10
144.95310584105
 20
111.1813809736208
 30
0.0
 10
144.8028269506063
 20
111.1813809736208
 30
0.0
 10
144.3563751508916
 20
111.1813809736208
 30
0.0
 10
144.0651581866159
 20
111.1813809736208
 30
0.0
 10
143.7782578687097
 20
111.1813809736208
 30
0.0
  0
SPLINE
  5
1F0
330
1F
100
AcDbEntity
  8
0
  6
Continuous
 62
     7
370
    30
100
AcDbSpline
210
0.0
220
0.0
230
1.0
 70
     8
 71
     3
 72
    20
 73
    16
 74
     0
 42
0.00000001
 43
0.00000001
 12
1.0
 22
0.0
 32
0.0
 13
1.0
 23
0.0
 33
0.0
 40
0.0
 40
0.0
 40
0.0
 40
0.0
 40
0.1250000000000001
 40
0.1250000000000001
 40
0.2500000000000001
 40
0.2500000000000001
 40
0.3750000000000001
 40
0.3750000000000001
 40
0.5000000000000001
 40
0.5000000000000001
 40
0.625
 40
0.625
 40
0.7500000000000001
 40
0.7500000000000001
 40
1.0
 40
1.0
 40
1.0
 40
1.0
 10
143.778257772341
 20
111.1813808535008
 30
0.0
 10
143.6376143172087
 20
111.2938948446754
 30
0.0
 10
143.5177733625207
 20
111.433095328444
 30
0.0
 10
143.3389089621949
 20
111.7450127937556
 30
0.0
 10
143.2794105201901
 20
111.9189212490825
 30
0.0
 10
143.2328349695109
 20
112.2748947056156
 30
0.0
 10
143.245671216473
 20
112.4582170663231
 30
0.0
 10
143.3445442977755
 20
112.8041815279673
 30
0.0
 10
143.4307675250893
 20
112.9670279533242
 30
0.0
 10
143.6617726240622
 20
113.2432601677217
 30
0.0
 10
143.8057367200182
 20
113.356341508092
 30
0.0
 10
144.1283970287166
 20
113.5176188998925
 30
0.0
 10
144.3053175626074
 20
113.5650057772093
 30
0.0
 10
144.8442836040478
 20
113.6027191702385
 30
0.0
 10
145.2114116886578
 20
113.4849102503764
 30
0.0
 10
145.4919384349678
 20
113.2592235745308
 30
0.0
  0
SPLINE
  5
1F1
330
1F
100
AcDbEntity
  8
0
  6
Continuous
 62
     7
370
    30
100
AcDbSpline
210
0.0
220
0.0
230
1.0
 70
     8
 71
     3
 72
    10
 73
     6
 74
     0
 42
0.00000001
 43
0.00000001
 12
1.0
 22
0.0
 32
0.0
 13
1.0
 23
0.0
 33
0.0
 40
0.0
 40
0.0
 40
0.0
 40
0.0
 40
0.5
 40
0.5
 40
1.0
 40
1.0
 40
1.0
 40
1.0
 10
147.3820519403183
 20
111.1813815596351
 30
0.0
 10
147.387758669632
 20
111.5105685928129
 30
0.0
 10
147.3943286178715
 20
111.8661368051128
 30
0.0
 10
147.4075262057613
 20
112.5751047256685
 30
0.0
 10
147.4142874705573
 20
112.9249456936635
 30
0.0
 10
147.422374200076
 20
113.2592233933788
 30
0.0
  0
SPLINE
  5
1F2
330
1F
100
AcDbEntity
  8
0
  6
Continuous
 62
     7
370
    30
100
AcDbSpline
210
0.0
220
0.0
230
1.0
 70
    24
 71
     3
 72
    10
 73
     6
 74
     0
 42
0.00000001
 43
0.00000001
 12
1.0
 22
0.0
 32
0.0
 13
1.0
 23
0.0
 33
0.0
 40
0.0
 40
0.0
 40
0.0
 40
0.0
 40
0.5
 40
0.5
 40
1.0
 40
1.0
 40
1.0
 40
1.0
 10
145.5322581393511
 20
111.1813809736206
 30
0.0
 10
145.8287819542357
 20
111.1813809736205
 30
0.0
 10
146.1419574542151
 20
111.1813809736242
 30
0.0
 10
146.7721359035425
 20
111.1813809736184
 30
0.0
 10
147.0854697905216
 20
111.1813809736174
 30
0.0
 10
147.3820541663474
 20
111.1813809736203
 30
0.0
  0
SPLINE
  5
1F3
330
1F
100
AcDbEntity
  8
0
  6
Continuous
 62
     7
370
    30
100
AcDbSpline
210
0.0
220
0.0
230
1.0
 70
     8
 71
     3
 72
    14
 73
    10
 74
     0
 42
0.00000001
 43
0.00000001
 12
1.0
 22
0.0
 32
0.0
 13
1.0
 23
0.0
 33
0.0
 40
0.0
 40
0.0
 40
0.0
 40
0.0
 40
0.25
 40
0.25
 40
0.5
 40
0.5
 40
0.75
 40
0.75
 40
1.0
 40
1.0
 40
1.0
 40
1.0
 10
145.4919383083988
 20
113.2592234067621
 30
0.0
 10
145.6207582082195
 20
113.3822196083638
 30
0.0
 10
145.7716834881529
 20
113.4797450979027
 30
0.0
 10
146.1022230167861
 20
113.6128637038839
 30
0.0
 10
146.2792398062955
 20
113.6472039211728
 30
0.0
 10
146.6351115983926
 20
113.6471990052446
 30
0.0
 10
146.8125921399433
 20
113.6126627578018
 30
0.0
 10
147.1421489665081
 20
113.4799373524928
 30
0.0
 10
147.293734993906
 20
113.3820464779781
 30
0.0
 10
147.4223741084375
 20
113.2592235179075
 30
0.0
  0
ARC
  5
1F4
330
1F
100
AcDbEntity
  8
0
  6
Continuous
 62
     7
370
    30
100
AcDbCircle
 10
146.4571561514
 20
111.1813809736
 30
0.0
 40
4.165000000000015
100
AcDbArc
 50
211.9979379091
 51
264.4889100733
  0
ARC
  5
1F5
330
1F
100
AcDbEntity
  8
0
  6
Continuous
 62
     7
370
    30
100
AcDbCircle
 10
146.4571561514
 20
111.1813809736
 30
0.0
 40
4.176984435797962
100
AcDbArc
 50
212.1320393838
 51
264.5047710046
  0
ARC
  5
1F6
330
1F
100
AcDbEntity
  8
0
  6
Continuous
 62
     7
370
    30
100
AcDbCircle
 10
146.4571561514
 20
111.1813809736
 30
0.0
 40
4.165000000000007
100
AcDbArc
 50
275.5110899267
 51
328.0020620909
  0
ARC
  5
1F7
330
1F
100
AcDbEntity
  8
0
  6
Continuous
 62
     7
370
    30
100
AcDbCircle
 10
146.4571561514
 20
111.1813809736
 30
0.0
 40
4.176984435797965
100
AcDbArc
 50
275.4952289954
 51
327.8679606162
  0
ARC
  5
1F8
330
1F
100
AcDbEntity
  8
0
  6
Continuous
 62
     7
370
    30
100
AcDbCircle
 10
146.4571561514
 20
111.1813809736
 30
0.0
 40
4.165000000000015
100
AcDbArc
 50
95.5110899267
 51
148.0020620909
  0
ARC
  5
1F9
330
1F
100
AcDbEntity
  8
0
  6
Continuous
 62
     7
370
    30
100
AcDbCircle
 10
146.4571561514
 20
111.1813809736
 30
0.0
 40
4.17698443579798
100
AcDbArc
 50
95.4952289954
 51
147.8679606162
  0
ARC
  5
1FA
330
1F
100
AcDbEntity
  8
0
  6
Continuous
 62
     7
370
    30
100
AcDbCircle
 10
146.4571561514
 20
111.1813809736
 30
0.0
 40
4.165000000000015
100
AcDbArc
 50
31.9979379091
 51
84.4889100733
  0
ARC
  5
1FB
330
1F
100
AcDbEntity
  8
0
  6
Continuous
 62
     7
370
    30
100
AcDbCircle
 10
146.4571561514
 20
111.1813809736
 30
0.0
 40
4.17698443579798
100
AcDbArc
 50
32.1320393838
 51
84.5047710046
  0
ARC
  5
1FC
330
1F
100
AcDbEntity
  8
0
  6
Continuous
 62
     7
370
    30
100
AcDbCircle
 10
142.7332469152
 20
113.3313809736
 30
0.0
 40
0.2000000000015276
100
AcDbArc
 50
279.015859295
 51
20.9841407046
  0
ARC
  5
1FD
330
1F
100
AcDbEntity
  8
0
  6
Continuous
 62
     7
370
    30
100
AcDbCircle
 10
146.4571561514
 20
111.1813809736
 30
0.0
 40
4.176984435797825
100
AcDbArc
 50
152.1320393838
 51
207.8679606162
  0
ARC
  5
1FE
330
1F
100
AcDbEntity
  8
0
  6
Continuous
 62
     7
370
    30
100
AcDbCircle
 10
142.7332469152
 20
109.0313809736
 30
0.0
 40
0.2000000000015303
100
AcDbArc
 50
339.015859295
 51
80.9841407046
  0
ARC
  5
1FF
330
1F
100
AcDbEntity
  8
0
  6
Continuous
 62
     7
370
    30
100
AcDbCircle
 10
150.1810653877
 20
109.0313809736
 30
0.0
 40
0.2000000000015321
100
AcDbArc
 50
99.015859295
 51
200.9841407046
  0
ARC
  5
200
330
1F
100
AcDbEntity
  8
0
  6
Continuous
 62
     7
370
    30
100
AcDbCircle
 10
146.4571561514
 20
111.1813809736
 30
0.0
 40
4.176984435797811
100
AcDbArc
 50
332.1320393838
 51
27.8679606162
  0
ARC
  5
201
330
1F
100
AcDbEntity
  8
0
  6
Continuous
 62
     7
370
    30
100
AcDbCircle
 10
150.1810653877
 20
113.3313809736
 30
0.0
 40
0.2000000000015619
100
AcDbArc
 50
159.015859295
 51
260.9841407046
  0
CIRCLE
  5
202
330
1F
100
AcDbEntity
  8
0
  6
Continuous
 62
     7
370
    30
100
AcDbCircle
 10
146.4571561514
 20
111.1813809736
 30
0.0
 40
4.510238095238094
  0
LINE
  5
203
330
1F
100
AcDbEntity
  8
0
  6
Continuous
 62
     7
370
    30
100
AcDbLine
 10
146.8571561413
 20
114.8013810641
 30
0.0
 11
146.8571561413
 21
115.3391686282
 31
0.0
  0
LINE
  5
204
330
1F
100
AcDbEntity
  8
0
  6
Continuous
 62
     7
370
    30
100
AcDbLine
 10
146.0571561615
 20
115.3391686282
 30
0.0
 11
146.0571561615
 21
114.8013810641
 31
0.0
  0
LINE
  5
205
330
1F
100
AcDbEntity
  8
0
  6
Continuous
 62
     7
370
    30
100
AcDbLine
 10
146.2571561565
 20
114.6013809382
 30
0.0
 11
146.6571561464
 21
114.6013809382
 31
0.0
  0
ARC
  5
206
330
1F
100
AcDbEntity
  8
0
  6
Continuous
 62
     7
370
    30
100
AcDbCircle
 10
146.6571561514
 20
114.8013809736
 30
0.0
 40
0.2000000000000028
100
AcDbArc
 50
270.0
 51
0.0
  0
ARC
  5
207
330
1F
100
AcDbEntity
  8
0
  6
Continuous
 62
     7
370
    30
100
AcDbCircle
 10
146.2571561514
 20
114.8013809736
 30
0.0
 40
0.2000000000000171
100
AcDbArc
 50
180.0
 51
270.0
  0
LINE
  5
208
330
1F
100
AcDbEntity
  8
0
  6
Continuous
 62
     7
370
    30
100
AcDbLine
 10
146.6571561464
 20
107.7613810091
 30
0.0
 11
146.2571561565
 21
107.7613810091
 31
0.0
  0
ARC
  5
209
330
1F
100
AcDbEntity
  8
0
  6
Continuous
 62
     7
370
    30
100
AcDbCircle
 10
146.2571561514
 20
107.5613809736
 30
0.0
 40
0.2000000000000028
100
AcDbArc
 50
90.0
 51
180.0
  0
ARC
  5
20A
330
1F
100
AcDbEntity
  8
0
  6
Continuous
 62
     7
370
    30
100
AcDbCircle
 10
146.6571561514
 20
107.5613809736
 30
0.0
 40
0.2000000000000028
100
AcDbArc
 50
0.0
 51
90.0
  0
LINE
  5
20B
330
1F
100
AcDbEntity
  8
0
  6
Continuous
 62
     7
370
    30
100
AcDbLine
 10
146.0571561615
 20
107.5613808832
 30
0.0
 11
146.0571561615
 21
107.0235933191
 31
0.0
  0
LINE
  5
20C
330
1F
100
AcDbEntity
  8
0
  6
Continuous
 62
     7
370
    30
100
AcDbLine
 10
146.8571561413
 20
107.0235933191
 30
0.0
 11
146.8571561413
 21
107.5613808832
 31
0.0
  0
ARC
  5
20D
330
1F
100
AcDbEntity
  8
0
  6
Continuous
 62
     7
370
    30
100
AcDbCircle
 10
146.4571561514
 20
111.1813809736
 30
0.0
 40
4.165000000000001
100
AcDbArc
 50
151.9979379091
 51
208.0020620909
  0
ARC
  5
20E
330
1F
100
AcDbEntity
  8
0
  6
Continuous
 62
     7
370
    30
100
AcDbCircle
 10
146.4571561514
 20
111.1813809736
 30
0.0
 40
4.16500000000002
100
AcDbArc
 50
331.9979379091
 51
28.0020620909
  0
SPLINE
  5
20F
330
1F
100
AcDbEntity
  8
0
  6
Continuous
 62
     7
370
    30
100
AcDbSpline
210
0.0
220
0.0
230
1.0
 70
     8
 71
     3
 72
    10
 73
     6
 74
     0
 42
0.00000001
 43
0.00000001
 12
1.0
 22
0.0
 32
0.0
 13
1.0
 23
0.0
 33
0.0
 40
0.0
 40
0.0
 40
0.0
 40
0.0
 40
0.5
 40
0.5
 40
1.0
 40
1.0
 40
1.0
 40
1.0
 10
145.5322603625339
 20
111.1813803876065
 30
0.0
 10
145.5265536332203
 20
110.8521933544287
 30
0.0
 10
145.5199836849808
 20
110.4966251421289
 30
0.0
 10
145.506786097091
 20
109.7876572215731
 30
0.0
 10
145.5000248322949
 20
109.4378162535781
 30
0.0
 10
145.4919381027763
 20
109.1035385538628
 30
0.0
  0
SPLINE
  5
210
330
1F
100
AcDbEntity
  8
0
  6
Continuous
 62
     7
370
    30
100
AcDbSpline
210
0.0
220
0.0
230
1.0
 70
     8
 71
     3
 72
    22
 73
    18
 74
     0
 42
0.00000001
 43
0.00000001
 12
1.0
 22
0.0
 32
0.0
 13
1.0
 23
0.0
 33
0.0
 40
0.0
 40
0.0
 40
0.0
 40
0.0
 40
0.125
 40
0.125
 40
0.25
 40
0.25
 40
0.375
 40
0.375
 40
0.5
 40
0.5
 40
0.625
 40
0.625
 40
0.75
 40
0.75
 40
0.875
 40
0.875
 40
1.0
 40
1.0
 40
1.0
 40
1.0
 10
145.4919383632808
 20
109.1035384705326
 30
0.0
 10
145.3515104645308
 20
108.9905620464493
 30
0.0
 10
145.1897511285237
 20
108.9037859648675
 30
0.0
 10
144.8465111939521
 20
108.7948965868188
 30
0.0
 10
144.6642148312422
 20
108.7726380670876
 30
0.0
 10
144.3056374303124
 20
108.7977356902205
 30
0.0
 10
144.1281248633779
 20
108.8453601535268
 30
0.0
 10
143.8069922796158
 20
109.005707209819
 30
0.0
 10
143.6622806425482
 20
109.1190162768776
 30
0.0
 10
143.4309834687768
 20
109.3953541316048
 30
0.0
 10
143.3448650682749
 20
109.5577319682918
 30
0.0
 10
143.245648650657
 20
109.9043520104666
 30
0.0
 10
143.232777473327
 20
110.0870501863588
 30
0.0
 10
143.2793838351076
 20
110.4440005846498
 30
0.0
 10
143.3388392551326
 20
110.6176283087206
 30
0.0
 10
143.5178659148573
 20
110.9298262714462
 30
0.0
 10
143.6376940261772
 20
111.0689308745494
 30
0.0
 10
143.7782577321667
 20
111.1813811439588
 30
0.0
  0
SPLINE
  5
211
330
1F
100
AcDbEntity
  8
0
  6
Continuous
 62
     7
370
    30
100
AcDbSpline
210
0.0
220
0.0
230
1.0
 70
     8
 71
     3
 72
    22
 73
    18
 74
     0
 42
0.00000001
 43
0.00000001
 12
1.0
 22
0.0
 32
0.0
 13
1.0
 23
0.0
 33
0.0
 40
0.0
 40
0.0
 40
0.0
 40
0.0
 40
0.1249999999999999
 40
0.1249999999999999
 40
0.2499999999999999
 40
0.2499999999999999
 40
0.3749999999999998
 40
0.3749999999999998
 40
0.4999999999999998
 40
0.4999999999999998
 40
0.6249999999999998
 40
0.6249999999999998
 40
0.7499999999999999
 40
0.7499999999999999
 40
0.8749999999999999
 40
0.8749999999999999
 40
1.0
 40
1.0
 40
1.0
 40
1.0
 10
147.4223739395715
 20
113.259223476709
 30
0.0
 10
147.5628018382986
 20
113.3721999007738
 30
0.0
 10
147.7245611742758
 20
113.4589759823459
 30
0.0
 10
148.0678011087849
 20
113.5678653603977
 30
0.0
 10
148.2500974714623
 20
113.5901238801417
 30
0.0
 10
148.6086748723367
 20
113.5650262570578
 30
0.0
 10
148.7861874392492
 20
113.5174017937877
 30
0.0
 10
149.1073200229902
 20
113.357054737585
 30
0.0
 10
149.2520316600601
 20
113.243745670579
 30
0.0
 10
149.4833288338668
 20
112.9674078159626
 30
0.0
 10
149.5694472344057
 20
112.8050299793269
 30
0.0
 10
149.6686636521241
 20
112.4584099372459
 30
0.0
 10
149.6815348295201
 20
112.2757117613885
 30
0.0
 10
149.6349284678866
 20
111.9187613631339
 30
0.0
 10
149.5754730479439
 20
111.7451336390696
 30
0.0
 10
149.3964463883839
 20
111.4329356763159
 30
0.0
 10
149.276618277148
 20
111.293831073182
 30
0.0
 10
149.1360545712357
 20
111.1813808037228
 30
0.0
  0
SPLINE
  5
212
330
1F
100
AcDbEntity
  8
0
  6
Continuous
 62
     7
370
    30
100
AcDbSpline
210
0.0
220
0.0
230
1.0
 70
     8
 71
     3
 72
    14
 73
    10
 74
     0
 42
0.00000001
 43
0.00000001
 12
1.0
 22
0.0
 32
0.0
 13
1.0
 23
0.0
 33
0.0
 40
0.0
 40
0.0
 40
0.0
 40
0.0
 40
0.25
 40
0.25
 40
0.5
 40
0.5
 40
0.75
 40
0.75
 40
1.0
 40
1.0
 40
1.0
 40
1.0
 10
147.4223742561057
 20
109.1035382664288
 30
0.0
 10
147.2939347880392
 20
108.9809056970479
 30
0.0
 10
147.141998492317
 20
108.8827661159232
 30
0.0
 10
146.8127653516448
 20
108.7501668004558
 30
0.0
 10
146.6350544833528
 20
108.715575666582
 30
0.0
 10
146.2794937528456
 20
108.7155453322718
 30
0.0
 10
146.1022901396585
 20
108.7499211341474
 30
0.0
 10
145.7722890500717
 20
108.8827231782772
 30
0.0
 10
145.6207407219755
 20
108.9805590280744
 30
0.0
 10
145.4919383042161
 20
109.1035385443361
 30
0.0
  0
HATCH
  5
213
330
1F
100
AcDbEntity
  8
0
  6
Continuous
 62
     7
370
     0
100
AcDbHatch
 10
0.0
 20
0.0
 30
0.0
210
0.0
220
0.0
230
1.0
  2
ANSI31
 70
     0
 71
     0
 91
        2
 92
        0
 93
        1
 72
     2
 10
146.4571561514261
 20
111.1813809736208
 40
4.510238095238095
 50
0.0
 51
360.0
 73
     1
 97
        0
 92
        0
 93
       20
 72
     2
 10
146.4571561514261
 20
111.1813809736208
 40
4.176984435797665
 50
275.495228995385
 51
327.8679606161892
 73
     0
 72
     2
 10
150.1810653876992
 20
113.3313809736208
 40
0.2000000000000091
 50
159.0158592950235
 51
260.9841407046017
 73
     1
 72
     2
 10
146.4571561514261
 20
111.1813809736208
 40
4.176984435797665
 50
332.1320393837841
 51
387.8679606161894
 73
     0
 72
     2
 10
150.1810653876992
 20
109.0313809736208
 40
0.2000000000000091
 50
99.01585929503437
 51
200.9841407045984
 73
     1
 72
     2
 10
146.4571561514261
 20
111.1813809736208
 40
4.176984435797665
 50
32.13203938378285
 51
84.50477100461505
 73
     0
 72
     1
 10
146.8571561514262
 20
107.0235932232782
 11
146.8571561514262
 21
107.5613809736208
 72
     2
 10
146.6571561514262
 20
107.5613809736208
 40
0.2
 50
0.0
 51
90.0
 73
     1
 72
     1
 10
146.6571561514262
 20
107.7613809736208
 11
146.2571561514262
 21
107.7613809736208
 72
     2
 10
146.2571561514262
 20
107.5613809736208
 40
0.2
 50
90.0
 51
180.0
 73
     1
 72
     1
 10
146.0571561514262
 20
107.5613809736208
 11
146.0571561514262
 21
107.0235932232782
 72
     2
 10
146.4571561514261
 20
111.1813809736208
 40
4.176984435797665
 50
95.49522899538377
 51
147.8679606161884
 73
     0
 72
     2
 10
142.7332469151531
 20
109.0313809736207
 40
0.2000000000000091
 50
339.0158592950214
 51
440.984140704601
 73
     1
 72
     2
 10
146.4571561514261
 20
111.1813809736208
 40
4.176984435797665
 50
152.1320393837829
 51
207.8679606161894
 73
     0
 72
     2
 10
142.733246915153
 20
113.3313809736208
 40
0.2000000000000091
 50
279.0158592950265
 51
380.9841407045984
 73
     1
 72
     2
 10
146.4571561514261
 20
111.1813809736208
 40
4.176984435797665
 50
212.132039383784
 51
264.5047710046159
 73
     0
 72
     1
 10
146.0571561514261
 20
115.3391687239633
 11
146.0571561514261
 21
114.8013809736208
 72
     2
 10
146.2571561514261
 20
114.8013809736208
 40
0.2
 50
180.0
 51
270.0000000000008
 73
     1
 72
     1
 10
146.2571561514261
 20
114.6013809736208
 11
146.6571561514261
 21
114.6013809736208
 72
     2
 10
146.6571561514261
 20
114.8013809736208
 40
0.2
 50
270.0000000000008
 51
360.0000000000008
 73
     1
 72
     1
 10
146.8571561514261
 20
114.8013809736208
 11
146.8571561514261
 21
115.3391687239633
 97
        0
 75
     0
 76
     1
 52
0.0
 41
1.0
 77
     0
 78
     1
 53
45.0
 43
0.0
 44
0.0
 45
-2.245064030267288
 46
2.245064030267288
 79
     0
 98
        1
 10
0.0
 20
0.0
  0
INSERT
  5
21A
330
1F
100
AcDbEntity
  8
0
  6
Continuous
 62
     7
370
     0
100
AcDbBlockReference
  2
SW_NOTE_5
 10
132.7998638003
 20
99.0670119176
 30
0.0
  0
ENDSEC
  0
SECTION
  2
OBJECTS
  0
DICTIONARY
  5
C
330
0
100
AcDbDictionary
281
     1
  3
ACAD_GROUP
350
D
  3
ACAD_LAYOUT
350
1A
  3
ACAD_MLINESTYLE
350
17
  3
ACAD_PLOTSETTINGS
350
19
  3
ACAD_PLOTSTYLENAME
350
E
  0
DICTIONARY
  5
D
102
{ACAD_REACTORS
330
C
102
}
330
C
100
AcDbDictionary
281
     1
  0
DICTIONARY
  5
1A
102
{ACAD_REACTORS
330
C
102
}
330
C
100
AcDbDictionary
281
     1
  3
Layout1
350
1E
  3
Layout2
350
26
  3
Model
350
22
  0
DICTIONARY
  5
17
102
{ACAD_REACTORS
330
C
102
}
330
C
100
AcDbDictionary
281
     1
  3
Standard
350
18
  0
DICTIONARY
  5
19
102
{ACAD_REACTORS
330
C
102
}
330
C
100
AcDbDictionary
281
     1
  0
ACDBDICTIONARYWDFLT
  5
E
102
{ACAD_REACTORS
330
C
102
}
330
C
100
AcDbDictionary
281
     1
  3
Normal
350
F
100
AcDbDictionaryWithDefault
340
F
  0
LAYOUT
  5
1E
102
{ACAD_REACTORS
330
1A
102
}
330
1A
100
AcDbPlotSettings
  1

  2
none_device
  4

  6

 40
0.0
 41
0.0
 42
0.0
 43
0.0
 44
0.0
 45
0.0
 46
0.0
 47
0.0
 48
0.0
 49
0.0
140
0.0
141
0.0
142
1.0
143
1.0
 70
   688
 72
     0
 73
     0
 74
     5
  7

 75
    16
147
1.0
148
0.0
149
0.0
100
AcDbLayout
  1
Layout1
 70
     1
 71
     1
 10
0.0
 20
0.0
 11
420.0
 21
297.0
 12
0.0
 22
0.0
 32
0.0
 14
1.0000000000E+20
 24
1.0000000000E+20
 34
1.0000000000E+20
 15
-1.0000000000E+20
 25
-1.0000000000E+20
 35
-1.0000000000E+20
146
0.0
 13
0.0
 23
0.0
 33
0.0
 16
1.0
 26
0.0
 36
0.0
 17
0.0
 27
1.0
 37
0.0
 76
     0
330
1B
  0
LAYOUT
  5
26
102
{ACAD_REACTORS
330
1A
102
}
330
1A
100
AcDbPlotSettings
  1

  2
none_device
  4

  6

 40
0.0
 41
0.0
 42
0.0
 43
0.0
 44
0.0
 45
0.0
 46
0.0
 47
0.0
 48
0.0
 49
0.0
140
0.0
141
0.0
142
1.0
143
1.0
 70
   688
 72
     0
 73
     0
 74
     5
  7

 75
    16
147
1.0
148
0.0
149
0.0
100
AcDbLayout
  1
Layout2
 70
     1
 71
     2
 10
0.0
 20
0.0
 11
0.0
 21
0.0
 12
0.0
 22
0.0
 32
0.0
 14
0.0
 24
0.0
 34
0.0
 15
0.0
 25
0.0
 35
0.0
146
0.0
 13
0.0
 23
0.0
 33
0.0
 16
1.0
 26
0.0
 36
0.0
 17
0.0
 27
1.0
 37
0.0
 76
     0
330
23
  0
LAYOUT
  5
22
102
{ACAD_REACTORS
330
1A
102
}
330
1A
100
AcDbPlotSettings
  1

  2
none_device
  4

  6

 40
0.0
 41
0.0
 42
0.0
 43
0.0
 44
0.0
 45
0.0
 46
0.0
 47
0.0
 48
0.0
 49
0.0
140
0.0
141
0.0
142
1.0
143
1.0
 70
  1712
 72
     0
 73
     0
 74
     0
  7

 75
     0
147
1.0
148
0.0
149
0.0
100
AcDbLayout
  1
Model
 70
     1
 71
     0
 10
0.0
 20
0.0
 11
210.0
 21
297.0
 12
0.0
 22
0.0
 32
0.0
 14
0.0
 24
0.0
 34
0.0
 15
210.0
 25
297.0
 35
0.0
146
0.0
 13
0.0
 23
0.0
 33
0.0
 16
1.0
 26
0.0
 36
0.0
 17
0.0
 27
1.0
 37
0.0
 76
     0
330
1F
331
29
  0
MLINESTYLE
  5
18
102
{ACAD_REACTORS
330
17
102
}
330
17
100
AcDbMlineStyle
  2
Standard
 70
     0
  3

 62
   256
 51
90.0
 52
90.0
 71
     2
 49
0.5
 62
   256
  6
BYLAYER
 49
-0.5
 62
   256
  6
BYLAYER
  0
ACDBPLACEHOLDER
  5
F
102
{ACAD_REACTORS
330
E
102
}
330
E
  0
ENDSEC
  0
EOF
